osu file format v13

[General]
AudioFilename: nyanderful! tv size.mp3
AudioLeadIn: 1500
PreviewTime: 63309
Countdown: 0
SampleSet: Soft
StackLeniency: 0.7
Mode: 0
LetterboxInBreaks: 0
WidescreenStoryboard: 0

[Editor]
Bookmarks: 29571
DistanceSpacing: 1.1
BeatDivisor: 4
GridSize: 4
TimelineZoom: 2.4

[Metadata]
Title:Nyanderful!
TitleUnicode:Nyanderful!
Artist:Sakakibara Yui
ArtistUnicode:榊原ゆい
Creator:Lost The Lights
Version:Hard
Source:にゃんこい!
Tags:[Yue] Gero AkagamiNamikaze Opening Nyan_Koi!
BeatmapID:228788
BeatmapSetID:82734

[Difficulty]
HPDrainRate:6
CircleSize:4
OverallDifficulty:6
ApproachRate:7
SliderMultiplier:1.5
SliderTickRate:1

[Events]
//Background and Video events
0,0,"BG.jpg",0,0
//Break Periods
//Storyboard Layer 0 (Background)
//Storyboard Layer 1 (Fail)
//Storyboard Layer 2 (Pass)
//Storyboard Layer 3 (Foreground)
//Storyboard Sound Samples

[TimingPoints]
684,375,4,2,0,65,1,0
684,-125,4,2,0,65,0,0
15496,-100,4,2,0,65,0,0
30309,-100,4,1,0,65,0,0
30684,-100,4,2,0,65,0,0
63684,-100,4,2,0,65,0,1
88996,-100,4,2,0,65,0,0

[Colours]
Combo1 : 255,64,159
Combo2 : 251,225,47
Combo3 : 255,126,64
Combo4 : 64,64,255

[HitObjects]
136,140,684,6,0,P|176:92|240:76,1,120,4|2,0:0|0:0,0:0:0:0:
300,200,1434,2,0,P|262:246|206:264,1,120,2|2,0:0|0:0,0:0:0:0:
160,208,1996,1,0,0:0:0:0:
44,148,2371,2,0,P|53:89|92:44,1,120,2|0,0:0|0:0,0:0:0:0:
164,56,2934,5,2,0:0:0:0:
220,104,3121,1,0,0:0:0:0:
292,104,3309,1,2,0:0:0:0:
340,52,3496,1,0,0:0:0:0:
412,52,3684,2,0,P|452:100|460:160,1,120,2|0,0:0|0:0,0:0:0:0:
256,192,4246,12,0,6309,0:0:0:0:
120,72,6684,5,4,0:0:0:0:
252,128,7059,1,0,0:0:0:0:
384,68,7434,2,0,B|448:72|448:72|508:100,1,120,2|0,0:0|0:0,0:0:0:0:
460,156,7996,1,0,0:0:0:0:
384,280,8371,2,0,P|360:312|276:360,1,120,0|0,0:0|0:0,0:0:0:0:
220,348,8934,5,2,0:0:0:0:
152,328,9121,1,0,0:0:0:0:
88,292,9309,1,0,0:0:0:0:
32,248,9496,1,0,0:0:0:0:
0,184,9684,2,0,P|0:112|40:56,1,120,2|0,0:0|0:0,0:0:0:0:
88,40,10246,1,0,0:0:0:0:
256,192,10434,12,0,13809,0:0:0:0:
256,192,14371,6,0,L|256:144,2,30,0|0|2,0:0|0:0|0:0,0:0:0:0:
140,256,14934,2,0,L|140:312,2,30,2|0|0,0:0|0:0|0:0,0:0:0:0:
148,192,15309,2,0,L|168:148,3,30,2|0|0|0,0:0|0:0|0:0|0:0,0:0:0:0:
184,132,15684,5,4,0:0:0:0:
320,40,16059,2,0,B|392:20|392:20|496:44,1,150,8|0,0:0|0:0,0:0:0:0:
436,116,16621,1,2,0:0:0:0:
384,180,16809,1,8,0:0:0:0:
312,228,16996,2,0,P|312:308|184:308,1,225,0|8,0:0|0:0,0:0:0:0:
248,268,17746,1,2,0:0:0:0:
124,156,18121,5,0,0:0:0:0:
124,236,18309,2,0,B|88:260|48:236,1,75,8|0,0:0|0:0,0:0:0:0:
48,156,18684,1,0,0:0:0:0:
184,60,19059,6,0,P|216:24|316:20,1,150,8|2,0:0|0:0,0:0:0:0:
396,28,19621,1,0,0:0:0:0:
304,164,19996,1,2,0:0:0:0:
468,176,20371,1,2,0:0:0:0:
304,164,20746,2,0,B|352:212|272:292|336:324,2,150,2|0|0,0:0|0:0|0:0,0:0:0:0:
240,216,21684,5,4,0:0:0:0:
276,376,22059,1,8,0:0:0:0:
200,348,22246,1,0,0:0:0:0:
120,328,22434,2,0,P|80:288|80:264,1,75,2|0,0:0|0:0,0:0:0:0:
148,228,22809,1,8,0:0:0:0:
184,152,22996,2,0,P|255:80|327:150,1,225,2|8,0:0|0:0,0:0:0:0:
256,152,23746,1,2,0:0:0:0:
132,260,24121,1,0,0:0:0:0:
180,328,24309,2,0,B|204:304|236:360|276:320,1,75,8|0,0:0|0:0,0:0:0:0:
288,172,24871,5,0,0:0:0:0:
304,92,25059,1,8,0:0:0:0:
364,36,25246,2,0,P|468:36|468:164,1,225,2|8,0:0|0:0,0:0:0:0:
464,216,25996,1,2,0:0:0:0:
340,324,26371,5,2,0:0:0:0:
280,264,26559,1,8,0:0:0:0:
208,304,26746,2,0,B|132:304|132:304|60:240,2,150,2|2|0,0:0|0:0|0:0,0:0:0:0:
216,220,27684,5,4,0:0:0:0:
152,168,27871,1,0,0:0:0:0:
72,156,28059,2,0,P|56:104|80:76,1,75,8|0,0:0|0:0,0:0:0:0:
128,36,28434,2,0,P|168:20|208:36,1,75
256,84,28809,1,8,0:0:0:0:
314,28,28996,2,0,P|350:20|384:36,1,75,0|0,1:1|1:1,0:0:0:0:
447,88,29371,2,0,P|457:124|440:156,1,75,8|8,3:0|3:0,0:0:0:0:
360,168,29746,1,4,3:0:0:0:
344,332,30121,6,0,B|344:284|304:244,1,75,0|4,0:0|0:0,0:0:0:0:
256,84,30684,5,4,0:0:0:0:
204,148,30871,1,0,0:0:0:0:
184,228,31059,2,0,P|128:172|128:148,1,75,8|0,0:0|0:0,0:0:0:0:
204,148,31434,1,0,0:0:0:0:
184,312,31809,2,0,P|220:302|249:280,1,75,8|0,0:0|0:0,0:0:0:0:
304,216,32184,1,0,0:0:0:0:
332,292,32371,1,0,0:0:0:0:
412,312,32559,2,0,P|445:295|460:262,1,75,8|0,0:0|0:0,0:0:0:0:
365,129,33121,5,0,0:0:0:0:
423,70,33309,1,8,0:0:0:0:
364,11,33496,1,0,0:0:0:0:
305,69,33684,1,0,0:0:0:0:
246,10,33871,1,2,0:0:0:0:
187,68,34059,2,0,L|99:68,1,75,8|0,0:0|0:0,0:0:0:0:
40,108,34434,1,2,0:0:0:0:
84,176,34621,1,0,0:0:0:0:
44,248,34809,1,8,0:0:0:0:
192,320,35184,5,0,0:0:0:0:
272,296,35371,2,0,L|328:352,1,75,2|8,0:0|0:0,0:0:0:0:
408,344,35746,1,0,0:0:0:0:
400,260,35934,2,0,B|446:213|390:157|430:119,2,150,2|10|2,0:0|0:0|0:0,0:0:0:0:
320,268,36871,6,0,L|248:196,1,75,2|8,0:0|0:0,0:0:0:0:
272,132,37246,1,2,0:0:0:0:
320,64,37434,1,0,0:0:0:0:
400,48,37621,1,0,0:0:0:0:
472,88,37809,2,0,L|472:176,1,75,8|0,0:0|0:0,0:0:0:0:
472,244,38184,5,0,0:0:0:0:
456,324,38371,1,0,0:0:0:0:
380,356,38559,2,0,B|340:356|300:316,2,75,8|0|0,0:0|0:0|0:0,0:0:0:0:
384,272,39121,1,4,0:0:0:0:
328,60,39684,5,2,0:0:0:0:
168,92,40059,1,8,0:0:0:0:
320,152,40434,1,2,0:0:0:0:
484,148,40809,1,8,0:0:0:0:
484,148,40996,2,0,B|512:192|448:248|500:324,1,150
320,304,41746,1,0,0:0:0:0:
256,252,41934,2,0,P|200:252|168:220,2,75,2|0|8,0:0|1:0|0:0,0:0:0:0:
236,332,42496,1,0,1:0:0:0:
156,312,42684,5,2,0:0:0:0:
88,160,43059,1,8,0:0:0:0:
252,156,43434,1,2,0:0:0:0:
400,84,43809,2,0,L|488:84,1,75,8|0,0:0|0:0,0:0:0:0:
489,328,44371,6,0,P|418:313|388:248,1,150,2|8,0:0|0:0,0:0:0:0:
472,248,44934,1,2,0:0:0:0:
472,248,45121,1,0,1:0:0:0:
472,164,45309,1,8,0:0:0:0:
396,136,45496,1,0,1:0:0:0:
328,184,45684,5,4,0:0:0:0:
320,348,46059,2,0,L|156:368,1,150,8|2,0:0|0:0,0:0:0:0:
100,216,46809,1,8,0:0:0:0:
124,136,46996,1,0,0:0:0:0:
264,112,47371,1,2,0:0:0:0:
328,60,47559,2,0,P|288:8|260:4,1,75,8|2,0:0|0:0,0:0:0:0:
120,32,48121,5,0,1:0:0:0:
188,84,48309,1,8,0:0:0:0:
124,136,48496,1,0,1:0:0:0:
56,88,48684,2,0,P|14:137|14:233,1,150,2|8,0:0|0:0,0:0:0:0:
88,200,49246,2,0,P|167:275|277:276,1,225,0|8,0:0|0:0,0:0:0:0:
165,153,50184,5,0,0:0:0:0:
223,94,50371,2,0,L|223:18,2,75,0|8|0,0:0|0:0|0:0,0:0:0:0:
281,152,50934,1,2,0:0:0:0:
348,104,51121,1,0,0:0:0:0:
432,108,51309,1,8,0:0:0:0:
360,256,51684,5,6,0:0:0:0:
488,360,52059,2,0,P|451:368|417:355,1,75,8|4,0:0|0:0,0:0:0:0:
268,288,52621,1,0,0:0:0:0:
196,328,52809,2,0,B|148:328|124:256|60:256,1,150,12|2,0:0|0:0,0:0:0:0:
52,176,53371,5,0,0:0:0:0:
68,96,53559,2,0,P|108:56|108:24,1,75,8|0,0:0|0:0,0:0:0:0:
184,80,53934,2,0,B|208:32|208:32|272:12,2,112.5,2|0|2,0:0|0:0|0:0,0:0:0:0:
264,96,54684,2,0,B|348:68|408:128|488:96,2,225,6|4|4,0:0|0:0|0:0,0:0:0:0:
28,60,56371,5,0,0:0:0:0:
112,60,56559,1,8,0:0:0:0:
68,132,56746,1,0,0:0:0:0:
28,204,56934,2,0,L|28:260,2,37.5,0|0|0,1:0|3:0|3:0,0:0:0:0:
112,200,57309,1,8,0:0:0:0:
148,276,57496,1,0,0:0:0:0:
200,212,57684,6,0,P|252:204|284:172,1,75,8|0,1:1|0:0,0:0:0:0:
210,132,58059,1,2,0:0:0:0:
232,52,58246,2,0,P|288:32|312:32,1,75,8|2,1:1|0:0,0:0:0:0:
302,114,58621,1,0,0:0:0:0:
340,188,58809,2,0,P|390:203|433:188,1,75,8|0,1:1|0:0,0:0:0:0:
384,120,59184,1,0,0:0:0:0:
364,40,59371,2,0,P|401:36|435:51,1,75,8|0,1:1|0:0,0:0:0:0:
476,124,59746,1,0,0:0:0:0:
440,216,59934,5,8,1:1:0:0:
476,124,60121,1,0,0:0:0:0:
508,32,60309,1,8,1:1:0:0:
340,68,60684,6,0,B|300:108|380:252|340:292,2,225,8|8|8,1:1|1:1|1:1,0:0:0:0:
256,192,62184,12,0,63121,0:0:0:0:
392,124,63496,5,0,0:0:0:0:
360,200,63684,1,4,0:0:0:0:
360,40,64059,2,0,P|392:40|488:136,1,150,8|2,0:0|0:0,0:0:0:0:
424,248,64809,2,0,P|472:296|472:336,1,75,8|0,0:0|0:0,0:0:0:0:
320,304,65371,1,8,0:0:0:0:
212,180,65746,5,0,0:0:0:0:
284,140,65934,1,2,0:0:0:0:
324,212,66121,1,0,0:0:0:0:
248,248,66309,2,0,P|188:252|136:176,1,150,8|2,0:0|0:0,0:0:0:0:
120,48,67059,5,8,0:0:0:0:
200,32,67246,1,0,0:0:0:0:
268,80,67434,1,0,0:0:0:0:
344,48,67621,2,0,L|416:120,1,75,0|8,0:0|0:0,0:0:0:0:
400,176,67996,1,2,1:1:0:0:
400,328,68371,5,2,1:1:0:0:
252,256,68746,1,2,1:1:0:0:
96,328,69121,1,2,1:1:0:0:
96,176,69496,1,0,0:0:0:0:
96,92,69684,5,6,0:0:0:0:
248,28,70059,2,0,P|263:100|244:172,1,150,8|2,0:0|0:0,0:0:0:0:
252,256,70621,2,0,P|288:264|325:259,1,75,2|8,0:0|0:0,0:0:0:0:
375,192,70996,2,0,P|435:151|502:177,1,150,2|2,0:0|0:0,0:0:0:0:
404,312,71746,6,0,L|348:368,1,75,0|2,0:0|0:0,0:0:0:0:
264,360,72121,1,0,0:0:0:0:
212,296,72309,1,8,0:0:0:0:
252,224,72496,1,0,0:0:0:0:
292,152,72684,2,0,P|212:152|148:216,1,150,2|8,0:0|0:0,0:0:0:0:
112,264,73246,1,0,0:0:0:0:
168,324,73434,2,0,P|196:276|188:240,1,75,0|0,0:0|1:0,0:0:0:0:
368,240,73996,5,0,1:0:0:0:
272,232,74184,2,0,B|328:316|328:316|400:312|452:348,1,225,2|8,0:0|0:0,0:0:0:0:
452,264,74934,2,0,L|452:184,1,75,2|8,0:0|0:0,0:0:0:0:
204,148,75684,6,0,P|264:84|340:104,1,150,2|8,0:0|0:0,0:0:0:0:
284,164,76246,1,0,0:0:0:0:
364,180,76434,2,0,P|304:244|228:224,1,150,2|8,0:0|0:0,0:0:0:0:
284,164,76996,1,0,1:0:0:0:
120,156,77371,1,0,1:0:0:0:
164,316,77746,5,0,0:0:0:0:
244,336,77934,1,2,0:0:0:0:
316,300,78121,2,0,P|360:344|400:344,1,75,0|8,0:0|0:0,0:0:0:0:
392,268,78496,1,0,0:0:0:0:
450,209,78684,1,2,0:0:0:0:
388,56,79059,5,8,0:0:0:0:
304,36,79246,2,0,L|236:92,1,75,0|2,0:0|0:0,0:0:0:0:
256,192,79621,12,4,81121,0:0:0:0:
184,120,81684,5,2,1:0:0:0:
324,36,82059,1,8,1:0:0:0:
440,156,82434,1,2,1:0:0:0:
380,308,82809,2,0,L|308:380,1,75,8|2,0:0|0:0,0:0:0:0:
164,332,83371,1,2,0:0:0:0:
92,184,83746,6,0,L|20:112,2,75,0|2|0,0:0|0:0|0:0,0:0:0:0:
176,172,84309,1,8,0:0:0:0:
224,104,84496,1,0,0:0:0:0:
304,124,84684,1,4,0:0:0:0:
256,192,84777,12,0,87684,0:0:0:0:
256,276,88809,5,12,0:0:0:0:
256,108,88996,1,12,0:0:0:0:
