osu file format v9

[General]
AudioFilename: Sakakibara Yui - Mecha Koi Ranman.mp3
AudioLeadIn: 3000
PreviewTime: 62617
Countdown: 0
SampleSet: Soft
StackLeniency: 0.4
Mode: 0
LetterboxInBreaks: 0

[Editor]
DistanceSpacing: 1
BeatDivisor: 2
GridSize: 8

[Metadata]
Title:Mecha Koi Ranman* (Short Ver.)
Artist:Sakakibara Yui
Creator:osuplayer111
Version:Normal
Source:Tenshin Ranman
Tags:Happy GO Lucky!! PSP Louis Cyphre Lucifer KanaRin Vicho-kun

[Difficulty]
HPDrainRate:3
CircleSize:3
OverallDifficulty:4
ApproachRate:5
SliderMultiplier:1.4
SliderTickRate:1

[Events]
//Background and Video events
0,0,"Moe.jpg"
Video,0,"Tenshin Ranman OP (PSP).avi"
//Break Periods
2,28467,33233
//Storyboard Layer 0 (Background)
//Storyboard Layer 1 (Fail)
//Storyboard Layer 2 (Pass)
//Storyboard Layer 3 (Foreground)
//Storyboard Sound Samples
//Background Colour Transformations
3,100,255,128,255

[TimingPoints]
130,413.793103448276,4,2,1,80,1,0
2819,-100,4,1,1,80,0,0
3233,-100,4,2,1,80,0,0
4267,-100,4,1,1,80,0,0
4474,-100,4,2,1,80,0,0
6130,-100,4,1,1,80,0,0
6543,-100,4,2,1,80,0,0
20405,-100,4,2,1,0,0,0
20819,-100,4,2,1,80,0,0
21233,-100,4,1,1,80,0,0
21440,-100,4,2,1,80,0,0
46681,-100,4,1,1,80,0,0
47095,-100,4,2,1,80,0,0
47302,-100,4,1,1,80,0,0
47716,-100,4,2,1,80,0,0
48130,-100,4,2,2,80,0,0
54750,-100,4,2,1,80,0,0
63026,-100,4,2,1,80,0,1
76164,-100,4,2,1,80,0,0
76267,-100,4,2,1,80,0,1
89509,-100,4,2,1,80,0,0

[Colours]
Combo1 : 128,0,255
Combo2 : 255,128,255
Combo3 : 255,15,15
Combo4 : 255,255,98

[HitObjects]
48,192,130,1,0
126,312,543,2,0,B|190:360|256:371|326:360|384:312,1,280,2|2
464,192,1785,1,0
384,72,2198,2,0,B|326:24|256:13|190:24|126:72,1,280,2|0
48,192,3440,5,4
256,192,4061,2,0,B|184:192,1,70,4|0
368,296,4888,1,4
464,192,5302,2,0,B|424:128,1,70,4|4
216,96,6130,6,0,B|136:96,1,70
48,192,6750,1,4
200,336,7371,2,0,B|280:344|328:288,1,140,0|2
440,208,8198,1,0
440,208,8405,2,0,B|328:176|288:72,1,210,2|0
200,184,9440,6,0,B|160:286|48:318,2,210,2|4|0
280,304,11095,2,0,B|400:320|464:224,2,210,2|4|4
336,176,12750,1,2
152,72,13371,6,0,B|384:72,2,210,4|2|0
72,192,15026,2,4,B|143:278|255:278,1,210
456,208,16267,1,2
312,208,16681,6,0,B|241:122|129:122,2,210,4|2|2
384,88,18336,1,4
256,192,18957,12,0,20405
256,32,21026,6,0,B|256:112,1,70
256,240,21647,1,4
376,312,22061,2,0,B|328:368|256:402|184:368|135:310,1,280,2|2
184,176,23302,1,0
328,176,23716,1,2
56,104,24543,6,0,B|136:104|176:40,1,140,2|0
256,152,25371,1,2
337,42,25785,2,0,B|376:104|456:104,1,140,0|2
256,192,26612,12,4,28267
256,192,34888,5,4
318,317,35302,2,8,B|421:191|318:61,1,280
176,64,36543,2,0,B|104:48|40:104,1,140,0|8
152,192,37371,1,0
45,284,37785,2,0,B|104:336|176:320,1,140,8|0
312,320,38612,6,8,B|440:224|384:72,1,280
256,128,39854,1,0
127,72,40267,2,8,B|72:224|200:320,1,280
192,176,41509,5,0
256,48,41923,2,8,B|344:8|432:32|392:128|320:176,1,280
432,264,43164,1,4
328,360,43578,1,8
184,360,43992,1,4
80,264,44405,1,8
32,136,44819,6,0,B|184:136,1,140,0|8
256,24,45647,1,0
340,136,46061,2,0,B|480:136,1,140,8|4
384,240,46888,6,0,B|328:288,1,70,0|4
181,285,47509,2,0,B|128:240,1,70,0|4
256,176,48130,1,4
56,136,49164,6,8,B|56:64,1,70
192,40,49785,1,4
456,136,50819,6,8,B|456:64,1,70
320,40,51440,1,4
256,312,52267,1,4
192,40,53095,5,4
88,136,53509,1,4
136,264,53923,1,4
256,192,54336,2,0,B|256:120,2,70,4|0|4
376,264,55164,6,8,B|488:120|320:40,1,280
192,40,56405,1,0
64,88,56819,1,8
256,168,57440,6,0,B|256:240,1,70,0|8
184,360,58061,2,0,B|40:360,2,140,0|8|0
328,360,59302,1,8
424,256,59716,5,4
424,256,59923,1,0
424,256,60130,1,8
488,128,60543,2,0,B|464:56|376:56,1,140,0|8
304,176,61371,5,4
304,176,61578,1,0
304,176,61785,2,0,B|219:176|195:104,1,140,8|0
64,56,62612,1,8
24,192,63026,5,4
120,296,63440,1,8
256,344,63854,1,0
392,296,64267,1,8
488,192,64681,1,0
392,88,65095,2,0,B|320:88,1,70,8|0
192,88,65716,6,0,B|128:144,1,70,2|8
88,184,66130,1,2
88,184,66336,2,0,B|120:248|192:272,1,140,2|8
256,152,67164,1,0
320,271,67578,2,0,B|392:248|424:184,1,140,8|4
344,72,68405,2,0,B|296:16,1,70,8|4
168,72,69026,2,0,B|216:16,1,70,2|8
256,152,69647,5,4
128,216,70061,1,8
184,344,70474,1,0
328,344,70888,1,8
384,216,71302,1,4
344,80,71716,2,0,B|304:136,1,70,8|4
168,80,72336,2,0,B|208:136,1,70,2|8
192,280,72957,6,0,B|152:336|72:352,2,140,4|8|0
320,280,74198,2,0,B|360:336|440:352,2,140,8|4|8
256,256,75233,1,4
172,136,75647,1,2
220,80,75854,1,8
292,80,76061,1,2
340,136,76268,1,4
464,208,76681,6,0,B|416:256|336:256,1,140,8|0
256,368,77509,1,8
175,256,77923,2,0,B|96:256|48:208,1,140,0|8
48,208,78543,1,0
128,88,78957,1,2
184,48,79164,1,8
256,48,79371,6,0,B|328:48,1,70,2|4
440,136,79992,2,0,B|288:136,1,140,8|0
300,136,80612,1,4
256,312,81233,1,4
400,312,81647,2,0,B|456:256,1,70,8|4
312,232,82267,1,4
176,280,82681,6,0,B|120:336,1,70,0|4
72,200,83302,2,8,B|72:80|256:144|256:16,1,280
256,160,84543,1,4
256,20,84957,2,8,B|256:144|440:80|440:200,1,280
376,320,86198,1,2
256,248,86612,1,8
136,320,87026,1,0
136,176,87440,6,0,B|192:48,1,140,8|4
256,176,88267,2,0,B|256:96,1,70,8|4
376,176,88888,1,2
376,176,89095,2,0,B|320:48,1,140,8|4
456,88,89923,5,8
496,224,90336,1,0
496,224,90543,1,0
496,224,90750,2,0,B|464:288|376:288,1,140,8|2
256,360,91578,1,8
131,287,91992,5,0
131,287,92198,1,0
131,287,92405,2,0,B|48:288|16:224,1,140,8|4
48,160,93026,2,0,B|96:96,2,70,2|2|4
256,192,94061,2,0,B|256:112,1,70,2|4
464,160,94888,2,0,B|416:96,1,70,2|4
