osu file format v13

[General]
AudioFilename: Sakakibara Yui - Mecha Koi Ranman.mp3
AudioLeadIn: 0
PreviewTime: 62617
Countdown: 0
SampleSet: Normal
StackLeniency: 0.4
Mode: 1
LetterboxInBreaks: 0
WidescreenStoryboard: 0

[Editor]
Bookmarks: 3440,6750,21646,34887,48129,63025,69646,76267,82887,89508
DistanceSpacing: 1.1
BeatDivisor: 4
GridSize: 32
TimelineZoom: 1

[Metadata]
Title:Mecha Koi Ranman* (Short Ver.)
TitleUnicode:メチャ恋らんまん☆ (Short Ver.)
Artist:Sakakibara Yui
ArtistUnicode:榊原ゆい
Creator:JUDYDANNY
Version:Mid's Taiko
Source:Tenshin Ranman
Tags:天神乱漫 Happy GO Lucky!! PSP cagalin JUDYDANNY kuroru MidSoul Ryui seiichiz _MINATO_K
BeatmapID:452454
BeatmapSetID:189944

[Difficulty]
HPDrainRate:5
CircleSize:5
OverallDifficulty:5
ApproachRate:5
SliderMultiplier:1.4
SliderTickRate:1

[Events]
//Background and Video events
0,0,"taiko.jpg",0,80
//Break Periods
//Storyboard Layer 0 (Background)
//Storyboard Layer 1 (Fail)
//Storyboard Layer 2 (Pass)
//Storyboard Layer 3 (Foreground)
//Storyboard Sound Samples
//Background Colour Transformations
3,100,0,0,0

[TimingPoints]
127,413.793103448276,4,1,0,80,1,0
21644,-100,4,1,0,80,0,1
34885,-100,4,1,0,80,0,0
63023,-100,4,1,0,80,0,1
95092,-100,4,1,0,80,0,0

[Colours]
Combo1 : 128,0,255
Combo2 : 255,128,255
Combo3 : 255,15,15
Combo4 : 255,255,98

[HitObjects]
256,192,127,5,0,0:0:0:0:
256,192,540,1,8,0:0:0:0:
256,192,954,1,0,0:0:0:0:
256,192,1058,1,0,0:0:0:0:
256,192,1161,1,0,0:0:0:0:
256,192,1368,1,8,0:0:0:0:
256,192,1575,1,0,0:0:0:0:
256,192,1678,1,0,0:0:0:0:
256,192,1782,1,0,0:0:0:0:
256,192,2195,1,8,0:0:0:0:
256,192,2609,1,8,0:0:0:0:
256,192,2713,1,8,0:0:0:0:
256,192,2816,1,0,0:0:0:0:
256,192,3023,1,12,0:0:0:0:
256,192,3437,1,4,0:0:0:0:
256,192,4058,1,4,0:0:0:0:
256,192,4885,1,12,0:0:0:0:
256,192,5299,1,12,0:0:0:0:
256,192,5506,1,12,0:0:0:0:
256,192,6127,1,0,0:0:0:0:
256,192,6230,1,0,0:0:0:0:
256,192,6333,1,8,0:0:0:0:
256,192,6747,1,4,0:0:0:0:
252,199,8402,1,4,0:0:0:0:
252,199,9851,1,0,0:0:0:0:
252,199,10058,1,4,0:0:0:0:
252,199,11713,1,4,0:0:0:0:
252,199,12333,1,12,0:0:0:0:
252,199,12747,1,8,0:0:0:0:
252,199,12954,1,8,0:0:0:0:
252,199,13161,1,0,0:0:0:0:
252,199,13368,1,12,0:0:0:0:
261,191,15023,1,4,0:0:0:0:
261,191,15644,1,12,0:0:0:0:
261,191,16058,1,0,0:0:0:0:
261,191,16264,1,8,0:0:0:0:
261,191,16471,1,0,0:0:0:0:
261,191,16678,1,12,0:0:0:0:
261,191,18127,1,8,0:0:0:0:
261,191,18333,1,4,0:0:0:0:
261,191,18954,1,4,0:0:0:0:
256,192,19161,12,4,20816,0:0:0:0:
258,194,21023,5,0,0:0:0:0:
258,194,21127,1,0,0:0:0:0:
258,194,21230,1,8,0:0:0:0:
258,194,21644,1,4,0:0:0:0:
258,194,21851,1,0,0:0:0:0:
258,194,21954,1,0,0:0:0:0:
258,194,22058,1,8,0:0:0:0:
258,194,22264,1,0,0:0:0:0:
258,194,22368,1,8,0:0:0:0:
258,194,22575,1,8,0:0:0:0:
258,194,22782,1,0,0:0:0:0:
258,194,22885,1,8,0:0:0:0:
258,194,23092,1,0,0:0:0:0:
258,194,23299,1,0,0:0:0:0:
258,194,23506,1,0,0:0:0:0:
258,194,23713,1,8,0:0:0:0:
258,194,23920,1,0,0:0:0:0:
258,194,24023,1,8,0:0:0:0:
258,194,24230,1,8,0:0:0:0:
258,194,24437,1,8,0:0:0:0:
258,194,24540,1,0,0:0:0:0:
258,194,24747,1,8,0:0:0:0:
258,194,24954,1,0,0:0:0:0:
258,194,25161,1,0,0:0:0:0:
258,194,25368,1,8,0:0:0:0:
258,194,25678,1,8,0:0:0:0:
258,194,25885,5,8,0:0:0:0:
258,194,26092,1,0,0:0:0:0:
258,194,26195,1,8,0:0:0:0:
258,194,26402,1,0,0:0:0:0:
258,194,26609,1,12,0:0:0:0:
258,194,27023,1,12,0:0:0:0:
258,194,27333,1,4,0:0:0:0:
258,194,27540,1,4,0:0:0:0:
258,194,27851,1,12,0:0:0:0:
258,194,28058,1,4,0:0:0:0:
258,194,28264,1,4,0:0:0:0:
258,194,28471,1,0,0:0:0:0:
258,194,28678,1,8,0:0:0:0:
258,194,28989,1,8,0:0:0:0:
258,194,29195,1,8,0:0:0:0:
258,194,29402,1,0,0:0:0:0:
258,194,29506,1,8,0:0:0:0:
258,194,29713,1,0,0:0:0:0:
258,194,29920,1,8,0:0:0:0:
258,194,30127,1,0,0:0:0:0:
258,194,30333,1,8,0:0:0:0:
258,194,30540,1,0,0:0:0:0:
258,194,30644,1,8,0:0:0:0:
258,194,30851,1,8,0:0:0:0:
258,194,31058,1,8,0:0:0:0:
258,194,31161,1,0,0:0:0:0:
258,194,31368,1,0,0:0:0:0:
258,194,31575,1,0,0:0:0:0:
258,194,31782,1,0,0:0:0:0:
258,194,31989,1,8,0:0:0:0:
258,194,32195,1,0,0:0:0:0:
258,194,32299,1,8,0:0:0:0:
258,194,32506,1,8,0:0:0:0:
258,194,32713,1,0,0:0:0:0:
258,194,32816,1,8,0:0:0:0:
258,194,33023,1,0,0:0:0:0:
258,194,33230,1,4,0:0:0:0:
258,194,33644,1,12,0:0:0:0:
258,194,33954,1,12,0:0:0:0:
258,194,34161,1,12,0:0:0:0:
258,194,34471,1,12,0:0:0:0:
258,194,34678,1,8,0:0:0:0:
258,194,34782,1,8,0:0:0:0:
256,192,34885,5,0,0:0:0:0:
256,192,35092,1,0,0:0:0:0:
256,192,35299,1,8,0:0:0:0:
256,192,35506,1,0,0:0:0:0:
256,192,35609,1,0,0:0:0:0:
256,192,35713,1,0,0:0:0:0:
256,192,35920,1,8,0:0:0:0:
256,192,36127,1,0,0:0:0:0:
256,192,36333,1,8,0:0:0:0:
256,192,36540,1,0,0:0:0:0:
256,192,36747,1,0,0:0:0:0:
256,192,36954,1,8,0:0:0:0:
256,192,37161,1,0,0:0:0:0:
256,192,37264,1,8,0:0:0:0:
256,192,37471,1,8,0:0:0:0:
256,192,37678,1,8,0:0:0:0:
256,192,37782,1,8,0:0:0:0:
256,192,37989,1,0,0:0:0:0:
256,192,38195,1,0,0:0:0:0:
256,192,38402,1,0,0:0:0:0:
256,192,38609,1,8,0:0:0:0:
256,192,38816,1,0,0:0:0:0:
256,192,38920,1,8,0:0:0:0:
256,192,39023,1,0,0:0:0:0:
256,192,39230,1,8,0:0:0:0:
256,192,39437,1,8,0:0:0:0:
256,192,39644,1,0,0:0:0:0:
256,192,39851,1,8,0:0:0:0:
256,192,40058,1,0,0:0:0:0:
256,192,40161,1,0,0:0:0:0:
256,192,40264,1,8,0:0:0:0:
256,192,40471,1,0,0:0:0:0:
256,192,40575,1,8,0:0:0:0:
256,192,40782,1,8,0:0:0:0:
256,192,40989,1,0,0:0:0:0:
256,192,41092,1,8,0:0:0:0:
256,192,41299,1,0,0:0:0:0:
256,192,41506,1,0,0:0:0:0:
256,192,41713,1,0,0:0:0:0:
256,192,41920,1,8,0:0:0:0:
256,192,42127,1,8,0:0:0:0:
256,192,42230,1,8,0:0:0:0:
256,192,42333,1,0,0:0:0:0:
256,192,42540,1,8,0:0:0:0:
256,192,42747,1,0,0:0:0:0:
256,192,42954,1,8,0:0:0:0:
256,192,43161,1,4,0:0:0:0:
256,192,43575,1,4,0:0:0:0:
256,192,43989,1,4,0:0:0:0:
256,192,44195,1,0,0:0:0:0:
256,192,44299,1,8,0:0:0:0:
256,192,44402,1,8,0:0:0:0:
256,192,44609,1,0,0:0:0:0:
256,192,44713,1,0,0:0:0:0:
256,192,44816,1,8,0:0:0:0:
256,192,45023,1,8,0:0:0:0:
256,192,45230,1,8,0:0:0:0:
256,192,45437,1,0,0:0:0:0:
256,192,45540,1,0,0:0:0:0:
256,192,45644,1,8,0:0:0:0:
256,192,45851,1,8,0:0:0:0:
256,192,46058,1,0,0:0:0:0:
256,192,46264,1,8,0:0:0:0:
256,192,46471,1,4,0:0:0:0:
256,192,46678,1,4,0:0:0:0:
256,192,46885,1,12,0:0:0:0:
256,192,47092,1,4,0:0:0:0:
256,192,47506,1,12,0:0:0:0:
256,192,47713,1,12,0:0:0:0:
256,192,47920,1,8,0:0:0:0:
256,192,48023,1,8,0:0:0:0:
256,192,48127,1,0,0:0:0:0:
256,192,49161,1,8,0:0:0:0:
256,192,49368,1,8,0:0:0:0:
256,192,49575,1,0,0:0:0:0:
256,192,49782,1,4,0:0:0:0:
256,192,50816,1,0,0:0:0:0:
256,192,51023,1,8,0:0:0:0:
256,192,51230,1,0,0:0:0:0:
256,192,51437,1,12,0:0:0:0:
256,192,52058,1,8,0:0:0:0:
256,192,52264,1,4,0:0:0:0:
256,192,53092,1,12,0:0:0:0:
256,192,53506,1,12,0:0:0:0:
256,192,53920,1,12,0:0:0:0:
256,192,54333,1,12,0:0:0:0:
256,192,54747,1,4,0:0:0:0:
256,192,54954,1,0,0:0:0:0:
256,192,55161,1,8,0:0:0:0:
256,192,55368,1,0,0:0:0:0:
256,192,55471,1,0,0:0:0:0:
256,192,55575,1,8,0:0:0:0:
256,192,55678,1,8,0:0:0:0:
256,192,55782,1,0,0:0:0:0:
256,192,55989,1,8,0:0:0:0:
256,192,56195,1,0,0:0:0:0:
256,192,56299,1,0,0:0:0:0:
256,192,56402,1,0,0:0:0:0:
256,192,56609,1,0,0:0:0:0:
256,192,56816,1,8,0:0:0:0:
256,192,57023,1,0,0:0:0:0:
256,192,57127,1,8,0:0:0:0:
256,192,57230,1,8,0:0:0:0:
256,192,57333,1,8,0:0:0:0:
256,192,57437,1,0,0:0:0:0:
256,192,57644,1,8,0:0:0:0:
256,192,57851,1,8,0:0:0:0:
256,192,57954,1,8,0:0:0:0:
256,192,58058,1,0,0:0:0:0:
256,192,58264,1,0,0:0:0:0:
256,192,58471,1,8,0:0:0:0:
256,192,58678,1,8,0:0:0:0:
256,192,58782,1,8,0:0:0:0:
256,192,58885,1,0,0:0:0:0:
256,192,58989,1,8,0:0:0:0:
256,192,59092,1,0,0:0:0:0:
256,192,59195,1,8,0:0:0:0:
256,192,59299,1,8,0:0:0:0:
256,192,59402,1,8,0:0:0:0:
256,192,59506,1,8,0:0:0:0:
256,192,59713,1,4,0:0:0:0:
256,192,60127,1,12,0:0:0:0:
256,192,60437,1,12,0:0:0:0:
256,192,60644,1,12,0:0:0:0:
256,192,60954,1,12,0:0:0:0:
256,192,61161,1,4,0:0:0:0:
256,192,61368,1,4,0:0:0:0:
256,192,61782,1,12,0:0:0:0:
256,192,62092,1,12,0:0:0:0:
256,192,62299,1,12,0:0:0:0:
256,192,62609,1,12,0:0:0:0:
256,192,62816,1,4,0:0:0:0:
256,192,63023,1,4,0:0:0:0:
256,192,63230,1,0,0:0:0:0:
256,192,63333,1,0,0:0:0:0:
256,192,63437,1,8,0:0:0:0:
256,192,63644,1,0,0:0:0:0:
256,192,63851,1,0,0:0:0:0:
256,192,64058,1,8,0:0:0:0:
256,192,64161,1,8,0:0:0:0:
256,192,64264,1,8,0:0:0:0:
256,192,64471,1,8,0:0:0:0:
256,192,64678,1,0,0:0:0:0:
256,192,64885,1,0,0:0:0:0:
256,192,65092,1,8,0:0:0:0:
256,192,65299,1,0,0:0:0:0:
256,192,65402,1,8,0:0:0:0:
256,192,65506,1,0,0:0:0:0:
256,192,65609,1,8,0:0:0:0:
256,192,65713,1,8,0:0:0:0:
256,192,65920,1,8,0:0:0:0:
256,192,66127,1,0,0:0:0:0:
256,192,66230,1,8,0:0:0:0:
256,192,66333,1,0,0:0:0:0:
256,192,66540,1,0,0:0:0:0:
256,192,66644,1,0,0:0:0:0:
256,192,66747,1,8,0:0:0:0:
256,192,66954,1,8,0:0:0:0:
256,192,67161,1,0,0:0:0:0:
256,192,67264,1,0,0:0:0:0:
256,192,67368,1,8,0:0:0:0:
256,192,67471,1,8,0:0:0:0:
256,192,67575,1,8,0:0:0:0:
256,192,67782,1,8,0:0:0:0:
256,192,67989,1,12,0:0:0:0:
256,192,68195,1,0,0:0:0:0:
256,192,68299,1,0,0:0:0:0:
256,192,68402,1,8,0:0:0:0:
256,192,68609,1,4,0:0:0:0:
256,192,68920,1,8,0:0:0:0:
256,192,69023,1,0,0:0:0:0:
256,192,69230,1,8,0:0:0:0:
256,192,69333,1,8,0:0:0:0:
256,192,69437,1,8,0:0:0:0:
256,192,69644,1,4,0:0:0:0:
256,192,69851,1,0,0:0:0:0:
256,192,69954,1,0,0:0:0:0:
256,192,70058,1,8,0:0:0:0:
256,192,70264,1,0,0:0:0:0:
256,192,70368,1,0,0:0:0:0:
256,192,70471,1,8,0:0:0:0:
256,192,70575,1,8,0:0:0:0:
256,192,70678,1,0,0:0:0:0:
256,192,70885,1,8,0:0:0:0:
256,192,71092,1,0,0:0:0:0:
256,192,71195,1,8,0:0:0:0:
256,192,71299,1,0,0:0:0:0:
256,192,71402,1,0,0:0:0:0:
256,192,71506,1,0,0:0:0:0:
256,192,71609,1,0,0:0:0:0:
256,192,71713,1,8,0:0:0:0:
256,192,71920,1,0,0:0:0:0:
256,192,72023,1,0,0:0:0:0:
256,192,72127,1,0,0:0:0:0:
256,192,72230,1,0,0:0:0:0:
256,192,72333,1,8,0:0:0:0:
256,192,72540,1,8,0:0:0:0:
256,192,72747,1,8,0:0:0:0:
256,192,72851,1,0,0:0:0:0:
256,192,72954,1,8,0:0:0:0:
256,192,73161,1,0,0:0:0:0:
256,192,73264,1,0,0:0:0:0:
256,192,73368,1,8,0:0:0:0:
256,192,73575,1,8,0:0:0:0:
256,192,73782,1,0,0:0:0:0:
256,192,73989,1,8,0:0:0:0:
256,192,74092,1,8,0:0:0:0:
256,192,74195,1,8,0:0:0:0:
256,192,74402,1,8,0:0:0:0:
256,192,74609,1,4,0:0:0:0:
256,192,74816,1,8,0:0:0:0:
256,192,74920,1,8,0:0:0:0:
256,192,75023,1,8,0:0:0:0:
256,192,75230,1,12,0:0:0:0:
256,192,75540,1,8,0:0:0:0:
256,192,75644,1,0,0:0:0:0:
256,192,75851,1,8,0:0:0:0:
256,192,75954,1,8,0:0:0:0:
256,192,76058,1,0,0:0:0:0:
256,192,76264,5,4,0:0:0:0:
256,192,76471,1,0,0:0:0:0:
256,192,76575,1,0,0:0:0:0:
256,192,76678,1,8,0:0:0:0:
256,192,76885,1,0,0:0:0:0:
256,192,76989,1,0,0:0:0:0:
256,192,77092,1,0,0:0:0:0:
256,192,77299,1,8,0:0:0:0:
256,192,77506,1,0,0:0:0:0:
256,192,77609,1,0,0:0:0:0:
256,192,77713,1,8,0:0:0:0:
256,192,77920,1,8,0:0:0:0:
256,192,78127,1,0,0:0:0:0:
256,192,78230,1,0,0:0:0:0:
256,192,78333,1,8,0:0:0:0:
256,192,78540,1,8,0:0:0:0:
256,192,78747,1,0,0:0:0:0:
256,192,78851,1,8,0:0:0:0:
256,192,78954,1,8,0:0:0:0:
256,192,79058,1,0,0:0:0:0:
256,192,79161,1,8,0:0:0:0:
256,192,79368,1,0,0:0:0:0:
256,192,79471,1,8,0:0:0:0:
256,192,79575,1,0,0:0:0:0:
256,192,79782,1,0,0:0:0:0:
256,192,79885,1,0,0:0:0:0:
256,192,79989,1,8,0:0:0:0:
256,192,80195,1,0,0:0:0:0:
256,192,80299,1,0,0:0:0:0:
256,192,80402,1,0,0:0:0:0:
256,192,80609,1,12,0:0:0:0:
256,192,81023,1,8,0:0:0:0:
256,192,81127,1,8,0:0:0:0:
256,192,81230,1,0,0:0:0:0:
256,192,81333,1,0,0:0:0:0:
256,192,81437,1,0,0:0:0:0:
256,192,81540,1,0,0:0:0:0:
256,192,81644,1,8,0:0:0:0:
256,192,81851,1,4,0:0:0:0:
256,192,82161,1,8,0:0:0:0:
256,192,82264,1,0,0:0:0:0:
256,192,82471,1,8,0:0:0:0:
256,192,82575,1,8,0:0:0:0:
256,192,82678,1,0,0:0:0:0:
256,192,82782,1,8,0:0:0:0:
256,192,82885,1,0,0:0:0:0:
256,192,83092,1,0,0:0:0:0:
256,192,83195,1,0,0:0:0:0:
256,192,83299,1,8,0:0:0:0:
256,192,83506,1,0,0:0:0:0:
256,192,83609,1,8,0:0:0:0:
256,192,83713,1,0,0:0:0:0:
256,192,83920,1,8,0:0:0:0:
256,192,84023,1,8,0:0:0:0:
256,192,84127,1,8,0:0:0:0:
256,192,84333,1,8,0:0:0:0:
256,192,84540,1,4,0:0:0:0:
256,192,84747,1,0,0:0:0:0:
256,192,84851,1,0,0:0:0:0:
256,192,84954,1,8,0:0:0:0:
256,192,85161,1,12,0:0:0:0:
218,184,85471,5,8,0:0:0:0:
256,192,85575,1,0,0:0:0:0:
256,192,85782,1,8,0:0:0:0:
256,192,85885,1,8,0:0:0:0:
256,192,85989,1,0,0:0:0:0:
256,192,86195,1,12,0:0:0:0:
256,192,86402,1,0,0:0:0:0:
256,192,86506,1,0,0:0:0:0:
256,192,86609,1,8,0:0:0:0:
256,192,86816,1,8,0:0:0:0:
256,192,87023,1,0,0:0:0:0:
256,192,87127,1,8,0:0:0:0:
256,192,87230,1,0,0:0:0:0:
256,192,87437,1,8,0:0:0:0:
256,192,87644,1,8,0:0:0:0:
256,192,87747,1,8,0:0:0:0:
256,192,87851,1,0,0:0:0:0:
256,192,88058,1,0,0:0:0:0:
256,192,88161,1,0,0:0:0:0:
256,192,88264,1,8,0:0:0:0:
256,192,88471,1,0,0:0:0:0:
256,192,88575,1,0,0:0:0:0:
256,192,88678,1,8,0:0:0:0:
256,192,88782,1,8,0:0:0:0:
256,192,88885,1,0,0:0:0:0:
256,192,88989,1,0,0:0:0:0:
256,192,89092,1,8,0:0:0:0:
256,192,89195,1,8,0:0:0:0:
256,192,89299,1,8,0:0:0:0:
256,192,89402,1,8,0:0:0:0:
256,192,89506,1,0,0:0:0:0:
256,192,89920,1,8,0:0:0:0:
256,192,90127,1,0,0:0:0:0:
256,192,90230,1,0,0:0:0:0:
256,192,90333,1,0,0:0:0:0:
256,192,90540,1,0,0:0:0:0:
256,192,90747,1,8,0:0:0:0:
256,192,90954,1,0,0:0:0:0:
256,192,91058,1,8,0:0:0:0:
256,192,91161,1,0,0:0:0:0:
256,192,91368,1,0,0:0:0:0:
256,192,91471,1,0,0:0:0:0:
256,192,91575,1,8,0:0:0:0:
256,192,91782,1,0,0:0:0:0:
256,192,91885,1,0,0:0:0:0:
256,192,91989,1,0,0:0:0:0:
256,192,92092,1,8,0:0:0:0:
256,192,92195,1,8,0:0:0:0:
256,192,92299,1,0,0:0:0:0:
256,192,92402,1,8,0:0:0:0:
256,192,92506,1,8,0:0:0:0:
256,192,92609,1,8,0:0:0:0:
256,192,92816,1,4,0:0:0:0:
256,192,93023,1,4,0:0:0:0:
256,192,93230,1,12,0:0:0:0:
217,194,93437,1,4,0:0:0:0:
256,192,94058,1,12,0:0:0:0:
256,192,94264,1,4,0:0:0:0:
256,192,94885,1,12,0:0:0:0:
256,192,95092,1,12,0:0:0:0:
