osu file format v7

[General]
AudioFilename: Metyakoi.mp3
AudioLeadIn: 0
PreviewTime: 158812
Countdown: 0
SampleSet: Normal
StackLeniency: 0.7
Mode: 0
LetterboxInBreaks: 1

[Editor]
DistanceSpacing: 1
BeatDivisor: 4
GridSize: 8

[Metadata]
Title:Mecha Koi Ranman*
Artist:Sakakibara Yui
Creator:MeLLoN
Version:Easy
Source:Tenshin Ranman
Tags:yuzu soft cyborg taka1235

[Difficulty]
HPDrainRate:2
CircleSize:3
OverallDifficulty:2
SliderMultiplier:0.799999999999999
SliderTickRate:1

[Events]
//Background and Video events
0,0,"ruri1.jpg"
//Break Periods
2,28654,33515
//Storyboard Layer 0 (Background)
//Storyboard Layer 1 (Fail)
//Storyboard Layer 2 (Pass)
//Storyboard Layer 3 (Foreground)
//Storyboard Sound Samples
//Background Colour Transformations
3,100,0,0,0

[TimingPoints]
317,413.793103448276,4,1,0,80,1,0
3523,-100,4,1,0,80,0,0
3730,-100,4,2,0,80,0,0
4248,-100,4,1,0,80,0,0
4351,-100,4,1,0,0,0,0
4972,-100,4,1,0,80,0,0
5179,-100,4,2,0,80,0,0
5385,-100,4,1,0,80,0,0
6006,-100,4,1,0,60,0,0
6420,-100,4,1,0,80,0,0
6834,-100,4,2,0,80,0,0
11799,-100,4,2,0,100,0,0
13454,-100,4,2,0,80,0,0
21110,-100,4,1,0,70,0,0
21730,-100,4,2,0,80,0,0
25041,-100,4,2,0,80,0,0
26696,-100,4,1,0,80,0,0
34972,-100,4,2,0,80,0,0
46558,-100,4,1,0,80,0,0
48213,-100,4,2,0,80,0,0
59799,-100,4,1,0,80,0,0
60627,-100,4,2,0,80,0,0
60834,-100,4,1,0,80,0,0
61248,-100,4,2,0,80,0,0
62282,-100,4,2,0,70,0,0
66420,-100,4,1,0,70,0,0
68903,-100,4,2,0,80,0,0
73041,-100,4,1,0,80,0,0
76248,-100,4,2,0,100,0,0
76454,-100,4,2,0,100,0,1
83075,-100,4,2,0,100,0,0
89696,-100,4,2,0,100,0,1
102834,-100,4,2,0,80,0,1
102937,-100,4,2,0,100,0,0
106144,-100,4,1,0,60,0,0
109041,-100,4,1,0,60,0,0
109248,-100,4,1,0,80,0,0
109558,-100,4,1,0,80,0,1
109661,-100,4,2,0,80,0,0

[Colours]
Combo1 : 79,79,79
Combo2 : 255,255,104
Combo3 : 221,255,255
Combo4 : 255,205,155
Combo5 : 255,106,181

[HitObjects]
96,88,3627,1,0
96,168,4041,2,0,B|96:216,1,40
248,248,5075,2,0,B|304:248,3,40
248,248,6110,1,0
376,336,6937,6,0,B|440:272,1,79.9999999999999,4|0
296,80,8592,1,2
136,64,9420,2,0,B|88:64,2,40,2|0|0
136,144,10248,6,0,B|136:312,1,160,4|0
264,216,11903,1,4
264,296,12317,1,0
344,296,12730,2,0,B|392:296,2,40,2|0|0
344,216,13558,5,4
344,216,14385,1,2
216,128,15213,5,4
216,128,16041,1,2
216,288,16868,6,0,B|120:288,1,79.9999999999999,2|0
120,208,17696,2,0,B|208:208,1,79.9999999999999,2|0
256,192,18523,12,0,20799
408,144,21213,6,0,B|408:192,1,40
352,240,21834,1,4
232,344,22661,2,0,B|144:344,1,79.9999999999999,2|0
168,264,23489,2,0,B|80:264,1,79.9999999999999,2|0
88,184,24317,1,2
168,48,25144,5,2
328,48,25972,2,0,B|416:48,1,79.9999999999999,2|0
408,128,26799,6,0,B|464:128,2,40,0|0|0
328,128,27627,2,0,B|280:128,3,40
248,128,28454,1,4
112,312,35075,5,4
272,312,35903,2,0,B|360:312,1,79.9999999999999,2|0
352,232,36730,1,2
352,232,37144,1,0
272,232,37558,1,2
264,72,38385,6,0,B|176:72,1,79.9999999999999,2|0
104,72,39213,1,2
104,232,40041,2,0,B|56:232,2,40,2|0|0
184,232,40868,1,2
320,152,41696,5,2
320,152,42110,1,0
400,152,42523,2,0,B|400:248,1,79.9999999999999,2|0
400,312,43351,1,4
328,336,43765,1,4
256,312,44179,1,4
120,232,45006,5,2
120,72,45834,1,2
272,112,46661,6,0,B|272:64,2,40
272,192,47489,1,0
272,272,47903,1,0
272,192,48317,5,4
112,192,49144,1,2
176,336,49972,2,0,B|264:336,1,79.9999999999999,2|0
336,336,50799,1,2
416,200,51627,5,2
336,64,52454,2,0,B|248:64,1,79.9999999999999,2|0
176,64,53282,1,2
88,192,54110,1,2
248,192,54937,5,2
248,192,55351,1,0
248,192,55765,1,2
328,328,56592,2,0,B|416:328,2,79.9999999999999,4|4|4
176,288,58248,5,2
48,192,59075,1,2
160,88,59903,2,0,B|208:88,3,40
280,88,60937,2,0,B|328:88,1,40
264,288,62385,6,0,B|312:288,2,40,0|8|8
256,48,64041,2,0,B|208:48,2,40,0|8|8
336,48,64868,5,4
336,208,65696,1,4
176,208,66523,1,2
96,208,66937,1,2
96,288,67351,1,2
176,288,67765,1,2
416,288,69006,6,0,B|472:288,2,40,0|8|8
200,192,70661,2,0,B|200:144,2,40,0|8|8
280,192,71489,5,2
400,88,72317,1,4
400,88,72730,1,4
320,88,73144,5,2
400,224,73972,1,0
240,224,74799,1,0
208,296,75213,2,0,B|96:304|80:216,1,160,0|2
80,144,76454,5,4
240,144,77282,1,2
368,56,78110,1,2
368,136,78523,1,0
240,336,79765,5,2
160,336,80179,2,0,B|160:248,1,79.9999999999999,0|2
152,96,81420,2,0,B|240:96,1,79.9999999999999,4|0
232,176,82248,1,2
392,192,83075,5,4
464,336,83903,1,2
312,296,84730,2,0,B|184:296,2,120
312,216,86385,6,0,B|224:216,1,79.9999999999999,2|0
152,216,87213,2,0,B|152:128,1,79.9999999999999,2|0
256,192,88041,12,4,89696
344,320,90523,5,2
344,320,91351,2,0,B|248:320,1,79.9999999999999,2|0
184,320,92179,1,2
88,192,93006,1,4
248,192,93834,1,2
352,72,94661,6,0,B|440:72,1,79.9999999999999,4|0
432,152,95489,1,2
432,152,95903,1,0
432,232,96317,6,0,B|432:320|312:320,1,160,4|2
320,160,97972,6,0,B|320:72|208:72,1,160,4|2
48,80,99627,6,0,B|48:248,1,160,4|2
128,240,100868,1,0
208,240,101282,1,4
344,320,101903,2,0,B|392:320,3,40
256,192,102937,12,4,105834
88,88,106248,5,0
88,168,106661,2,0,B|88:216,1,40
168,296,107489,2,0,B|224:296,1,40
288,208,108317,2,0,B|288:160,1,40
384,104,109144,2,0,B|384:56,2,40,0|0|4
