osu file format v9

[General]
AudioFilename: Sakakibara Yui - Magical Generation.mp3
AudioLeadIn: 0
PreviewTime: 53335
Countdown: 0
SampleSet: Soft
StackLeniency: 0.5
Mode: 0
LetterboxInBreaks: 0

[Editor]
DistanceSpacing: 0.9
BeatDivisor: 4
GridSize: 8

[Metadata]
Title:Magical*Generation
Artist:Sakakibara Yui
Creator:quintitem
Version:Normal
Source:Happiness!
Tags:

[Difficulty]
HPDrainRate:3
CircleSize:4
OverallDifficulty:2
ApproachRate:4
SliderMultiplier:1.4
SliderTickRate:0.5

[Events]
//Background and Video events
0,0,"happiness_3.jpg"
//Break Periods
2,93980,105793
//Storyboard Layer 0 (Background)
//Storyboard Layer 1 (Fail)
//Storyboard Layer 2 (Pass)
//Storyboard Layer 3 (Foreground)
Sprite,Foreground,CentreLeft,"StoryBoard\title.png",320,240 M,0,4002,4891,75,353,85,353 F,0,4002,4891,0,1 M,0,17335,18224,85,353,85,363 F,0,17335,18224,1,0
Sprite,Foreground,CentreLeft,"StoryBoard\artist.png",320,240 M,0,7558,8446,75,383,85,383 F,0,7558,8446,0,1 M,0,17335,18224,85,383,85,393 F,0,17335,18224,1,0
Sprite,Foreground,CentreLeft,"StoryBoard\mapper.png",320,240 M,0,11113,12002,75,415,85,415 F,0,11113,12002,0,1 M,0,17335,18224,85,415,85,425 F,0,17335,18224,1,0
Sprite,Foreground,CentreLeft,"StoryBoard\aa.png",320,240 M,0,20002,,109,415 F,0,20002,20224,0,1 F,0,26224,26446,1,0
Sprite,Foreground,CentreLeft,"StoryBoard\ab.png",320,240 M,0,22891,,355,415 F,0,22891,23113,0,1 F,0,26224,26446,1,0
Sprite,Foreground,CentreLeft,"StoryBoard\ac.png",320,240 M,0,26669,,109,415 F,0,26669,26891,0,1 F,0,29558,29780,1,0
Sprite,Foreground,CentreLeft,"StoryBoard\ad.png",320,240 M,0,30002,,109,415 F,0,30002,30224,0,1 F,0,33558,33780,1,0
Sprite,Foreground,CentreLeft,"StoryBoard\ae.png",320,240 M,0,34002,,109,415 F,0,34002,34224,0,1 F,0,40446,40669,1,0
Sprite,Foreground,CentreLeft,"StoryBoard\af.png",320,240 M,0,37558,,274,415 F,0,37558,37780,0,1 F,0,40446,40669,1,0
Sprite,Foreground,CentreLeft,"StoryBoard\ag.png",320,240 M,0,41113,,109,415 F,0,41113,41335,0,1 F,0,46224,46446,1,0
Sprite,Foreground,CentreLeft,"StoryBoard\ah.png",320,240 M,0,44669,,265,415 F,0,44669,44891,0,1 F,0,46224,46446,1,0
Sprite,Foreground,CentreLeft,"StoryBoard\ai.png",320,240 M,0,46891,,109,415 F,0,46891,47113,0,1 F,0,53113,53335,1,0
Sprite,Foreground,CentreLeft,"StoryBoard\aj.png",320,240 M,0,50224,,275,415 F,0,50224,50446,0,1 F,0,53113,53335,1,0
Sprite,Foreground,CentreLeft,"StoryBoard\ba.png",320,240 M,0,53558,,109,415 F,0,53558,53780,0,1 F,0,56891,57113,1,0
Sprite,Foreground,CentreLeft,"StoryBoard\bb.png",320,240 M,0,55780,,349,415 F,0,55780,56002,0,1 F,0,56891,57113,1,0
Sprite,Foreground,CentreLeft,"StoryBoard\bc.png",320,240 M,0,57335,,109,415 F,0,57335,57558,0,1 F,0,60669,60891,1,0
Sprite,Foreground,CentreLeft,"StoryBoard\bd.png",320,240 M,0,59335,,306,415 F,0,59335,59558,0,1 F,0,60669,60891,1,0
Sprite,Foreground,CentreLeft,"StoryBoard\be.png",320,240 M,0,61335,,109,415 F,0,61335,61558,0,1 F,0,67558,67780,1,0
Sprite,Foreground,CentreLeft,"StoryBoard\bf.png",320,240 M,0,66224,,303,415 F,0,66224,66446,0,1 F,0,67558,67780,1,0
Sprite,Foreground,CentreLeft,"StoryBoard\bg.png",320,240 M,0,68002,,109,415 F,0,68002,68224,0,1 F,0,71113,71335,1,0
Sprite,Foreground,CentreLeft,"StoryBoard\bh.png",320,240 M,0,70002,,316,415 F,0,70002,70224,0,1 F,0,71113,71335,1,0
Sprite,Foreground,CentreLeft,"StoryBoard\bi.png",320,240 M,0,71558,,109,415 F,0,71558,71780,0,1 F,0,74891,75113,1,0
Sprite,Foreground,CentreLeft,"StoryBoard\bj.png",320,240 M,0,73558,,302,415 F,0,73558,73780,0,1 F,0,74891,75113,1,0
Sprite,Foreground,CentreLeft,"StoryBoard\bk.png",320,240 M,0,75558,,109,415 F,0,75558,75780,0,1 F,0,80669,80891,1,0
Sprite,Foreground,CentreLeft,"StoryBoard\bl.png",320,240 M,0,82002,,109,415 F,0,82002,82224,0,1 F,0,93780,94002,1,0
Sprite,Foreground,CentreLeft,"StoryBoard\bm.png",320,240 M,0,85558,,271,415 F,0,85558,85780,0,1 F,0,93780,94002,1,0
Sprite,Foreground,CentreLeft,"StoryBoard\bn.png",320,240 M,0,91558,,472,415 F,0,91558,91780,0,1 F,0,93780,94002,1,0
Sprite,Foreground,CentreLeft,"StoryBoard\aa.png",320,240 M,0,108891,,109,415 F,0,108891,109113,0,1 F,0,115113,115335,1,0
Sprite,Foreground,CentreLeft,"StoryBoard\cb.png",320,240 M,0,111780,,355,415 F,0,111780,112002,0,1 F,0,115113,115335,1,0
Sprite,Foreground,CentreLeft,"StoryBoard\cc.png",320,240 M,0,115558,,109,415 F,0,115558,115780,0,1 F,0,118446,118669,1,0
Sprite,Foreground,CentreLeft,"StoryBoard\cd.png",320,240 M,0,118891,,109,415 F,0,118891,119113,0,1 F,0,122446,122669,1,0
Sprite,Foreground,CentreLeft,"StoryBoard\ce.png",320,240 M,0,122891,,109,415 F,0,122891,123113,0,1 F,0,129335,129558,1,0
Sprite,Foreground,CentreLeft,"StoryBoard\cf.png",320,240 M,0,126446,,282,415 F,0,126446,126669,0,1 F,0,129335,129558,1,0
Sprite,Foreground,CentreLeft,"StoryBoard\cg.png",320,240 M,0,130002,,109,415 F,0,130002,130224,0,1 F,0,135113,135335,1,0
Sprite,Foreground,CentreLeft,"StoryBoard\ah.png",320,240 M,0,133558,,261,415 F,0,133558,133780,0,1 F,0,135113,135335,1,0
Sprite,Foreground,CentreLeft,"StoryBoard\ai.png",320,240 M,0,135780,,109,415 F,0,135780,136002,0,1 F,0,142002,142224,1,0
Sprite,Foreground,CentreLeft,"StoryBoard\cj.png",320,240 M,0,139113,,275,414 F,0,139113,139335,0,1 F,0,142002,142224,1,0
Sprite,Foreground,CentreLeft,"StoryBoard\ba.png",320,240 M,0,142446,,109,415 F,0,142446,142669,0,1 F,0,145780,146002,1,0
Sprite,Foreground,CentreLeft,"StoryBoard\db.png",320,240 M,0,144669,,349,413 F,0,144669,144891,0,1 F,0,145780,146002,1,0
Sprite,Foreground,CentreLeft,"StoryBoard\dc.png",320,240 M,0,146224,,109,415 F,0,146224,146446,0,1 F,0,149558,149780,1,0
Sprite,Foreground,CentreLeft,"StoryBoard\dd.png",320,240 M,0,148224,,308,413 F,0,148224,148446,0,1 F,0,149558,149780,1,0
Sprite,Foreground,CentreLeft,"StoryBoard\de.png",320,240 M,0,150224,,109,415 F,0,150224,150446,0,1 F,0,156446,156669,1,0
Sprite,Foreground,CentreLeft,"StoryBoard\bf.png",320,240 M,0,155113,,285,415 F,0,155113,155335,0,1 F,0,156446,156669,1,0
Sprite,Foreground,CentreLeft,"StoryBoard\bg.png",320,240 M,0,156891,,109,415 F,0,156891,157113,0,1 F,0,160002,160224,1,0
Sprite,Foreground,CentreLeft,"StoryBoard\dh.png",320,240 M,0,158891,,316,415 F,0,158891,159113,0,1 F,0,160002,160224,1,0
Sprite,Foreground,CentreLeft,"StoryBoard\bi.png",320,240 M,0,160446,,109,415 F,0,160446,160669,0,1 F,0,163780,164002,1,0
Sprite,Foreground,CentreLeft,"StoryBoard\dj.png",320,240 M,0,162446,,302,415 F,0,162446,162669,0,1 F,0,163780,164002,1,0
Sprite,Foreground,CentreLeft,"StoryBoard\dk.png",320,240 M,0,164446,,109,415 F,0,164446,164669,0,1 F,0,169558,169780,1,0
Sprite,Foreground,CentreLeft,"StoryBoard\bl.png",320,240 M,0,170891,,109,415 F,0,170891,171113,0,1 F,0,182669,182891,1,0
Sprite,Foreground,CentreLeft,"StoryBoard\bm.png",320,240 M,0,174446,,271,415 F,0,174446,174669,0,1 F,0,182669,182891,1,0
Sprite,Foreground,CentreLeft,"StoryBoard\bn.png",320,240 M,0,180446,,472,415 F,0,180446,180669,0,1 F,0,182669,182891,1,0
//Storyboard Sound Samples
//Background Colour Transformations
3,100,163,162,255

[TimingPoints]
447,444.444444444444,4,2,1,70,1,0
20446,-100,4,2,1,75,0,0
50224,-100,4,2,1,70,0,0
51780,-100,4,2,1,80,0,0
52780,-100,4,2,1,85,0,0
53780,-90.9090909090909,4,2,1,85,0,1
53891,-90.9090909090909,4,2,1,90,0,0
66002,-90.9090909090909,4,2,1,100,0,0
67891,-90.9090909090909,4,2,1,90,0,0
80891,-90.9090909090909,4,2,1,80,0,0
81113,-90.9090909090909,4,2,1,90,0,0
81891,-100,4,2,1,75,0,0
90891,-100,4,2,1,70,0,0
93780,-100,4,2,1,0,0,0
106669,-100,4,2,1,70,0,0
109113,-100,4,2,1,75,0,0
139113,-100,4,2,1,70,0,0
140669,-100,4,2,1,80,0,0
141780,-100,4,2,1,85,0,0
142669,-90.9090909090909,4,2,1,85,0,1
142780,-90.9090909090909,4,2,1,90,0,0
154891,-90.9090909090909,4,2,1,100,0,0
156780,-90.9090909090909,4,2,1,90,0,0
169669,-90.9090909090909,4,2,1,80,0,0
169891,-90.9090909090909,4,2,1,90,0,0
170780,-100,4,2,1,75,0,0
180002,-100,4,2,1,70,0,0
182669,-100,4,2,1,0,0,0

[Colours]
Combo1 : 255,150,0
Combo2 : 188,137,124
Combo3 : 156,143,215
Combo4 : 243,123,132

[HitObjects]
256,192,18224,1,4
200,88,20002,6,0,B|48:88,2,140,4|8|0
160,208,21335,2,0,B|160:368,2,140,8|0|8
256,288,22669,2,0,B|340:288,2,70,0|0|8
292,168,23558,6,0,B|292:20,2,140,0|8|0
408,116,24891,1,8
448,236,25335,1,2
448,236,25558,1,2
448,236,25780,2,0,B|448:332,2,70,10|2|2
328,272,26669,1,8
204,248,27113,6,0,B|118:257|118:365,2,140,4|8|0
164,128,28446,2,0,B|165:42|79:32,2,140,8|0|8
292,128,29780,2,0,B|292:52,2,70,0|0|8
400,192,30669,6,0,B|485:182|485:74,2,140,0|8|0
360,312,32002,1,8
240,276,32446,1,2
240,276,32669,2,0,B|240:352,2,70,2|10|2
240,212,33335,2,0,B|241:126|155:116,1,140,2|8
96,116,34002,6,0,B|96:332,1,210,4|8
220,304,35113,2,0,B|368:304,2,140,0|8|0
220,176,36446,2,0,B|221:90|135:80,2,140,8|0|8
272,216,37558,6,0,B|488:216,1,210,4|8
392,128,38669,2,0,B|391:42|477:32,2,140,0|8|0
280,72,40002,1,8
160,108,40446,2,0,B|160:32,2,70,2|2|10
160,172,41113,6,0,B|33:184|29:335,1,210,4|8
156,292,42224,1,0
272,340,42669,2,0,B|428:340,2,140,8|0|8
340,232,44002,1,0
256,136,44446,6,0,B|180:136,2,70,8|0|4
372,84,45335,2,0,B|454:93|453:179,2,140,8|0|8
256,36,46669,2,0,B|108:36,2,140,0|8|0
256,164,48002,1,8
256,192,48446,12,4,50224
292,104,50669,6,0,B|452:104,2,140,0|0|8
168,132,52002,2,0,B|168:284,1,140,0|8
296,276,52891,2,0,B|296:360,2,70,0|0|8
384,192,53780,6,0,B|384:36,2,153.999995410442,6|10|0
264,164,55113,2,0,B|108:164,2,153.999995410442,10|2|10
224,280,56446,2,0,B|224:368,2,76.9999977052212,2|0|10
340,240,57335,6,0,B|436:245|438:355,2,153.999995410442,2|10|0
256,148,58669,2,0,B|257:55|353:49,2,153.999995410442,10|0|8
132,148,60002,2,0,B|132:72,2,76.9999977052212,0|2|10
180,260,60891,6,0,B|16:260,2,153.999995410442,4|8|0
276,336,62224,2,0,B|444:336,1,153.999995410442,8|0
388,220,63113,2,0,B|389:127|485:121,2,153.999995410442,8|0|8
272,184,64446,2,0,B|272:264,2,76.9999977052212,2|2|10
272,124,65113,2,0,B|32:124,1,230.999993115664,2|8
256,192,66224,12,8,67558
312,80,68002,6,0,B|405:85|406:178,2,153.999995410442,6|10|0
196,124,69335,1,10
176,244,69780,2,0,B|16:244,2,153.999995410442,2|10|2
220,288,70891,1,0
264,244,71113,1,10
376,192,71558,6,0,B|376:344,2,153.999995410442,2|10|0
304,92,72891,1,10
188,132,73335,2,0,B|94:126|93:33,2,153.999995410442,0|8|0
232,176,74446,1,2
188,220,74669,1,10
256,324,75113,6,0,B|416:324,1,153.999995410442,4|8
492,232,76002,2,0,B|316:232,1,153.999995410442,0|8
256,140,76891,2,0,B|416:140,1,153.999995410442,0|8
492,48,77780,2,0,B|316:48,1,153.999995410442,0|8
216,48,78669,5,2
216,48,78891,2,0,B|128:48,2,76.9999977052212,2|10|2
180,168,79780,2,0,B|180:264,2,76.9999977052212,2|8|2
300,192,80669,2,0,B|388:192,2,76.9999977052212,2|14|2
300,252,81335,2,0,B|299:344|205:350,1,153.999995410442,0|8
112,264,82224,6,0,B|30:273|31:359,2,140,4|8|0
112,136,83558,1,8
112,136,83780,2,0,B|328:136,1,210,6|10
440,92,84891,1,2
476,212,85335,2,0,B|476:308,2,70,10|0|4
360,260,86224,6,0,B|200:260,1,140,8|0
112,192,87113,1,8
112,192,87335,2,0,B|111:70|230:41,1,210,4|8
336,108,88446,2,0,B|484:108,2,140,0|8|4
256,208,89780,5,8
364,276,90224,1,0
256,344,90669,1,8
148,276,91113,1,4
256,192,91558,12,0,93780
256,192,107113,5,4
164,84,108891,5,4
104,192,109335,2,0,B|18:183|18:75,2,140,8|0|8
172,300,110669,1,0
292,336,111113,1,8
412,300,111558,1,0
412,300,111780,1,0
412,300,112002,2,0,B|412:148,1,140,8|0
324,68,112891,6,0,B|160:68,1,140,8|0
100,164,113780,2,0,B|248:164,1,140,8|2
284,208,114446,1,2
284,208,114669,2,0,B|364:208,2,70,10|2|2
220,316,115558,1,8
96,292,116002,5,4
44,176,116446,2,0,B|44:32,2,140,8|0|8
168,192,117780,1,0
256,104,118224,1,8
344,192,118669,1,0
344,192,118891,1,0
344,192,119113,2,0,B|429:202|429:310,1,140,8|0
304,312,120002,6,0,B|160:312,1,140,8|0
60,240,120891,1,8
132,136,121335,1,2
132,136,121558,1,2
96,84,121780,1,10
96,84,122002,1,2
132,32,122224,2,0,B|292:32,1,140,2|8
336,40,122891,6,0,B|463:52|467:203,1,210,4|8
380,272,124002,1,0
256,256,124446,2,0,B|104:256,2,140,8|0|8
328,152,125780,2,0,B|176:152,1,140,0|8
160,96,126446,6,0,B|33:108|29:259,1,210,4|8
112,332,127558,1,0
232,292,128002,1,8
352,332,128446,2,0,B|500:332,2,140,0|8|2
316,280,129558,2,0,B|316:200,2,70,2|10|4
132,244,130669,6,0,B|47:254|47:362,2,140,8|0|8
196,136,132002,2,0,B|196:50|111:40,2,140,0|8|0
308,192,133335,1,8
308,192,133558,1,0
308,192,133780,6,0,B|472:192,2,140,4|8|0
256,308,135113,1,8
136,268,135558,2,0,B|136:124,1,140,0|8
224,40,136446,1,0
336,96,136891,1,8
256,192,137335,12,4,139113
328,140,139558,6,0,B|328:54|413:44,2,140,0|0|8
204,112,140891,1,0
88,160,141335,2,0,B|88:304,1,140,8|0
140,340,142002,1,0
188,300,142224,1,8
324,268,142669,6,0,B|480:268,2,153.999995410442,6|10|0
324,144,144002,2,0,B|325:50|421:45,2,153.999995410442,10|2|10
204,116,145335,1,2
204,116,145558,1,0
204,116,145780,1,10
136,220,146224,6,0,B|42:224|41:318,2,153.999995410442,2|10|0
224,308,147558,2,0,B|388:308,2,153.999995410442,10|0|8
288,204,148891,1,0
288,204,149113,1,2
288,204,149335,1,10
412,188,149780,5,4
368,72,150224,1,8
252,36,150669,1,0
128,36,151113,2,0,B|34:40|33:134,2,153.999995410442,8|0|8
148,156,152447,2,0,B|148:312,2,153.999995410442,0|8|2
200,120,153558,1,2
252,156,153780,1,10
300,120,154002,2,0,B|440:128|440:284,1,230.999993115664,2|8
256,192,155113,12,8,156447
180,116,156891,6,0,B|28:116,2,153.999995410442,6|10|0
296,76,158224,1,10
332,192,158669,2,0,B|492:192,2,153.999995410442,2|10|2
332,192,159780,1,0
332,192,160002,1,10
224,252,160447,6,0,B|130:256|129:350,2,153.999995410442,2|10|0
160,148,161780,1,10
280,132,162224,2,0,B|279:38|185:34,2,153.999995410442,0|8|0
280,132,163335,1,2
280,132,163558,1,10
396,88,164002,5,4
460,192,164447,1,8
396,296,164891,1,0
280,336,165335,2,0,B|116:336,2,153.999995410442,8|0|8
228,224,166669,2,0,B|228:130|322:126,2,153.999995410442,0|8|2
176,260,167780,6,0,B|100:260,2,76.9999977052212,2|10|2
132,144,168669,1,2
132,144,168891,1,8
132,144,169113,1,2
228,68,169558,1,2
228,68,169780,1,14
276,32,170002,1,2
276,32,170224,2,0,B|436:32,1,153.999995410442,0|8
408,156,171113,6,0,B|490:165|489:251,2,140,4|8|0
336,260,172447,1,8
336,260,172669,2,0,B|217:231|218:109,1,210,6|10
100,64,173780,1,2
88,188,174224,2,0,B|12:188,2,70,10|0|4
108,312,175113,5,8
228,352,175558,1,0
348,312,176002,1,8
348,312,176224,1,4
476,172,176891,2,0,B|476:28,2,140,8|0|8
356,136,178224,6,0,B|274:127|275:41,2,140,4|8|0
256,216,179558,2,0,B|112:216,1,140,8|4
256,192,180447,12,0,182669
