osu file format v9

[General]
AudioFilename: Sakakibara Yui - Magical Generation.mp3
AudioLeadIn: 0
PreviewTime: 53335
Countdown: 0
SampleSet: Soft
StackLeniency: 0.5
Mode: 0
LetterboxInBreaks: 0

[Editor]
DistanceSpacing: 1.1
BeatDivisor: 4
GridSize: 8

[Metadata]
Title:Magical*Generation
Artist:Sakakibara Yui
Creator:quintitem
Version:Hard
Source:Happiness!
Tags:

[Difficulty]
HPDrainRate:4
CircleSize:4
OverallDifficulty:4
ApproachRate:6
SliderMultiplier:1.6
SliderTickRate:0.5

[Events]
//Background and Video events
0,0,"happiness_3.jpg"
//Break Periods
2,93980,106063
//Storyboard Layer 0 (Background)
//Storyboard Layer 1 (Fail)
//Storyboard Layer 2 (Pass)
//Storyboard Layer 3 (Foreground)
Sprite,Foreground,CentreLeft,"StoryBoard\title.png",320,240 M,0,4002,4891,75,353,85,353 F,0,4002,4891,0,1 M,0,17335,18224,85,353,85,363 F,0,17335,18224,1,0
Sprite,Foreground,CentreLeft,"StoryBoard\artist.png",320,240 M,0,7558,8446,75,383,85,383 F,0,7558,8446,0,1 M,0,17335,18224,85,383,85,393 F,0,17335,18224,1,0
Sprite,Foreground,CentreLeft,"StoryBoard\mapper.png",320,240 M,0,11113,12002,75,415,85,415 F,0,11113,12002,0,1 M,0,17335,18224,85,415,85,425 F,0,17335,18224,1,0
Sprite,Foreground,CentreLeft,"StoryBoard\aa.png",320,240 M,0,20002,,109,415 F,0,20002,20224,0,1 F,0,26224,26446,1,0
Sprite,Foreground,CentreLeft,"StoryBoard\ab.png",320,240 M,0,22891,,355,415 F,0,22891,23113,0,1 F,0,26224,26446,1,0
Sprite,Foreground,CentreLeft,"StoryBoard\ac.png",320,240 M,0,26669,,109,415 F,0,26669,26891,0,1 F,0,29558,29780,1,0
Sprite,Foreground,CentreLeft,"StoryBoard\ad.png",320,240 M,0,30002,,109,415 F,0,30002,30224,0,1 F,0,33558,33780,1,0
Sprite,Foreground,CentreLeft,"StoryBoard\ae.png",320,240 M,0,34002,,109,415 F,0,34002,34224,0,1 F,0,40446,40669,1,0
Sprite,Foreground,CentreLeft,"StoryBoard\af.png",320,240 M,0,37558,,274,415 F,0,37558,37780,0,1 F,0,40446,40669,1,0
Sprite,Foreground,CentreLeft,"StoryBoard\ag.png",320,240 M,0,41113,,109,415 F,0,41113,41335,0,1 F,0,46224,46446,1,0
Sprite,Foreground,CentreLeft,"StoryBoard\ah.png",320,240 M,0,44669,,265,415 F,0,44669,44891,0,1 F,0,46224,46446,1,0
Sprite,Foreground,CentreLeft,"StoryBoard\ai.png",320,240 M,0,46891,,109,415 F,0,46891,47113,0,1 F,0,53113,53335,1,0
Sprite,Foreground,CentreLeft,"StoryBoard\aj.png",320,240 M,0,50224,,275,415 F,0,50224,50446,0,1 F,0,53113,53335,1,0
Sprite,Foreground,CentreLeft,"StoryBoard\ba.png",320,240 M,0,53558,,109,415 F,0,53558,53780,0,1 F,0,56891,57113,1,0
Sprite,Foreground,CentreLeft,"StoryBoard\bb.png",320,240 M,0,55780,,349,415 F,0,55780,56002,0,1 F,0,56891,57113,1,0
Sprite,Foreground,CentreLeft,"StoryBoard\bc.png",320,240 M,0,57335,,109,415 F,0,57335,57558,0,1 F,0,60669,60891,1,0
Sprite,Foreground,CentreLeft,"StoryBoard\bd.png",320,240 M,0,59335,,306,415 F,0,59335,59558,0,1 F,0,60669,60891,1,0
Sprite,Foreground,CentreLeft,"StoryBoard\be.png",320,240 M,0,61335,,109,415 F,0,61335,61558,0,1 F,0,67558,67780,1,0
Sprite,Foreground,CentreLeft,"StoryBoard\bf.png",320,240 M,0,66224,,303,415 F,0,66224,66446,0,1 F,0,67558,67780,1,0
Sprite,Foreground,CentreLeft,"StoryBoard\bg.png",320,240 M,0,68002,,109,415 F,0,68002,68224,0,1 F,0,71113,71335,1,0
Sprite,Foreground,CentreLeft,"StoryBoard\bh.png",320,240 M,0,70002,,316,415 F,0,70002,70224,0,1 F,0,71113,71335,1,0
Sprite,Foreground,CentreLeft,"StoryBoard\bi.png",320,240 M,0,71558,,109,415 F,0,71558,71780,0,1 F,0,74891,75113,1,0
Sprite,Foreground,CentreLeft,"StoryBoard\bj.png",320,240 M,0,73558,,302,415 F,0,73558,73780,0,1 F,0,74891,75113,1,0
Sprite,Foreground,CentreLeft,"StoryBoard\bk.png",320,240 M,0,75558,,109,415 F,0,75558,75780,0,1 F,0,80669,80891,1,0
Sprite,Foreground,CentreLeft,"StoryBoard\bl.png",320,240 M,0,82002,,109,415 F,0,82002,82224,0,1 F,0,93780,94002,1,0
Sprite,Foreground,CentreLeft,"StoryBoard\bm.png",320,240 M,0,85558,,271,415 F,0,85558,85780,0,1 F,0,93780,94002,1,0
Sprite,Foreground,CentreLeft,"StoryBoard\bn.png",320,240 M,0,91558,,472,415 F,0,91558,91780,0,1 F,0,93780,94002,1,0
Sprite,Foreground,CentreLeft,"StoryBoard\aa.png",320,240 M,0,108891,,109,415 F,0,108891,109113,0,1 F,0,115113,115335,1,0
Sprite,Foreground,CentreLeft,"StoryBoard\cb.png",320,240 M,0,111780,,355,415 F,0,111780,112002,0,1 F,0,115113,115335,1,0
Sprite,Foreground,CentreLeft,"StoryBoard\cc.png",320,240 M,0,115558,,109,415 F,0,115558,115780,0,1 F,0,118446,118669,1,0
Sprite,Foreground,CentreLeft,"StoryBoard\cd.png",320,240 M,0,118891,,109,415 F,0,118891,119113,0,1 F,0,122446,122669,1,0
Sprite,Foreground,CentreLeft,"StoryBoard\ce.png",320,240 M,0,122891,,109,415 F,0,122891,123113,0,1 F,0,129335,129558,1,0
Sprite,Foreground,CentreLeft,"StoryBoard\cf.png",320,240 M,0,126446,,282,415 F,0,126446,126669,0,1 F,0,129335,129558,1,0
Sprite,Foreground,CentreLeft,"StoryBoard\cg.png",320,240 M,0,130002,,109,415 F,0,130002,130224,0,1 F,0,135113,135335,1,0
Sprite,Foreground,CentreLeft,"StoryBoard\ah.png",320,240 M,0,133558,,261,415 F,0,133558,133780,0,1 F,0,135113,135335,1,0
Sprite,Foreground,CentreLeft,"StoryBoard\ai.png",320,240 M,0,135780,,109,415 F,0,135780,136002,0,1 F,0,142002,142224,1,0
Sprite,Foreground,CentreLeft,"StoryBoard\cj.png",320,240 M,0,139113,,275,414 F,0,139113,139335,0,1 F,0,142002,142224,1,0
Sprite,Foreground,CentreLeft,"StoryBoard\ba.png",320,240 M,0,142446,,109,415 F,0,142446,142669,0,1 F,0,145780,146002,1,0
Sprite,Foreground,CentreLeft,"StoryBoard\db.png",320,240 M,0,144669,,349,413 F,0,144669,144891,0,1 F,0,145780,146002,1,0
Sprite,Foreground,CentreLeft,"StoryBoard\dc.png",320,240 M,0,146224,,109,415 F,0,146224,146446,0,1 F,0,149558,149780,1,0
Sprite,Foreground,CentreLeft,"StoryBoard\dd.png",320,240 M,0,148224,,308,413 F,0,148224,148446,0,1 F,0,149558,149780,1,0
Sprite,Foreground,CentreLeft,"StoryBoard\de.png",320,240 M,0,150224,,109,415 F,0,150224,150446,0,1 F,0,156446,156669,1,0
Sprite,Foreground,CentreLeft,"StoryBoard\bf.png",320,240 M,0,155113,,285,415 F,0,155113,155335,0,1 F,0,156446,156669,1,0
Sprite,Foreground,CentreLeft,"StoryBoard\bg.png",320,240 M,0,156891,,109,415 F,0,156891,157113,0,1 F,0,160002,160224,1,0
Sprite,Foreground,CentreLeft,"StoryBoard\dh.png",320,240 M,0,158891,,316,415 F,0,158891,159113,0,1 F,0,160002,160224,1,0
Sprite,Foreground,CentreLeft,"StoryBoard\bi.png",320,240 M,0,160446,,109,415 F,0,160446,160669,0,1 F,0,163780,164002,1,0
Sprite,Foreground,CentreLeft,"StoryBoard\dj.png",320,240 M,0,162446,,302,415 F,0,162446,162669,0,1 F,0,163780,164002,1,0
Sprite,Foreground,CentreLeft,"StoryBoard\dk.png",320,240 M,0,164446,,109,415 F,0,164446,164669,0,1 F,0,169558,169780,1,0
Sprite,Foreground,CentreLeft,"StoryBoard\bl.png",320,240 M,0,170891,,109,415 F,0,170891,171113,0,1 F,0,182669,182891,1,0
Sprite,Foreground,CentreLeft,"StoryBoard\bm.png",320,240 M,0,174446,,271,415 F,0,174446,174669,0,1 F,0,182669,182891,1,0
Sprite,Foreground,CentreLeft,"StoryBoard\bn.png",320,240 M,0,180446,,472,415 F,0,180446,180669,0,1 F,0,182669,182891,1,0
//Storyboard Sound Samples
//Background Colour Transformations
3,100,163,162,255

[TimingPoints]
447,444.444444444444,4,2,1,70,1,0
20446,-100,4,2,1,75,0,0
50002,-100,4,2,1,70,0,0
51780,-100,4,2,1,80,0,0
52780,-100,4,2,1,85,0,0
53780,-90.9090909090909,4,2,1,85,0,1
53891,-90.9090909090909,4,2,1,90,0,0
66002,-90.9090909090909,4,2,1,100,0,0
67891,-90.9090909090909,4,2,1,90,0,0
80780,-90.9090909090909,4,2,1,80,0,0
81002,-90.9090909090909,4,2,1,90,0,0
81891,-100,4,2,1,75,0,0
90891,-100,4,2,1,70,0,0
93780,-100,4,2,1,0,0,0
106669,-100,4,2,1,70,0,0
109335,-100,4,2,1,75,0,0
138891,-100,4,2,1,70,0,0
140669,-100,4,2,1,80,0,0
141669,-100,4,2,1,85,0,0
142669,-90.9090909090909,4,2,1,85,0,1
142780,-90.9090909090909,4,2,1,90,0,0
154891,-90.9090909090909,4,2,1,100,0,0
156780,-90.9090909090909,4,2,1,90,0,0
169669,-90.9090909090909,4,2,1,80,0,0
170002,-90.9090909090909,4,2,1,90,0,0
170780,-100,4,2,1,75,0,0
180002,-100,4,2,1,70,0,0
182669,-100,4,2,1,0,0,0

[Colours]
Combo1 : 255,150,0
Combo2 : 188,137,124
Combo3 : 156,143,215
Combo4 : 243,123,132

[HitObjects]
256,192,18224,1,4
208,84,20002,6,0,B|44:84,2,160,4|8|0
236,244,21335,2,0,B|236:332,2,80,8|0|0
396,268,22224,2,0,B|396:104,1,160,8|0
320,80,22891,6,0,B|320:24|384:24,2,80,0|8|0
240,84,23558,2,0,B|138:89|138:202,1,160,0|8
220,188,24224,1,0
220,188,24446,2,0,B|44:188,2,160,0|8|2
276,244,25558,2,0,B|276:328,2,80,2|10|2
332,188,26224,1,2
272,40,26669,5,8
136,124,27113,2,0,B|34:119|34:6,2,160,4|8|0
196,180,28224,2,0,B|276:180,2,80,0|8|0
136,236,28891,2,0,B|34:241|34:354,2,160,0|8|0
208,272,30002,5,0
208,272,30224,1,8
280,236,30446,1,0
280,236,30669,1,0
416,156,31113,1,8
416,156,31335,1,0
416,156,31558,2,0,B|416:332,2,160,0|8|2
444,76,32669,2,0,B|496:76|496:148,2,80,2|10|2
376,32,33335,2,0,B|208:32,1,160,2|8
136,32,34002,6,0,B|34:37|34:150,1,160,4|0
92,188,34669,2,0,B|92:356,2,160,8|0|8
168,212,35780,2,0,B|168:300,1,80
240,256,36224,2,0,B|240:172,1,80,0|8
312,144,36669,2,0,B|312:228,1,80
384,188,37113,2,0,B|384:96,1,80,0|8
384,28,37558,6,0,B|216:28,1,160,4|0
188,100,38224,2,0,B|28:100,2,160,8|0|8
220,172,39335,2,0,B|220:336,1,160
300,348,40002,2,0,B|300:184,1,160,8|2
380,172,40669,2,0,B|436:172|436:244,2,80,2|10|4
248,36,41558,5,0
248,36,41780,2,0,B|432:36,2,160,8|0|8
176,68,42891,2,0,B|124:68|124:136,1,80
64,168,43335,2,0,B|64:224|136:224,1,80,0|8
164,284,43780,2,0,B|220:284|220:220,1,80
256,168,44224,2,0,B|308:168|308:252,2,80,0|8|0
256,88,44891,5,4
432,92,45335,2,0,B|432:40|480:40,2,80,8|0|0
432,252,46224,1,8
432,252,46446,2,0,B|268:252,1,160
192,252,47113,2,0,B|90:257|90:370,2,160,8|0|8
100,120,48446,2,0,B|268:120,1,160,0|8
416,76,49335,2,0,B|416:20,4,40,0|0|0|0|8
256,192,50224,12,8,51558
256,112,52002,6,0,B|256:32,2,80,0|0|8
180,132,52669,1,0
120,184,52891,1,0
100,260,53113,2,0,B|56:260,2,40,0|0|8
176,288,53558,5,0
176,288,53780,2,0,B|176:352|100:348,2,87.9999973773957,6|2|10
248,260,54446,2,0,B|428:260,1,175.999994754791,2|2
448,184,55113,2,0,B|272:184,1,175.999994754791,10|2
248,108,55780,2,0,B|248:52|308:52,2,87.9999973773957,0|10|0
168,108,56446,2,0,B|112:108|112:36,2,87.9999973773957,2|0|10
112,256,57335,6,0,B|24:256,2,87.9999973773957,2|2|10
144,328,58002,2,0,B|320:328,1,175.999994754791,2|2
372,268,58669,1,10
424,328,58891,1,0
472,176,59335,1,2
472,176,59558,1,8
472,176,59780,2,0,B|472:88,2,87.9999973773957,0|0|2
396,156,60446,2,0,B|216:156,1,175.999994754791,10|4
64,124,61335,6,0,B|64:32,2,87.9999973773957,8|0|0
32,196,62002,2,0,B|76:280,1,87.9999973773957,0|8
132,328,62446,2,0,B|232:296,1,87.9999973773957
260,236,62891,2,0,B|328:308,1,87.9999973773957,0|8
400,304,63335,2,0,B|472:248,1,87.9999973773957
444,176,63780,2,0,B|420:92,1,87.9999973773957,0|8
356,48,64224,2,0,B|260:84,1,87.9999973773957,0|2
196,60,64669,1,2
196,60,64891,1,10
196,60,65113,2,0,B|82:65|82:195,1,175.999994754791,2|0
80,252,65780,1,8
256,192,66224,12,10,67558
256,112,68002,5,6
256,112,68224,1,2
300,48,68446,1,10
300,48,68669,2,0,B|414:53|414:183,1,175.999994754791,2|2
492,160,69335,2,0,B|316:160,1,175.999994754791,10|2
256,212,70002,1,0
256,212,70224,1,10
316,264,70446,1,0
316,264,70669,1,2
256,316,70891,1,0
256,316,71113,2,0,B|76:316,1,175.999994754791,10|2
48,244,71780,5,2
48,244,72002,1,10
48,244,72224,2,0,B|46:138|160:133,1,175.999994754791,2|2
156,212,72891,1,10
156,212,73113,2,0,B|156:32,1,175.999994754791,0|2
236,40,73780,1,8
236,40,74002,1,0
300,88,74224,1,0
300,88,74446,1,2
320,164,74669,2,0,B|500:164,1,175.999994754791,10|4
468,320,75558,5,8
468,320,75780,1,0
396,284,76002,1,0
396,284,76224,2,0,B|336:288|336:360,1,87.9999973773957,0|8
260,348,76669,2,0,B|204:348|204:280,1,87.9999973773957
248,228,77113,2,0,B|248:164|176:164,1,87.9999973773957,0|8
124,192,77558,2,0,B|68:192|68:128,1,87.9999973773957
128,84,78002,2,0,B|128:28|68:28,2,87.9999973773957,0|8|0
200,48,78669,5,2
200,48,78891,1,2
272,80,79113,1,10
272,80,79335,2,0,B|452:80,1,175.999994754791,2|2
468,156,80002,1,8
468,156,80224,2,0,B|359:158|359:266,1,175.999994754791,2|2
360,344,80891,1,14
360,344,81113,1,2
360,344,81335,2,0,B|464:344,2,87.9999973773957,0|0|8
280,332,82002,5,0
280,332,82224,1,4
208,296,82446,1,0
208,296,82669,1,8
164,228,82891,1,0
164,228,83113,2,0,B|164:60,1,160,0|8
240,44,83780,2,0,B|240:208,1,160,6|0
316,228,84446,2,0,B|316:68,2,160,10|2|10
392,260,85558,6,0,B|392:348,2,80,0|4|0
464,228,86224,1,8
464,228,86446,1,0
464,228,86669,2,0,B|464:128|364:124,1,160,0|8
288,116,87335,1,4
128,112,87780,2,0,B|128:32,2,80,0|8|0
64,160,88446,1,0
64,160,88669,1,0
128,208,88891,1,8
128,208,89113,1,0
60,248,89335,5,4
204,316,89780,2,0,B|204:144,2,160,8|0|8
352,256,91113,1,4
256,192,91558,12,0,93780
256,192,107113,5,4
188,116,108891,5,4
188,116,109335,2,0,B|20:116,2,160,8|0|8
144,192,110446,1,0
188,268,110669,2,0,B|360:268,2,160,0|8|0
212,184,111780,5,0
212,184,112002,2,0,B|212:100,2,80,8|0|0
376,124,112891,1,8
376,124,113113,1,0
376,124,113335,2,0,B|477:129|477:242,2,160,0|8|2
292,92,114446,1,2
292,92,114669,1,10
220,40,114891,1,2
220,40,115113,1,2
80,148,115558,5,8
204,272,116002,2,0,B|32:272,2,160,4|8|0
264,336,117113,1,0
264,336,117335,1,8
324,272,117558,1,0
324,272,117780,2,0,B|496:272,2,160,0|8|0
268,204,118891,6,0,B|268:144|344:144,2,80,0|8|0
212,272,119558,2,0,B|111:267|111:154,1,160,0|8
44,112,120224,1,0
112,56,120446,1,0
288,36,120891,2,0,B|464:36,1,160,8|2
484,116,121558,1,2
484,116,121780,1,10
448,196,122002,1,2
448,196,122224,1,2
348,344,122669,5,8
348,344,122891,2,0,B|180:344,1,160,4|0
136,272,123558,2,0,B|37:268|38:170,1,160,8|0
208,116,124446,1,8
208,116,124669,2,0,B|208:204,1,80
284,156,125113,2,0,B|284:252,1,80,0|8
360,192,125558,2,0,B|360:296,1,80
436,228,126002,2,0,B|436:340,2,80,0|8|4
488,60,126891,5,0
488,60,127113,1,8
312,32,127558,2,0,B|140:32,1,160,0|8
88,92,128224,2,0,B|20:163|88:233,1,160
144,164,128891,2,0,B|308:164,1,160,8|2
368,104,129558,1,2
432,164,129780,1,10
368,224,130002,5,4
244,352,130446,1,0
244,352,130669,1,8
68,352,131113,2,0,B|68:188,1,160,0|8
52,104,131780,2,0,B|16:28,1,80
104,36,132224,2,0,B|176:96,1,80,0|8
252,104,132669,2,0,B|216:28,1,80
304,36,133113,2,0,B|376:96,1,80,0|8
452,104,133558,5,0
452,104,133780,2,0,B|452:292,1,160,4|8
372,300,134446,1,0
372,300,134669,2,0,B|270:295|270:182,1,160,0|8
252,112,135335,1,0
76,192,135780,1,0
76,192,136002,2,0,B|76:24,2,160,8|0|8
224,284,137335,1,0
224,284,137780,1,8
224,284,138224,2,0,B|296:284,4,40,0|0|0|0|8
256,112,139113,5,4
256,112,139335,2,0,B|440:112,2,160
168,112,140446,1,8
108,280,140891,1,0
108,280,141113,1,0
108,280,141335,2,0,B|108:364,2,80,8|0|0
192,256,142002,2,0,B|192:204,2,40,0|0|8
276,280,142446,5,0
276,280,142669,1,6
336,344,142891,1,2
336,344,143113,1,10
396,280,143335,2,0,B|396:104,1,175.999994754791,2|2
472,60,144002,2,0,B|390:-14|316:60,1,175.999994754791,10|2
256,124,144669,1,0
256,124,144891,1,10
196,60,145113,1,0
196,60,145335,1,2
136,124,145558,1,0
136,124,145780,2,0,B|22:129|22:259,1,175.999994754791,10|2
104,264,146447,6,0,B|104:356,2,87.9999973773957,2|10|2
280,264,147335,2,0,B|280:368,2,87.9999973773957,2|10|0
456,264,148224,2,0,B|456:360,2,87.9999973773957,2|8|0
456,176,148891,1,0
456,176,149113,1,2
456,176,149335,2,0,B|457:70|343:65,1,175.999994754791,10|4
172,40,150224,5,8
172,40,150447,1,0
100,92,150669,1,0
100,92,150891,2,0,B|40:92|40:168,1,87.9999973773957,0|8
116,192,151335,2,0,B|172:192|172:272,1,87.9999973773957
216,324,151780,2,0,B|272:324|276:260,1,87.9999973773957,0|8
360,244,152224,2,0,B|360:184|300:184,1,87.9999973773957
256,112,152669,2,0,B|256:56|316:56,1,87.9999973773957,0|8
396,32,153113,2,0,B|456:32|456:100,1,87.9999973773957,0|2
460,172,153558,2,0,B|460:264,2,87.9999973773957,2|10|2
284,192,154447,1,0
284,192,154669,1,8
256,192,155113,12,10,156447
256,120,156891,6,0,B|348:120,2,87.9999973773957,6|2|10
168,120,157558,1,2
80,272,158002,1,2
80,272,158224,1,10
256,272,158669,2,0,B|256:364,2,87.9999973773957,2|0|10
344,272,159335,2,0,B|344:180,2,87.9999973773957,0|2|0
432,272,160002,2,0,B|432:92,1,175.999994754791,10|2
344,76,160669,6,0,B|344:16|404:16,2,87.9999973773957,2|10|2
172,104,161558,1,2
172,104,161780,1,10
172,104,162002,1,0
60,240,162447,1,2
60,240,162669,1,8
140,276,162891,1,0
140,276,163113,2,0,B|140:368,2,87.9999973773957,0|2|10
256,144,164002,1,4
372,276,164447,6,0,B|372:368,2,87.9999973773957,8|0|0
456,304,165113,2,0,B|456:208,1,87.9999973773957,0|8
372,192,165558,2,0,B|372:104,1,87.9999973773957
456,132,166002,2,0,B|456:44,1,87.9999973773957,0|8
372,24,166447,2,0,B|272:24,1,87.9999973773957
232,96,166891,1,0
232,96,167113,1,8
180,24,167335,1,0
180,24,167558,6,0,B|88:24,2,87.9999973773957,2|2|10
136,100,168224,2,0,B|136:280,1,175.999994754791,2|2
60,232,168891,1,8
60,232,169113,2,0,B|135:156|214:231,1,175.999994754791,2|2
292,276,169780,2,0,B|292:368,2,87.9999973773957,14|2|0
368,232,170447,1,0
368,232,170669,1,8
368,232,170891,6,0,B|464:232,2,80,0|4|0
404,152,171558,1,8
404,152,171780,1,0
404,152,172002,2,0,B|232:152,1,160,0|8
280,72,172669,2,0,B|120:72,1,160,6|0
32,72,173335,1,10
164,192,173780,1,2
32,312,174224,6,0,B|32:224,2,80,10|0|4
116,284,174891,1,0
116,284,175113,2,0,B|116:368,2,80,8|0|0
288,316,176002,1,8
288,316,176224,1,4
416,192,176669,2,0,B|468:192|468:260,2,80,0|8|0
344,144,177335,1,0
344,144,177558,2,0,B|344:92|404:92,2,80,0|8|0
272,192,178224,2,0,B|112:192,4,160,4|8|0|8|4
256,192,180447,12,0,182669
