osu file format v13

[General]
AudioFilename: Koisuru Kioku.mp3
AudioLeadIn: 0
PreviewTime: 52979
Countdown: 0
SampleSet: Normal
StackLeniency: 0.7
Mode: 1
LetterboxInBreaks: 0
WidescreenStoryboard: 1

[Editor]
DistanceSpacing: 0.8
BeatDivisor: 4
GridSize: 32
TimelineZoom: 2.699999

[Metadata]
Title:Koisuru Kioku (Short Ver.)
TitleUnicode:恋する記憶 (Short Ver.)
Artist:Sakakibara Yui
ArtistUnicode:榊原ゆい
Creator:kjwkjw
Version:Futsuu
Source:よつのは
Tags:yotsunoha nekomiya nono iori yuzuki amachi matsuri yuuki makoto
BeatmapID:457642
BeatmapSetID:192439

[Difficulty]
HPDrainRate:5
CircleSize:3
OverallDifficulty:4
ApproachRate:9
SliderMultiplier:1.2
SliderTickRate:1

[Events]
//Background and Video events
0,0,"bg.jpg",0,0
//Break Periods
//Storyboard Layer 0 (Background)
//Storyboard Layer 1 (Fail)
//Storyboard Layer 2 (Pass)
//Storyboard Layer 3 (Foreground)
//Storyboard Sound Samples
//Background Colour Transformations
3,100,163,162,255

[TimingPoints]
1296,437.956204379562,4,1,0,70,1,0
11806,-100,4,1,0,80,0,0
29325,-100,4,1,0,70,0,0
43339,-100,4,1,0,80,0,0
53850,-100,4,1,0,90,0,1
83631,-100,4,1,0,80,0,0

[HitObjects]
160,192,1296,5,0,0:0:0:0:
352,192,1734,1,8,0:0:0:0:
352,192,2610,1,8,0:0:0:0:
352,192,3486,1,8,0:0:0:0:
352,192,4362,1,8,0:0:0:0:
352,192,5238,1,8,0:0:0:0:
352,192,6114,1,8,0:0:0:0:
352,192,6990,1,8,0:0:0:0:
352,192,7865,1,8,0:0:0:0:
160,192,8303,1,0,0:0:0:0:
352,192,8741,1,8,0:0:0:0:
352,192,9617,1,8,0:0:0:0:
352,192,10493,1,8,0:0:0:0:
352,192,11369,1,8,0:0:0:0:
160,192,11807,1,0,0:0:0:0:
160,192,12245,1,0,0:0:0:0:
352,192,12683,1,8,0:0:0:0:
352,192,13340,1,8,0:0:0:0:
352,192,14873,1,8,0:0:0:0:
160,96,15311,1,4,0:0:0:0:
160,192,15749,1,0,0:0:0:0:
352,192,16187,1,8,0:0:0:0:
160,192,17063,1,0,0:0:0:0:
160,192,17500,1,0,0:0:0:0:
352,192,17938,1,8,0:0:0:0:
352,192,18814,1,8,0:0:0:0:
160,192,19252,1,0,0:0:0:0:
160,192,19690,1,0,0:0:0:0:
352,192,20128,1,8,0:0:0:0:
160,192,20566,1,0,0:0:0:0:
160,192,21442,1,0,0:0:0:0:
160,192,21880,1,0,0:0:0:0:
352,192,22318,1,8,0:0:0:0:
352,192,22756,1,8,0:0:0:0:
160,192,23194,1,0,0:0:0:0:
160,192,24070,1,0,0:0:0:0:
352,192,24508,1,8,0:0:0:0:
160,192,24727,1,0,0:0:0:0:
160,192,25384,1,0,0:0:0:0:
352,192,25822,1,8,0:0:0:0:
352,192,26260,1,8,0:0:0:0:
160,192,26698,1,0,0:0:0:0:
160,192,27136,1,0,0:0:0:0:
352,192,27355,1,8,0:0:0:0:
352,192,28449,1,8,0:0:0:0:
160,192,28887,1,0,0:0:0:0:
352,192,29325,1,8,0:0:0:0:
352,192,30201,1,8,0:0:0:0:
160,192,31077,1,0,0:0:0:0:
352,192,31515,1,8,0:0:0:0:
160,192,31953,1,0,0:0:0:0:
352,192,32391,1,8,0:0:0:0:
160,192,32829,1,0,0:0:0:0:
160,192,33705,1,0,0:0:0:0:
352,192,34143,1,8,0:0:0:0:
160,192,34581,1,0,0:0:0:0:
352,192,35457,1,8,0:0:0:0:
352,192,35895,1,8,0:0:0:0:
160,192,36333,1,0,0:0:0:0:
352,192,37209,1,8,0:0:0:0:
160,192,38084,1,0,0:0:0:0:
160,192,38522,1,0,0:0:0:0:
352,192,38960,1,8,0:0:0:0:
352,192,39398,1,8,0:0:0:0:
160,192,39836,1,0,0:0:0:0:
160,192,40712,1,0,0:0:0:0:
352,192,41150,1,8,0:0:0:0:
160,192,41588,1,0,0:0:0:0:
352,192,42026,1,8,0:0:0:0:
352,192,42464,1,8,0:0:0:0:
352,192,42902,1,8,0:0:0:0:
160,192,43340,1,0,0:0:0:0:
352,192,44216,1,8,0:0:0:0:
160,192,45092,1,0,0:0:0:0:
352,192,45530,1,8,0:0:0:0:
352,192,45968,1,8,0:0:0:0:
160,192,46844,1,0,0:0:0:0:
352,192,47282,1,8,0:0:0:0:
160,192,47719,1,0,0:0:0:0:
352,192,48595,1,8,0:0:0:0:
160,192,49033,1,0,0:0:0:0:
160,192,49471,1,0,0:0:0:0:
352,192,49909,1,8,0:0:0:0:
160,192,50347,1,0,0:0:0:0:
160,192,50675,1,0,0:0:0:0:
352,192,51223,1,8,0:0:0:0:
352,192,51551,1,8,0:0:0:0:
160,192,52099,1,0,0:0:0:0:
160,192,52537,1,0,0:0:0:0:
160,192,52975,1,0,0:0:0:0:
160,192,53194,1,0,0:0:0:0:
352,192,53413,1,8,0:0:0:0:
160,96,53851,1,4,0:0:0:0:
352,192,54289,1,8,0:0:0:0:
160,192,54727,1,0,0:0:0:0:
352,192,55603,1,8,0:0:0:0:
352,192,56041,1,8,0:0:0:0:
160,192,56479,1,0,0:0:0:0:
160,192,57355,1,0,0:0:0:0:
352,192,57792,1,8,0:0:0:0:
160,192,58230,1,0,0:0:0:0:
352,192,58668,1,8,0:0:0:0:
160,192,59106,1,0,0:0:0:0:
160,192,59982,1,0,0:0:0:0:
160,192,60420,1,0,0:0:0:0:
352,192,60858,1,8,0:0:0:0:
352,192,61296,1,8,0:0:0:0:
160,192,61734,1,0,0:0:0:0:
352,192,62610,1,8,0:0:0:0:
352,192,63048,1,8,0:0:0:0:
160,192,63486,1,0,0:0:0:0:
160,192,64362,1,0,0:0:0:0:
352,192,64800,1,8,0:0:0:0:
160,192,65238,1,0,0:0:0:0:
160,192,65676,1,0,0:0:0:0:
352,192,65895,1,8,0:0:0:0:
352,192,66552,1,8,0:0:0:0:
160,192,66990,1,0,0:0:0:0:
160,192,67209,1,0,0:0:0:0:
352,192,67428,1,8,0:0:0:0:
160,96,67865,1,4,0:0:0:0:
352,192,68303,1,8,0:0:0:0:
160,192,68741,1,0,0:0:0:0:
160,192,69617,1,0,0:0:0:0:
352,192,70055,1,8,0:0:0:0:
160,192,70493,1,0,0:0:0:0:
160,192,71369,1,0,0:0:0:0:
352,192,71807,1,8,0:0:0:0:
160,192,72245,1,0,0:0:0:0:
352,192,72683,1,8,0:0:0:0:
160,192,73121,1,0,0:0:0:0:
352,192,73997,1,8,0:0:0:0:
352,192,74435,1,8,0:0:0:0:
160,192,74873,1,0,0:0:0:0:
352,192,75311,1,8,0:0:0:0:
160,192,75749,1,0,0:0:0:0:
352,192,76625,1,8,0:0:0:0:
352,192,77063,1,8,0:0:0:0:
160,192,77500,1,0,0:0:0:0:
160,192,78376,1,0,0:0:0:0:
160,192,78814,1,0,0:0:0:0:
352,192,79252,1,8,0:0:0:0:
352,192,80128,1,8,0:0:0:0:
352,192,80456,1,8,0:0:0:0:
352,192,81004,1,8,0:0:0:0:
352,192,81332,1,8,0:0:0:0:
160,192,81880,1,0,0:0:0:0:
352,192,82318,1,8,0:0:0:0:
352,192,82756,1,8,0:0:0:0:
352,192,83194,1,8,0:0:0:0:
160,192,83632,1,0,0:0:0:0:
160,192,84070,1,0,0:0:0:0:
352,192,84508,1,8,0:0:0:0:
160,192,85384,1,0,0:0:0:0:
160,192,85822,1,0,0:0:0:0:
352,192,86259,1,8,0:0:0:0:
352,192,87135,1,8,0:0:0:0:
160,192,87573,1,0,0:0:0:0:
160,192,88011,1,0,0:0:0:0:
352,192,88449,1,8,0:0:0:0:
160,192,88887,1,0,0:0:0:0:
160,192,89763,1,0,0:0:0:0:
160,192,90201,1,0,0:0:0:0:
352,192,90639,1,8,0:0:0:0:
352,192,91077,1,8,0:0:0:0:
160,192,91515,1,0,0:0:0:0:
160,192,92391,1,0,0:0:0:0:
352,192,92829,1,8,0:0:0:0:
160,192,93048,1,0,0:0:0:0:
352,192,93705,1,8,0:0:0:0:
352,192,94143,1,8,0:0:0:0:
160,192,94581,1,0,0:0:0:0:
352,192,94800,1,8,0:0:0:0:
192,192,95238,1,0,0:0:0:0:
352,192,95676,1,8,0:0:0:0:
160,192,96333,1,0,0:0:0:0:
352,192,96771,1,8,0:0:0:0:
352,192,97209,1,8,0:0:0:0:
256,192,97646,12,0,99398,0:0:0:0:
160,192,100274,5,0,0:0:0:0:
352,192,100712,1,8,0:0:0:0:
352,192,101150,5,8,0:0:0:0:
352,192,101369,1,8,0:0:0:0:
352,192,101588,1,8,0:0:0:0:
352,192,102245,1,8,0:0:0:0:
352,96,102683,1,12,0:0:0:0:
