osu file format v9

[General]
AudioFilename: Katayoku no Ikaros (TV Size).mp3
AudioLeadIn: 1000
PreviewTime: 62072
Countdown: 0
SampleSet: Soft
StackLeniency: 0.7
Mode: 0
LetterboxInBreaks: 1

[Editor]
DistanceSpacing: 0.8
BeatDivisor: 2
GridSize: 8

[Metadata]
Title:Katayoku no Ikaros (TV Size)
Artist:Sakakibara Yui
Creator:Rucker
Version:Easy
Source:H2O ~FOOTPRINTS IN THE SAND~
Tags:quintitem KanaRin osuplayer111

[Difficulty]
HPDrainRate:3
CircleSize:3
OverallDifficulty:1
ApproachRate:3
SliderMultiplier:0.8
SliderTickRate:1

[Events]
//Background and Video events
Video,0,"Katayoku no Ikaros (TV Size).avi"
0,0,"Katayoku no Ikaros (TV Size).jpg"
//Break Periods
2,12999,23426
//Storyboard Layer 0 (Background)
//Storyboard Layer 1 (Fail)
//Storyboard Layer 2 (Pass)
//Storyboard Layer 3 (Foreground)
//Storyboard Sound Samples
//Background Colour Transformations
3,100,163,162,255

[TimingPoints]
732,335.195530726257,4,2,0,70,1,0
24866,-100,4,2,0,70,0,0
62407,-100,4,2,0,80,0,1
82687,-100,4,2,0,20,0,0

[Colours]
Combo1 : 255,153,0
Combo2 : 5,240,5
Combo3 : 5,5,240
Combo4 : 240,5,5

[HitObjects]
131,150,732,2,0,B|158:74|254:26|350:74|376:154,2,320
176,312,4083,2,0,B|256:312|256:264|344:264,2,160
40,208,6095,6,0,B|40:48,1,160
208,48,7435,2,0,B|312:48|312:144,1,160
440,48,8776,1,0
472,144,9279,2,0,B|472:312,1,160
256,192,10117,12,0,12799
448,192,24866,6,0,B|448:352,2,160,0|2|0
352,56,26877,1,0
352,56,27547,2,0,B|280:112|192:48,1,160,0|2
48,129,28888,2,0,B|48:200|136:200|135:254,1,160
288,320,30229,5,0
288,320,30899,2,0,B|400:320|400:216,2,160,2|0|0
288,320,32910,1,4
256,192,33078,12,0,34921
256,64,35592,6,0,B|96:64,2,160
416,48,37603,1,0
416,48,38273,2,0,B|479:119|415:191,1,160
256,240,39614,2,0,B|256:360,2,120,2|0|0
176,240,40955,6,0,B|72:240|72:128,1,160,0|0
216,56,42296,2,0,B|376:56,2,160,0|0|4
256,192,43804,12,0,45648
400,272,46653,6,0,B|488:230|486:128|397:88,1,240,2|0
336,160,48162,1,0
232,40,49000,1,0
232,40,49335,2,0,B|146:39|146:175|47:175,1,240,2|0
48,176,50843,1,0
88,336,51681,6,0,B|167:288|238:338,1,160
400,336,53022,2,0,B|400:216,1,120
496,128,54028,1,0
496,128,54363,6,0,B|496:32|384:32,1,160,2|0
256,120,55704,2,0,B|256:240,2,120
256,120,57044,1,4
256,192,57212,12,0,61737
48,192,62407,6,0,B|48:88|152:88,1,160,4|2
304,128,63748,2,0,B|304:0,2,120
392,128,65089,6,0,B|448:208|391:275,1,160,0|0
391,274,66095,1,0
391,274,66430,1,2
240,344,67100,5,0
176,288,67435,1,2
112,344,67771,1,4
48,200,68441,2,0,B|48:40,1,160,0|0
208,48,69782,6,0,B|312:48|312:144,1,160,0|0
464,224,71123,1,0
464,224,71793,2,0,B|464:352,2,120,2|0|0
408,160,73134,6,0,B|407:104|303:104|304:49,1,160,4|0
144,48,74475,2,0,B|40:48|40:160,1,160
72,280,75648,6,0,B|232:280,1,160,2|0
304,328,76653,1,0
304,328,76988,2,0,B|432:328|432:192,1,200
432,120,78162,1,2
432,120,78497,2,0,B|272:120,1,160
128,48,79838,6,0,B|64:0|8:56,2,120
128,128,81178,2,0,B|128:248,2,120,2|0|0
128,128,82352,1,4
256,192,82687,12,0,87882
