osu file format v9

[General]
AudioFilename: Song.mp3
AudioLeadIn: 2500
PreviewTime: 167126
Countdown: 0
SampleSet: Soft
StackLeniency: 0.7
Mode: 0
LetterboxInBreaks: 1

[Editor]
DistanceSpacing: 1.2
BeatDivisor: 4
GridSize: 4

[Metadata]
Title:Himitsujikake no apple
Artist:Sakakibara Yui
Creator:merchat7
Version:Normal
Source:Kimi to Boku to Eden no Ringo
Tags:ALMA hentai game eroge yuri visual novel opening full ver version astom DarknessAngel

[Difficulty]
HPDrainRate:5
CircleSize:3
OverallDifficulty:5
ApproachRate:5
SliderMultiplier:1.4
SliderTickRate:2

[Events]
//Background and Video events
0,0,"background.jpg"
//Break Periods
2,14528,26785
2,104752,110292
2,112139,118128
2,206841,214173
//Storyboard Layer 0 (Background)
//Storyboard Layer 1 (Fail)
//Storyboard Layer 2 (Pass)
//Storyboard Layer 3 (Foreground)
//Storyboard Sound Samples
//Background Colour Transformations
3,100,163,162,255

[TimingPoints]
0,447.761194029851,4,2,2,80,1,0
8731,-100,4,1,1,75,0,0
10746,-100,4,2,2,95,0,0
14328,-100,4,2,0,90,0,0
27985,-100,4,2,0,85,0,0
30671,-100,4,2,0,75,0,0
31567,-100,4,2,0,85,0,0
34253,-100,4,2,0,75,0,0
35373,-100,4,2,0,85,0,0
36940,-100,4,2,0,75,0,0
37444,-100,4,2,0,85,0,0
41194,-100,4,2,0,45,0,0
42313,-100,4,2,0,85,0,0
45000,-100,4,2,0,75,0,0
45895,-100,4,2,0,85,0,0
48582,-100,4,2,0,75,0,0
49477,-100,4,2,0,85,0,0
60000,-100,4,2,0,70,0,0
68059,-100,4,2,1,50,0,0
68283,-100,4,2,0,70,0,0
68507,-100,4,2,1,50,0,0
68731,-100,4,2,0,70,0,0
76791,-100,4,2,0,100,0,1
101641,-100,4,2,2,100,0,1
104552,-100,4,2,0,80,0,0
119328,-100,4,2,2,70,0,0
120000,-100,4,2,2,50,0,0
120447,-100,4,2,2,70,0,0
126716,-100,4,2,0,70,0,0
129626,-100,4,2,0,75,0,0
130298,-100,4,2,0,85,0,0
134776,-100,4,2,0,85,0,1
134832,-100,4,2,0,85,0,0
136343,-100,4,2,0,75,0,0
137238,-100,4,2,0,85,0,0
139925,-100,4,2,0,75,0,0
140820,-100,4,2,0,75,0,0
140876,-100,4,2,0,85,0,0
141940,-100,4,2,0,75,0,0
142388,-100,4,2,0,85,0,0
151343,-100,4,2,0,70,0,0
157388,-100,4,2,0,60,0,0
159402,-100,4,2,1,40,0,0
160074,-100,4,2,0,70,0,0
168134,-100,4,2,0,100,0,1
195895,-100,4,2,0,80,0,0
215373,-100,4,2,2,70,0,0
222089,-100,4,2,0,60,0,0
222537,-100,4,2,0,80,0,0
225671,-100,4,2,0,70,0,0
225895,-100,4,2,0,80,0,0
228134,-100,4,2,0,70,0,0
230149,-100,4,2,0,80,0,0
230820,-100,4,2,0,70,0,0
232611,-100,4,2,0,80,0,0
236194,-100,4,2,0,75,0,0
236865,-100,4,2,0,80,0,0
239328,-100,4,2,0,95,0,0
243358,-100,4,2,0,100,0,1
253656,-100,4,2,0,75,0,1
254104,-100,4,2,0,100,0,1
271119,-100,4,2,0,80,0,0
286567,-100,4,2,0,50,0,0
292320,447.761194029851,4,2,0,50,1,0

[Colours]
Combo1 : 84,140,203
Combo2 : 236,160,104
Combo3 : 100,206,108
Combo4 : 209,92,99

[HitObjects]
128,64,0,2,0,B|168:96|168:96|256:96,1,140,4|2
384,208,895,2,0,B|344:176|344:176|256:176,1,140,2|2
256,96,1567,1,2
256,264,2014,2,0,B|256:360,2,70,2|2|2
104,48,3582,6,0,B|140:16|168:40|196:64|236:32,2,140,2|2|2
68,212,4925,1,2
112,284,5149,1,2
192,312,5373,2,0,B|328:328|328:272|328:216|456:232|456:232,1,280,0|2
112,184,7164,6,0,B|128:160|128:136|112:112|96:88|96:64|120:40|120:40,2,140,4|2|2
168,340,8507,1,0
252,336,8731,1,4
340,192,9179,2,4,B|412:168|476:200,1,140
60,128,10746,6,0,B|92:56|188:40,2,140,4|0|2
214,192,12089,1,0
298,192,12313,1,4
256,192,12537,12,4,14328
424,200,27985,5,2
392,280,28208,2,0,B|352:352|272:344,1,140,0|4
112,336,29104,2,0,B|112:192,2,140,0|0|2
112,336,30223,1,2
256,222,30671,2,8,B|256:152,2,70
88,184,31567,5,2
120,104,31790,2,0,B|160:32|240:40,1,140,2|0
400,48,32686,2,0,B|400:192,2,140,0|0|2
400,48,33805,1,2
256,152,34253,2,8,B|256:232,2,70
448,56,35373,5,2
448,56,35597,2,0,B|416:88|436:120|456:160|416:184,1,140,2|2
336,192,36268,2,0,B|336:264,1,70,0|2
280,104,36940,5,8
248,184,37164,1,8
200,112,37388,2,0,B|136:152|160:200|184:248|120:296,1,210,8|2
80,224,38283,1,4
256,48,38955,5,8
256,216,39402,1,2
192,272,39626,2,0,B|224:308|288:308|320:272,1,140,2|4
256,216,40298,1,0
256,216,40522,1,2
256,48,40970,1,4
224,128,41194,2,8,B|336:128,2,105,8|8|8
48,80,42313,6,0,B|153:63|153:63|257:79,1,210,0|4
416,128,43432,2,0,B|400:208|312:208,2,140,0|0|2
328,120,44552,1,2
256,272,45000,2,8,B|256:200,2,70
48,304,45895,6,0,B|153:321|153:321|257:305,1,210,0|0
416,256,47014,2,0,B|400:176|312:176,2,140,0|0|2
328,264,48134,1,2
256,112,48582,2,8,B|256:40,2,70
120,208,49477,6,0,B|188:248|324:248|392:208,1,280,2|2
391,209,50597,1,4
468,60,51044,2,0,B|399:70|399:70|324:60,1,140,2|2
244,60,51716,2,0,B|174:50|174:50|105:60,1,140,4|4
40,112,52388,1,0
40,112,52611,1,4
184,320,53283,6,0,B|256:336|256:336|320:328,1,140,0|4
440,216,54179,2,8,B|384:248|384:248|304:248,1,140,0|2
224,240,54850,1,2
72,168,55298,6,8,B|128:136|128:136|208:136,1,140,4|2
288,144,55970,1,2
152,48,56417,2,0,B|222:48,1,70,2|0
310,48,56864,1,0
256,192,57089,12,4,58880
256,192,59328,5,2
256,192,59552,1,2
108,116,60000,1,2
176,68,60223,1,0
408,168,60895,6,0,B|402:298|272:303,1,210,4|0
200,280,61791,2,0,B|144:320,2,70,2|2|0
256,216,62462,2,0,B|216:216|240:152|264:96|224:96,1,140,2|0
144,96,63134,1,4
464,200,63805,5,0
424,272,64029,1,2
424,272,64253,2,2,B|384:320|296:320,1,140,2|0
219,320,64925,1,2
220,320,65149,2,0,B|134:321|94:273,1,140,2|2
93,272,65820,5,8
56,200,66044,1,8
172,64,66492,2,0,B|224:64|256:120|256:120|288:64|340:64,1,210,4|0
316,188,67500,6,0,B|368:212|424:196,1,105,0|2
488,148,68059,2,0,B|508:184|496:228,2,70,8|2|8
448,72,68731,5,0
400,144,68955,2,0,B|360:200|289:236,1,140,4|0
208,232,69626,2,0,B|104:192|60:84,2,210,6|0|4
368,304,71417,5,2
368,304,71641,2,2,B|456:304|464:224,2,140,4|0|2
280,304,72761,2,4,B|136:304,1,140,4|4
256,192,73656,12,0,75223
68,120,75895,6,0,B|140:64|268:68,1,210,2|8
352,72,76791,1,4
464,200,77238,2,8,B|392:200,1,70,0|8
256,304,77910,2,0,B|328:304,2,70,2|0|8
168,304,78582,2,2,B|128:328|88:328|56:312|32:280|32:240|56:208,1,210,2|8
216,232,79701,6,8,B|144:200|144:112,1,140,0|8
192,48,80373,2,0,B|256:16|328:48,1,140,0|0
376,120,81044,2,2,B|384:200|320:240,1,140,8|2
392,288,81716,2,2,B|464:288,2,70,0|8|0
135,281,82835,1,8
48,48,83507,5,2
48,48,83731,2,8,B|136:32|96:176|72:296|160:280,1,280
232,144,85074,2,0,B|208:160|232:216|248:280|212:276,1,140,2|8
136,280,85746,1,4
240,48,86417,1,8
324,60,86641,2,0,B|348:136|428:140,1,140,4|0
464,304,87537,6,2,B|368:304,1,70,0|4
272,192,88208,2,2,B|200:192,1,70,0|4
120,48,88880,2,2,B|48:48,1,70,2|0
80,128,89328,2,2,B|84:268,1,140,4|0
248,296,90223,6,0,B|352:348|456:304,1,210,2|8
451,306,91119,1,4
384,152,91566,2,8,B|312:152,1,70,0|8
144,152,92238,2,0,B|144:80,2,70,2|0|8
184,224,92910,2,2,B|200:240|272:216|232:144|224:72|248:48|264:64,1,210,2|8
376,184,94029,6,8,B|344:196|356:252|384:316|336:312,1,140,0|8
264,320,94701,1,2
376,96,95373,2,2,B|312:56|312:56|248:48,1,140,8|2
168,56,96044,1,0
112,120,96268,2,0,B|93:191|93:191|112:264,1,140,8|0
264,320,97164,1,8
200,72,97835,6,0,B|112:72,2,70,0|0|4
312,192,98731,2,0,B|392:192,2,70,0|0|4
200,312,99626,2,0,B|120:312,2,70,0|0|4
336,104,100746,5,4
176,104,101194,1,2
256,256,101641,2,0,B|256:184,1,70,2|2
256,192,102313,12,4,104552
220,192,111492,6,0,B|256:204|292:192,2,70,2|0|2
80,140,119328,6,0,B|148:168|220:140,1,140,0|2
288,96,120000,1,4
432,180,120447,1,2
340,320,120895,2,0,B|356:344|404:340,2,70,0|0|2
260,296,121567,1,0
92,316,122014,2,0,B|76:340|28:337,2,70,0|2|0
260,296,122910,6,0,B|288:228|260:152,1,140,0|2
212,92,123582,1,0
52,136,124029,1,2
76,304,124477,2,0,B|40:320|8:308,2,70,0|0|2
160,304,125149,1,0
324,264,125597,2,0,B|364:264|384:228,2,70,0|2|0
144,84,126716,5,0
220,124,126940,2,0,B|300:144|364:96,2,140,2|0|2
76,208,128283,2,0,B|92:280|176:304,1,140,0|0
416,348,129402,2,0,B|455:340|476:312,1,70,2|4
256,188,130298,5,0
416,136,130746,2,0,B|416:80|376:40|324:16|264:40,1,210,4|4
196,84,131641,2,0,B|156:92|140:124,1,70,0|2
84,280,132313,1,4
444,68,133656,6,0,B|432:144|348:160,1,140,2|2
388,236,134328,1,0
236,164,134776,2,0,B|155:179|143:255,1,140,4|0
116,336,135447,2,0,B|76:340|48:320,1,70,2|2
16,244,135895,1,0
80,88,136343,2,0,B|40:92|16:60,2,70,8|8|8
248,80,137238,6,0,B|332:92|356:164,1,140,0|2
355,159,137910,1,2
416,316,138358,2,0,B|352:340|272:316,1,140,2|0
212,268,139029,2,0,B|180:252|144:264,1,70,2|2
72,308,139477,1,0
100,144,139925,2,0,B|64:140|40:108,2,70,8|8|8
212,268,140820,6,0,B|312:264|312:264|340:232,1,140,4|4
480,144,141716,2,0,B|448:84,1,70,0|4
284,36,142388,2,0,B|184:40|184:40|156:72,1,140,2|0
116,144,143059,1,4
96,312,143507,2,0,B|60:312|60:312|32:296,2,70,4|0|4
348,316,144626,5,0
420,276,144850,2,0,B|460:236|460:180|460:124|432:72,1,210,2|2
272,124,145970,2,0,B|236:132|200:116,1,70,2|2
60,32,146641,1,4
12,192,147089,2,0,B|-4:232|16:264,1,70,2|4
164,336,147761,2,0,B|212:340|268:324|292:288,1,140,2|0
256,192,148432,12,4,150223
256,192,150671,5,2
256,192,150895,1,2
408,264,151343,2,0,B|404:296|364:312,1,70,2|0
108,324,152238,6,0,B|-4:232|52:64,1,280,4|2
128,32,153358,1,2
228,164,153805,2,0,B|344:180|416:80,1,210,2|4
296,312,155149,6,0,B|340:316|368:288,2,70,0|2|2
128,336,156044,2,0,B|96:308|128:272|160:240|128:208,1,140,0|2
72,144,156716,1,0
216,56,157164,1,2
292,92,157388,2,0,B|416:124|480:32,1,210,4|0
392,176,158507,6,0,B|356:248,1,70,2|0
440,264,158955,2,0,B|512:124,2,140,2|8|8
396,336,160074,5,0
332,280,160298,2,0,B|260:268|202:317,1,140,4|0
116,324,160970,2,0,B|52:284|44:208,1,140,4|2
44,210,161641,1,2
96,144,161865,1,2
200,276,162313,6,0,B|256:320|332:280,1,140,4|4
412,40,163432,2,0,B|472:48|492:104,2,105,2|0|4
244,36,164552,1,4
256,192,165000,12,0,166567
168,192,167238,5,2
192,272,167462,2,0,B|244:332|316:324,1,140,2|8
400,316,168134,1,4
484,168,168582,1,0
408,128,168805,1,8
256,200,169253,2,0,B|292:132|260:64,1,140,2|8
188,24,169925,2,0,B|112:12|24:52|16:112,1,210,2|8
60,272,171044,6,0,B|20:264|0:232,2,70,2|0|8
144,284,171716,1,2
300,348,172164,2,0,B|340:336|356:304,1,70,2|8
496,216,172835,2,0,B|460:152|376:152,1,140,2|8
312,204,173507,2,0,B|228:220|160:168|164:96,1,210,2|8
416,68,174850,6,0,B|456:72|480:44,2,70,0|8|2
252,112,175746,2,0,B|248:156|280:176,1,70,0|8
416,264,176417,2,0,B|368:316|288:320,1,140,2|8
208,304,177089,1,4
20,132,177761,1,8
84,76,177985,2,0,B|131:24|208:21,1,140,4|0
352,108,178880,6,0,B|340:144|304:160,1,70,0|4
164,252,179552,2,0,B|200:268|236:252,1,70,0|4
400,268,180223,2,0,B|440:264|468:292,2,70,2|0|4
64,272,181567,5,2
64,272,181791,2,0,B|144:240|144:164,1,140,2|0
172,88,182463,1,4
340,80,182910,1,0
372,156,183134,1,8
232,248,183582,2,0,B|248:328|332:344,1,140,2|8
372,272,184254,2,0,B|492:228|476:108,1,210,2|8
312,68,185373,6,0,B|332:36|368:28,2,70,2|0|8
264,140,186045,1,2
100,100,186493,2,0,B|88:136|104:172,1,70,2|8
84,336,187164,2,0,B|160:336|160:336|211:284,1,140,2|8
292,292,187835,2,0,B|352:288|392:320|392:320|404:276|452:236,1,210,2|8
276,56,189179,6,0,B|316:56|344:36,2,70,0|0|4
116,108,190074,2,0,B|84:101|56:72,2,70,0|0|4
113,276,190970,2,0,B|85:298|45:292,2,70,0|0|4
256,68,192090,5,4
189,225,192537,2,0,B|256:261|326:225,1,140,2|2
323,227,193208,1,2
256,192,193656,12,4,195895
256,132,197014,6,0,B|336:108|344:28,2,140,2|2|2
88,112,198358,2,0,B|80:152|92:188,1,70,2|2
116,348,199029,2,0,B|77:355|52:324,2,70,2|0|2
360,312,200597,6,0,B|448:320|484:252,2,140,0|2|4
196,276,201940,1,2
196,276,202164,1,4
340,192,202611,6,0,B|380:196|416:168,1,70,4|2
316,32,203283,2,0,B|280:28|244:44,1,70,2|4
104,132,203955,1,4
152,200,204179,6,0,B|112:268|32:256,2,140,4|2|2
300,120,205522,1,2
348,188,205746,2,0,B|364:256|444:280,1,140,2|4
504,340,206417,1,0
504,340,206641,1,4
392,192,215373,5,2
284,320,215820,2,0,B|204:332|152:280,1,140
120,208,216492,1,2
216,68,216940,2,0,B|296:56|348:108,1,140,2|0
424,256,217835,6,0,B|464:256|484:224,2,70,2|0|2
344,280,218507,1,0
256,136,218955,1,0
172,128,219179,2,0,B|88:152|80:228,1,140,2|0
204,340,220074,1,2
372,348,220522,6,0,B|411:304|371:248|331:192|371:148,1,210,2|0
484,24,221641,1,0
370,150,222089,1,4
220,72,222537,6,0,B|140:48|80:88,1,140,0|2
52,164,223208,2,0,B|56:204|88:236,1,70,0|0
92,312,223656,2,0,B|172:336|232:296,1,140,2|0
296,352,224328,2,0,B|324:328|324:280|308:248|281:230,1,140,2|0
148,128,225223,1,2
312,88,225671,2,0,B|352:88|372:48,2,70,4|0|0
80,192,226791,6,0,B|96:232|124:248,1,70,2|0
204,260,227238,2,0,B|328:264|360:148,1,210,2|0
388,68,228134,1,4
492,200,228582,1,4
364,308,229029,2,0,B|332:192|208:196,1,210,4|0
40,196,230149,1,4
252,332,230820,6,0,B|276:288|224:240|252:196,1,140,4|0
328,164,231492,1,2
356,84,231716,2,0,B|336:48|280:32|224:40,1,140,4|4
160,84,232388,1,2
96,140,232611,2,0,B|104:200|132:244|180:268|236:268,1,210,4|0
472,360,233955,5,2
416,296,234179,1,0
460,224,234402,2,0,B|495:159|464:88,1,140,4|0
464,89,235074,1,2
300,48,235522,2,0,B|280:72|236:76,3,70,2|0|0|4
20,204,236865,5,2
68,272,237089,2,0,B|87:347|175:339,1,140,4|4
336,340,237985,2,0,B|424:348|443:271,2,140,4|0|0
256,192,239328,1,4
256,192,239776,12,0,241791
248,204,242462,6,0,B|248:272,2,70,2|0|0
176,160,243134,1,8
156,80,243358,2,0,B|256:20|356:80,1,210,4|8
448,220,244477,2,0,B|464:192|500:172,2,70,2|0|8
420,300,245149,2,0,B|344:328|280:296,1,140,2|2
284,298,245820,1,8
124,348,246268,6,0,B|100:279|128:211,1,140,2|8
128,211,246940,1,2
376,176,247611,1,8
208,184,248059,2,0,B|236:152|232:116,1,70,2|0
276,48,248507,1,8
192,44,248731,2,0,B|112:24|60:72,1,140,2|0
60,71,249402,1,8
224,264,250074,5,2
160,316,250298,1,8
236,348,250522,2,0,B|308:372|376:348,1,140,0|2
374,349,251194,1,8
352,180,251641,6,0,B|323:111|350:43,1,140,2|8
434,41,252313,2,0,B|462:109|435:177,1,140,4|0
476,252,252985,1,8
412,304,253208,1,4
252,260,253656,1,4
92,308,254104,6,0,B|56:300|40:264,1,70,0|4
52,96,254776,2,0,B|85:92|117:116,1,70,0|4
284,132,255447,1,2
360,92,255671,1,0
432,136,255895,2,0,B|448:168|444:208|424:236|384:256,1,140,4|0
224,288,256791,6,0,B|232:328|268:344,2,70,2|0|0
260,212,257463,1,8
176,208,257687,2,0,B|96:224|24:160|40:88,1,210,4|8
208,72,258805,6,0,B|200:32|164:16,2,70,2|0|8
268,132,259477,2,0,B|344:148|400:92,1,140,2|2
396,95,260149,1,8
438,257,260597,6,0,B|362:241|306:297,1,140,2|8
252,356,261269,1,0
172,116,261940,1,8
8,152,262388,2,0,B|0:192|12:224,1,70,2|0
84,264,262836,1,8
164,240,263059,2,0,B|240:228|284:296,1,140,2|0
283,294,263731,1,8
172,68,264402,6,0,B|136:48|124:16,2,70,0|0|4
340,68,265298,2,0,B|376:48|388:16,2,70,0|0|4
212,180,266194,1,0
300,180,266417,1,0
328,260,266641,2,0,B|260:288|190:260,1,140,4|0
124,316,267314,1,4
32,176,267761,6,0,B|54:105|120:70,1,140,2|2
200,52,268432,1,2
256,192,268880,12,4,271119
80,88,272238,6,0,B|224:88,1,140,4|2
392,96,273134,1,2
448,152,273358,1,0
448,232,273581,1,2
384,280,273805,1,4
216,296,274253,5,2
216,296,274477,2,0,B|140:304|100:224,1,140,0|0
192,88,275372,1,2
360,88,275820,2,2,B|432:88,2,70,0|2|2
120,168,276940,6,0,B|192:168,1,70
272,168,277387,1,4
144,280,277835,2,2,B|216:280,3,70,0|2|0|0
376,248,278955,1,2
432,88,279402,6,0,B|288:88,1,140,4|2
120,96,280298,1,2
64,152,280522,1,0
64,232,280745,1,2
128,280,280969,1,4
296,296,281417,5,2
296,296,281641,2,0,B|384:292|408:220,1,140,2|0
320,80,282536,1,2
152,80,282984,2,2,B|80:80,2,70,4|2|2
232,80,283656,1,4
400,84,284104,6,0,B|400:236,1,140
256,304,284999,2,0,B|256:232,3,70,2|0|2|0
256,152,285895,1,4
256,152,286343,1,4
256,192,286567,12,2,292320
