osu file format v9

[General]
AudioFilename: Song.mp3
AudioLeadIn: 2500
PreviewTime: 167126
Countdown: 0
SampleSet: Soft
StackLeniency: 0.7
Mode: 0
LetterboxInBreaks: 1

[Editor]
DistanceSpacing: 0
BeatDivisor: 4
GridSize: 4

[Metadata]
Title:Himitsujikake no apple
Artist:Sakakibara Yui
Creator:merchat7
Version:Hard
Source:Kimi to Boku to Eden no Ringo
Tags:ALMA hentai game eroge yuri visual novel opening full ver version astom DarknessAngel

[Difficulty]
HPDrainRate:7
CircleSize:4
OverallDifficulty:6
ApproachRate:8
SliderMultiplier:2
SliderTickRate:2

[Events]
//Background and Video events
0,0,"background.jpg"
//Break Periods
2,14528,24324
2,104752,110742
2,112140,118578
2,206841,214623
//Storyboard Layer 0 (Background)
//Storyboard Layer 1 (Fail)
//Storyboard Layer 2 (Pass)
//Storyboard Layer 3 (Foreground)
//Storyboard Sound Samples
//Background Colour Transformations
3,100,163,162,255

[TimingPoints]
0,447.761194029851,4,2,2,80,1,0
8731,-100,4,1,1,75,0,0
14328,-100,4,2,1,90,0,0
25074,-100,4,2,1,60,0,0
25298,-100,4,2,0,90,0,0
25746,-100,4,2,1,60,0,0
26194,-100,4,2,0,90,0,0
27985,-100,4,2,0,85,0,0
41194,-100,4,2,0,45,0,0
42313,-100,4,2,0,85,0,0
60000,-100,4,2,0,70,0,0
60223,-133.333333333333,4,2,2,70,0,0
60895,-100,4,2,0,70,0,0
64029,-100,4,2,0,50,0,0
64253,-100,4,2,0,70,0,0
68507,-100,4,2,1,50,0,0
68731,-100,4,2,0,70,0,0
71194,-100,4,2,0,50,0,0
71417,-100,4,2,0,70,0,0
76791,-100,4,2,0,100,0,1
104552,-100,4,2,0,80,0,0
119328,-100,4,2,2,70,0,0
120000,-100,4,2,2,50,0,0
120223,-100,4,2,2,70,0,0
127052,-100,4,2,0,75,0,0
127164,-100,4,2,0,70,0,0
127835,-100,4,2,0,75,0,0
128283,-100,4,2,0,70,0,0
129626,-100,4,2,0,75,0,0
129850,-100,4,1,0,50,0,0
130298,-100,4,2,0,85,0,0
130858,-100,4,2,0,50,0,0
130970,-100,4,2,0,85,0,0
131082,-100,4,2,0,50,0,0
131417,-100,4,2,0,85,0,0
132761,-100,4,2,0,60,0,0
133656,-100,4,2,0,85,0,0
134776,-100,4,2,0,85,0,1
134832,-100,4,2,0,85,0,0
151343,-100,4,2,0,70,0,0
155373,-100,4,2,0,50,0,0
155597,-100,4,2,0,70,0,0
158955,-100,4,2,0,50,0,0
159179,-100,4,2,0,70,0,0
159402,-100,4,2,1,50,0,0
160074,-100,4,2,0,70,0,0
168134,-100,4,2,0,100,0,1
195895,-100,4,2,0,80,0,0
200149,-100,4,2,0,60,0,0
200373,-100,4,2,0,80,0,0
202164,-100,4,2,0,60,0,0
202388,-100,4,2,0,80,0,0
203283,-100,4,2,0,90,0,0
203507,-100,4,2,0,80,0,0
205074,-100,4,2,0,60,0,0
205298,-100,4,2,0,80,0,0
215373,-100,4,2,2,70,0,0
216716,-100,4,2,2,35,0,0
216940,-100,4,2,2,70,0,0
222089,-100,4,2,2,60,0,0
222537,-100,4,2,2,80,0,0
223432,-100,4,2,2,40,0,0
223656,-100,4,2,2,80,0,0
225671,-100,4,2,1,70,0,0
225895,-100,4,2,2,80,0,0
227014,-100,4,2,2,50,0,0
227238,-100,4,2,2,80,0,0
227462,-100,4,2,2,65,0,0
227910,-100,4,2,2,80,0,0
228134,-100,4,2,2,70,0,0
228358,-100,4,2,2,80,0,0
228582,-100,4,2,2,65,0,0
228805,-100,4,2,2,80,0,0
229253,-100,4,2,2,70,0,0
229477,-100,4,2,2,80,0,0
230597,-100,4,2,2,50,0,0
230820,-100,4,2,2,70,0,0
232611,-100,4,2,1,80,0,0
239104,-100,4,2,1,60,0,0
239216,-100,4,2,1,80,0,0
239328,-100,4,2,0,90,0,0
243358,-100,4,2,0,100,0,1
272014,-100,4,2,0,80,0,0
286567,-100,4,2,0,50,0,0
292320,447.761194029851,4,2,0,50,1,0

[Colours]
Combo1 : 84,140,203
Combo2 : 236,160,104
Combo3 : 100,206,108
Combo4 : 209,92,99

[HitObjects]
40,40,0,5,2
184,104,447,1,2
40,176,895,1,2
184,240,1343,1,2
184,240,1567,1,2
344,240,2014,1,2
424,240,2238,1,2
384,312,2462,1,2
392,88,3582,5,2
296,216,4029,2,0,B|272:176|272:176|224:152,2,100,2|0|2
164,308,4925,2,2,B|112:312|112:312|84:272,1,100,2|0
40,196,5373,1,0
472,196,6268,1,0
96,192,7164,6,0,B|96:136|160:112,1,100,4|0
256,72,7611,2,0,B|256:176,1,100,2|0
361,115,8059,2,0,B|416:136|416:192,1,100,2|0
344,224,8507,1,2
408,272,8731,1,4
168,224,9179,1,0
104,272,9402,1,4
96,192,9626,2,0,B|123:90|190:201|286:162|257:36|348:90,1,300
400,240,10746,5,4
256,312,11194,1,0
112,240,11641,1,0
256,192,12089,1,0
256,192,12313,1,4
256,192,12537,12,4,14328
384,120,25074,5,8
304,56,25298,1,2
256,48,25410,1,2
208,56,25522,1,2
128,120,25746,1,8
256,272,26194,2,0,B|256:376,2,100,2|2|4
56,288,27089,5,0
136,224,27313,1,2
184,216,27425,1,2
232,224,27537,1,2
304,288,27761,1,0
388,344,27985,5,2
392,244,28208,1,0
480,292,28432,1,0
480,192,28656,2,0,B|472:168|448:152|432:136|400:136,1,100,4|0
304,152,29104,2,0,B|280:200|220:204,1,100,8|0
124,188,29552,5,2
44,248,29776,1,2
104,328,30000,1,8
188,276,30223,2,0,B|240:252|292:276,1,100,0|0
392,328,30671,2,8,B|416:280|392:228,2,100,2|8|2
112,80,31567,5,0
208,40,31791,1,8
308,40,32014,1,0
400,80,32238,1,2
216,164,32686,1,8
416,192,33134,5,2
504,240,33358,1,2
424,304,33582,1,8
336,256,33805,2,0,B|312:308|256:308,1,100,0|0
108,320,34253,1,2
56,180,34477,1,8
184,100,34701,2,0,B|240:88|264:40,2,100,2|0|0
184,100,35373,5,8
188,200,35597,2,0,B|210:244|266:256,1,100,2|0
364,276,36044,1,2
476,176,36268,1,8
352,92,36492,1,2
40,344,36940,5,2
176,280,37164,1,8
48,204,37388,2,0,B|8:172|-8:116|8:60|48:28,1,200,2|2
156,132,38059,1,8
256,24,38283,1,4
256,312,38955,6,0,B|256:96,1,200,0|4
256,112,39626,1,4
160,288,40074,1,4
256,312,40298,1,0
352,288,40522,1,0
256,112,40970,2,4,B|256:248,1,100,4|8
256,212,41529,1,8
256,212,41865,1,8
432,312,42313,5,4
488,232,42537,1,0
396,192,42761,1,0
324,264,42985,2,0,B|304:316|244:320,1,100,4|0
172,252,43432,2,0,B|112:260|88:204,1,100,8|0
12,104,43880,5,0
108,48,44104,1,0
212,80,44328,1,8
284,164,44552,2,0,B|340:176|376:140,1,100,2|0
460,56,45000,1,2
504,228,45223,1,8
336,296,45447,1,2
228,80,45895,5,0
324,56,46119,1,8
400,120,46343,1,0
344,260,46567,2,0,B|309:304|250:293,1,100,2|0
128,164,47014,2,0,B|162:119|221:130,1,100,8|0
344,260,47462,6,0,B|309:304|250:293,1,100,2|0
160,352,47910,1,8
92,264,48134,2,0,B|32:272|4:224,1,100,2|0
12,104,48582,1,2
192,16,48805,1,8
376,96,49029,1,2
256,304,49477,5,2
256,304,49701,1,8
152,304,49925,2,0,B|40:304,2,100,4|0|0
152,192,50597,2,0,B|80:120,1,100,8|0
208,136,51044,2,0,B|136:64,1,100,2|0
40,40,51492,1,8
40,40,51716,2,0,B|110:110,1,100,4|0
208,136,52164,1,2
216,40,52388,2,0,B|320:40,1,100,8|4
456,304,53283,5,0
352,304,53507,2,0,B|248:304,1,100,2|4
48,304,54179,2,0,B|146:306,1,100,8|0
216,232,54626,1,2
120,224,54850,2,0,B|182:145,1,100,2|8
56,176,55298,2,0,B|118:97,1,100,4|0
208,64,55746,1,2
296,104,55970,2,2,B|344:120|376:168,1,100,8|0
440,276,56417,5,0
320,328,56641,1,0
192,328,56864,1,0
72,276,57089,1,4
256,192,57537,5,8
256,192,57761,1,8
408,64,58208,5,2
256,192,58432,1,2
224,24,58656,1,2
408,64,58880,1,4
256,192,59328,5,8
256,192,59552,1,8
408,64,60000,5,0
496,120,60223,2,0,B|496:268,1,149.999995529652,2|2
400,320,60895,2,0,B|257:367|105:319,1,300,2|0
160,232,61791,1,2
256,216,62014,2,0,B|256:112,1,100,2|0
160,56,62462,2,0,B|256:8|352:56,1,200,2|0
452,56,63134,1,4
472,344,63805,5,2
368,344,64029,1,8
264,344,64253,2,2,B|160:344,1,100,2|0
64,336,64701,1,0
0,260,64925,1,2
0,160,65148,1,0
72,92,65372,1,2
308,96,65820,5,2
204,96,66044,1,2
160,288,66492,2,0,B|256:312|360:288,1,200,2|0
400,200,67164,5,2
256,152,67500,1,2
112,200,67835,2,0,B|160:200|160:200|132:136|152:56|240:32|296:64,1,300,2|8
256,152,68731,5,0
328,224,68955,2,2,B|344:204|376:216|400:232|424:200,2,100,4|2|0
256,296,69626,1,4
152,296,69850,1,0
56,272,70074,1,2
128,208,70298,1,2
128,208,70522,2,4,B|24:144,1,100,4|0
104,80,70970,2,4,B|192:128,1,100,4|8
288,128,71417,6,2,B|392:128|328:256|328:288|416:280,1,200,4|2
472,280,72089,1,2
272,320,72537,1,2
168,320,72761,2,2,B|40:320,1,100,2|0
68,320,73208,1,4
160,56,73880,5,4
256,24,74104,1,0
352,52,74328,1,0
256,192,74776,1,2
256,192,75000,1,4
56,136,75895,5,2
140,52,76119,1,2
256,24,76343,1,2
372,52,76567,1,2
456,136,76791,1,4
328,344,77238,1,0
180,344,77462,1,8
168,104,77910,5,0
256,152,78134,1,0
344,104,78358,1,8
389,246,78582,2,2,B|344:304|257:324|168:304|120:244,1,300,2|8
256,72,79701,6,0,B|256:184,1,100,2|0
352,224,80149,1,8
352,224,80373,2,2,B|304:248|200:248|152:224,1,200,2|0
88,144,81044,2,8,B|112:96|160:72,1,100,8|0
264,56,81492,5,2
384,68,81716,1,0
480,140,81940,1,8
504,256,82164,1,2
276,332,82611,1,0
124,332,82835,1,8
340,60,83507,5,0
244,32,83731,1,8
144,40,83955,2,0,B|120:44|100:60|80:76|72:104,1,100,0|0
44,200,84402,1,0
92,288,84626,1,8
308,260,85074,5,0
368,340,85298,1,0
464,304,85522,1,8
404,224,85746,2,2,B|504:168|472:52,1,200,4|0
473,54,86417,1,8
276,16,86641,2,2,B|176:72|208:188,1,200,4|2
207,186,87313,1,0
320,352,87537,5,0
424,244,87761,1,4
188,352,88208,1,0
84,244,88432,1,4
196,64,88880,5,0
316,64,89104,1,2
352,176,89328,2,4,B|256:224|160:176,1,200,4|0
56,272,90224,5,2
148,348,90448,1,2
260,300,90672,1,2
368,352,90896,1,2
456,272,91120,1,4
332,68,91567,1,0
180,64,91791,1,8
168,280,92238,5,2
256,240,92462,1,0
344,280,92686,1,8
388,136,92910,2,2,B|343:78|256:58|167:78|119:138,1,300,2|8
312,200,94029,5,2
388,136,94253,1,0
468,196,94477,1,8
436,292,94701,2,0,B|368:372|252:328,1,200,2|0
156,352,95373,2,2,B|112:324|116:256,1,100,8|0
16,252,95820,5,2
60,160,96044,1,0
160,152,96268,1,8
220,232,96492,1,2
384,336,96940,1,0
452,204,97164,1,8
36,56,97835,5,0
152,136,98059,1,0
256,44,98283,1,4
476,56,98731,5,0
360,136,98955,1,0
256,44,99179,1,4
156,324,99626,5,0
352,324,99850,1,0
256,192,100074,1,4
256,192,100746,1,4
108,72,101194,5,2
204,40,101417,1,0
308,40,101641,1,0
404,72,101865,1,2
472,260,102313,5,0
400,328,102537,1,0
304,356,102761,1,0
208,356,102985,1,0
112,328,103208,1,0
40,260,103432,1,0
40,260,103544,1,0
40,260,103656,1,2
200,152,104104,5,0
312,152,104328,1,0
256,240,104552,1,4
168,132,111492,5,2
260,248,111716,1,0
348,128,111940,1,2
476,152,119328,5,0
388,200,119552,1,0
320,128,119776,1,0
404,72,120000,2,0,B|376:32|316:28,1,100,4|0
236,84,120447,2,0,B|200:124|144:108,1,100,2|0
56,60,120895,5,2
0,164,121119,1,0
76,260,121343,1,2
196,244,121567,1,0
284,20,122014,2,0,B|204:84,1,100,2|0
131,150,122462,1,2
56,152,122910,5,0
128,76,123134,1,0
204,148,123358,1,0
137,226,123582,2,0,B|177:266|233:262,1,100,2|0
320,232,124029,2,0,B|356:195|411:199,1,100,2|0
460,308,124477,6,0,B|420:348|364:344,1,100,2|0
320,232,124925,2,0,B|265:235|229:198,1,100,2|2
40,96,125597,2,0,B|56:44|112:24,1,100,2|0
106,26,126044,1,2
360,192,126716,6,0,B|260:192,1,100,0|0
228,192,127052,1,0
196,192,127164,1,0
144,68,127388,1,2
252,20,127611,1,0
364,68,127835,1,2
376,336,128283,5,0
252,360,128507,1,0
144,316,128731,1,2
40,256,128955,2,0,B|36:204|36:204|60:164,1,100,0|0
248,60,129402,1,2
436,160,129626,1,2
436,332,129850,6,0,B|388:332,3,50
386,332,130298,2,0,B|362:288|318:260,1,100,0|0
200,240,130746,2,0,B|188:262|164:275,1,50,4|0
257,180,130970,2,0,B|280:166|291:143,1,50,4|0
56,184,131417,1,4
92,60,131641,1,0
220,80,131865,2,0,B|276:72|296:24,1,100,0|0
296,23,132313,1,4
208,332,132761,5,2
256,344,132873,1,0
304,332,132985,1,0
256,192,133208,1,2
444,124,133656,6,0,B|455:78|507:50,2,100,2|0|0
396,212,134328,1,2
396,212,134440,1,0
396,212,134552,1,0
116,212,134776,2,0,B|164:232|216:212,1,100,12|0
244,120,135223,1,0
144,112,135447,2,0,B|88:112|60:64,2,100,0|8|2
220,340,136343,1,2
412,288,136567,1,8
384,88,136791,1,2
144,112,137238,6,0,B|88:112|60:160,2,100,0|8|0
212,248,137910,2,0,B|188:300|212:352,1,100,2|0
356,304,138358,2,0,B|416:296|432:248,1,100,8|0
416,148,138805,1,2
328,200,139029,2,0,B|296:156|328:104,2,100,0|8|2
328,200,139925,1,2
352,20,140149,1,8
184,88,140373,1,2
36,232,140820,5,2
96,336,141044,1,8
168,240,141268,2,0,B|196:288|260:288,1,100,4|0
392,336,141716,1,0
432,192,141940,1,8
324,48,142276,5,0
324,48,142388,2,0,B|272:72|268:140,1,100,2|0
272,244,142835,1,8
152,228,143059,2,0,B|97:225|73:173,1,100,4|0
272,244,143507,2,0,B|328:244|376:288,2,100,2|8|4
324,48,144626,5,0
324,48,144850,2,0,B|380:52|416:88,1,100,2|4
188,336,145522,2,0,B|132:332|97:297,1,100,8|0
8,176,145970,1,2
148,236,146194,1,0
276,32,146641,5,4
348,324,147089,2,0,B|404:316|432:276,1,100,2|8
168,56,147761,2,0,B|112:64|84:104,1,100
172,240,148208,2,0,B|228:232|256:192,1,100,0|4
256,192,148880,5,8
256,192,149104,1,8
408,320,149552,5,2
256,192,149776,1,2
224,360,150000,1,2
408,320,150224,1,4
256,192,150671,5,8
256,192,150895,1,8
104,320,151343,5,0
152,232,151567,2,0,B|144:196|84:212|88:160,2,100,2|0|2
200,336,152238,1,2
304,348,152462,1,0
412,320,152686,1,0
480,228,152910,1,0
456,112,153134,1,2
352,44,153358,1,2
220,48,153582,1,0
136,152,153805,2,0,B|248:148|324:216,1,200,2|0
412,320,154477,1,4
212,320,154925,6,0,B|184:276|212:220,1,100,0|2
312,232,155373,2,0,B|340:188|312:132,2,100,8|2|0
212,320,156044,1,0
100,320,156268,1,2
8,244,156492,1,0
4,116,156716,1,2
116,32,156940,1,0
264,48,157164,1,2
288,208,157388,2,0,B|336:196|392:220,1,100,2|0
228,152,157835,2,0,B|180:164|124:140,1,100,2|0
88,340,158507,6,0,B|132:364,1,50,2|0
232,376,158843,2,0,B|284:376,1,50,2|8
380,356,159179,2,0,B|412:316|396:256,1,100,2|8
232,156,159850,6,0,B|200:116|216:56,1,100,8|0
316,172,160298,2,0,B|344:132|408:116,2,100,4|2|0
172,220,160970,2,0,B|120:236|76:192,1,100,4|0
100,100,161417,1,2
188,52,161641,1,2
376,84,161865,2,0,B|324:90|280:62,1,100,4|0
240,196,162313,2,0,B|291:189|335:217,1,100,4|0
448,300,162761,6,0,B|428:352|360:348,1,100,2|4
108,340,163432,1,2
8,220,163768,2,0,B|4:140|72:92,1,150,0|2
256,24,164552,1,4
372,332,165223,5,4
256,360,165447,1,0
140,332,165671,1,0
256,192,166119,1,2
256,192,166343,1,4
168,348,167238,5,2
168,348,167350,1,0
168,348,167462,2,0,B|212:380|268:356,1,100,2|2
384,352,167910,1,2
476,276,168134,1,4
312,28,168582,2,0,B|264:8|208:24,1,100,0|8
36,184,169253,5,0
148,224,169477,1,0
236,144,169701,1,8
352,172,169925,2,0,B|388:136|444:136,2,100,2|0|0
300,280,170597,1,8
40,296,171044,5,2
152,212,171268,1,0
176,348,171492,1,8
300,280,171716,2,0,B|356:288|392:254,1,100,2|0
344,112,172164,1,0
512,160,172388,1,8
420,336,172611,5,0
420,336,172723,1,0
420,336,172835,2,0,B|368:352|320:328,1,100,2|0
196,360,173283,1,8
128,236,173507,2,0,B|152:188|200:172,1,100,2|0
344,112,173955,1,0
184,28,174179,1,8
76,344,174626,6,0,B|124:364|176:344,1,100
272,272,175074,1,8
384,356,175298,2,0,B|448:364|468:312,1,100,0|0
496,168,175746,1,0
356,88,175970,1,8
272,272,176194,5,0
272,272,176305,1,0
272,272,176417,2,0,B|224:292|176:244,1,100
32,220,176865,1,8
132,76,177089,2,0,B|164:32|220:28,2,100,4|0|0
32,220,177761,1,8
164,328,177985,2,0,B|220:316|260:340,1,100,2|0
240,224,178432,2,0,B|296:236|336:212,1,100,2|0
261,341,178880,5,0
140,248,179104,2,0,B|88:232|40:264,1,100,4|0
160,164,179552,1,0
296,100,179776,2,0,B|348:116|396:84,1,100,4|0
240,36,180223,5,0
116,152,180447,1,2
292,200,180671,2,0,B|308:252|368:272|428:248|428:248|440:288,1,200,4|0
128,296,181567,5,2
128,296,181679,1,0
128,296,181791,2,0,B|96:252|120:196,1,100,2|2
260,248,182238,1,2
400,104,182462,1,4
168,36,182910,2,0,B|200:80|176:136,1,100,0|8
12,200,183470,6,0,B|12:252,1,50
152,244,183805,1,0
72,360,184029,1,8
212,356,184253,2,0,B|264:384|316:360,2,100,2|0|0
252,180,184925,1,8
28,96,185373,5,2
148,28,185597,1,0
252,120,185820,1,8
372,32,186044,2,0,B|424:24|472:40,1,100,2|0
420,184,186492,1,0
472,324,186716,2,0,B|420:332|372:316,1,100,8|0
240,360,187164,5,2
108,360,187388,1,0
16,272,187611,1,8
24,144,187835,2,0,B|52:96|108:84,1,100,2|0
256,160,188283,1,0
384,48,188507,1,8
108,360,189179,5,0
256,340,189402,1,0
384,260,189626,2,0,B|436:240|448:184,1,100,4|0
384,48,190074,5,0
236,68,190297,1,0
92,116,190521,2,0,B|40:136|28:192,1,100,4|0
204,272,190970,5,0
324,184,191194,1,0
384,48,191417,1,4
384,336,192089,1,4
124,344,192537,6,0,B|184:352|212:308,1,100,2|0
344,236,192985,1,0
208,176,193208,1,2
8,48,193656,5,0
120,112,193880,1,0
232,48,194104,1,0
344,112,194328,1,0
464,60,194552,2,0,B|435:92|443:124|479:148|515:172|523:204|495:236,1,200,0|2
236,252,195447,5,0
336,252,195671,1,0
288,340,195895,1,4
92,280,196343,6,0,B|72:312|72:312|36:320|36:320|16:348,2,100,2|2|0
71,133,197014,2,0,B|39:97|53:40,1,100,2|0
216,192,197462,2,0,B|248:152|308:156,1,100,2|0
460,240,197910,1,2
342,359,198134,5,0
317,357,198246,1,0
292,352,198358,2,0,B|264:304|288:256,1,100,2|2
420,140,198805,1,0
244,48,199029,6,0,B|272:96|248:144,1,100,2|0
116,260,199477,2,0,B|64:288,2,50,2|0|2
292,352,199925,2,0,B|341:372|395:349,2,100,0|4|2
388,236,200597,6,0,B|440:216|444:156,1,100,2|0
224,124,201044,2,0,B|205:76|145:64,1,100,2|0
112,236,201492,1,4
228,359,201716,5,0
252,353,201828,1,0
276,348,201940,2,0,B|328:336|328:336|352:296,1,100,2|4
264,144,202388,1,0
68,112,202611,6,0,B|88:60|144:52,1,100,4|0
264,144,203059,1,2
460,172,203283,2,0,B|440:224|384:232,1,100,2|4
264,144,203731,1,2
146,257,203955,5,4
156,281,204067,1,0
160,306,204179,2,0,B|132:354|76:354,2,100,4|0|2
256,192,204850,1,0
352,76,205074,2,0,B|380:28|436:28,2,100,4|0|2
352,76,205746,1,2
154,59,206194,5,4
240,216,206417,1,0
352,76,206641,1,4
156,132,215373,6,0,B|208:144|256:128,1,100,2|0
332,192,215820,2,0,B|340:256|300:280,2,100,2|2|0
380,80,216492,2,0,B|428:60|475:88,1,100,2|2
379,79,216940,2,0,B|343:36|292:38,1,100,2|0
164,128,217388,6,0,B|200:171|251:169,1,100,2|0
348,140,217835,1,2
460,180,218059,2,0,B|488:232|464:288,1,100,2|0
320,252,218507,2,0,B|324:304,2,50,2|0|0
320,252,218955,5,0
184,280,219179,2,0,B|156:228|175:183,1,100,2|0
256,56,219626,1,0
424,304,220074,1,2
88,300,220522,2,0,B|140:253|180:291|221:328|274:283,1,200,2|0
428,192,221194,1,0
84,192,222089,1,4
164,376,222537,6,0,B|216:356|228:296,1,100,2|0
236,204,222985,1,2
164,376,223208,2,0,B|112:356|100:296,1,100,2|8
236,204,223656,2,0,B|272:180|300:220|332:184,2,100,2|0|0
164,72,224328,6,0,B|108:80|76:116,1,100,2|0
104,264,224776,2,0,B|160:256|192:220,1,100,2|0
28,248,225223,2,0,B|20:312|68:336,1,100,2|0
220,328,225671,5,8
336,296,225895,1,0
404,196,226119,2,0,B|456:180|504:206,1,100,0|0
403,196,226567,2,0,B|351:212|302:187,1,100,0|2
501,204,227014,5,8
432,300,227238,2,0,B|332:316,1,100,2|4
92,308,227910,1,2
192,180,228134,2,0,B|245:264,1,100,4|0
96,208,228582,2,0,B|117:110,1,100,4|0
192,180,229029,6,0,B|248:184|284:140,1,100,0|4
220,64,229477,2,0,B|252:23|308:27,2,100
220,320,230149,1,4
220,320,230597,5,8
192,180,230820,2,0,B|140:168|92:184,1,100,4|0
28,260,231268,1,2
92,336,231492,1,2
244,248,231716,2,0,B|308:284,2,50,4|0|0
224,88,232164,6,0,B|136:36,2,100,4|2|4
224,88,232835,1,0
384,72,233059,2,0,B|379:125|328:160,1,100,2|8
308,200,233395,2,0,B|308:232|336:244,1,50,0|2
428,316,233731,5,0
480,228,233955,2,0,B|504:184|476:124,1,100,2|8
332,243,234402,2,0,B|230:243,2,100,4|0|0
176,196,235074,2,0,B|152:224|152:260|176:288,1,100,8|0
84,276,235522,5,2
184,372,235746,1,0
84,276,235970,1,8
260,248,236194,2,0,B|318:233|326:181,1,100,4|0
84,276,236865,5,8
60,180,237089,2,0,B|63:127|125:105,1,100,2|0
224,184,237537,2,0,B|176:216|130:178,1,100,2|8
300,184,237985,2,0,B|297:237|235:259,2,100,4|0|0
180,64,238656,1,8
472,348,239104,5,8
472,348,239216,1,0
472,348,239328,2,0,B|420:368|376:328,1,100,4|0
256,192,239776,12,0,241791
456,292,242462,5,2
456,292,242574,1,0
456,292,242686,2,0,B|376:248|376:248|312:268|272:216,1,200,2|2
176,112,243358,2,0,B|131:93|76:112,2,100,4|0|0
148,252,244029,2,0,B|200:236|212:180,1,100,8|0
228,32,244477,5,0
308,92,244701,1,0
336,188,244925,1,8
232,296,245149,2,0,B|116:292|84:168,1,200,2|0
232,296,245820,2,0,B|332:296,1,100,8|0
264,184,246268,6,0,B|204:188|168:156,1,100,2|0
148,60,246716,1,8
320,120,246940,2,0,B|353:89|413:93,2,100,2|0|0
324,252,247611,2,0,B|357:282|417:278,1,100,8|0
448,184,248059,5,2
508,264,248283,1,0
472,360,248507,1,8
324,304,248731,2,0,B|424:276,1,100,2|0
324,304,249178,1,0
144,284,249402,2,0,B|216:212,1,100,8|0
144,284,249850,1,0
328,208,250074,5,0
268,128,250298,1,8
168,108,250522,2,0,B|112:104|80:152,1,100,0|0
44,244,250970,1,0
196,364,251194,2,0,B|140:368|108:320,1,100,8|0
81,149,251641,5,0
272,128,251865,1,0
196,292,252089,1,8
184,200,252313,2,0,B|248:224|336:200|360:140,1,200,4|0
432,212,252985,1,8
356,280,253208,2,0,B|296:264|264:308,1,100,2|0
376,352,253656,2,0,B|436:368|468:324,1,100,2|0
376,352,254104,5,0
432,212,254328,2,0,B|448:160|500:144,1,100,4|0
356,280,254776,1,0
220,220,255000,2,0,B|176:200|120:216,1,100,4|0
188,80,255447,5,0
324,80,255671,1,2
220,200,255895,2,0,B|172:224,2,50,4|0|0
312,256,256343,2,0,B|360:280,2,50,0|0|0
200,344,256791,5,2
200,344,256903,1,0
200,344,257014,2,0,B|152:304|104:328|104:328|120:276|116:232,1,200,2|2
108,76,257687,2,0,B|76:24|16:24,2,100,4|0|0
212,216,258358,2,0,B|162:216|130:164,1,100,8|0
184,28,258806,5,0
272,72,259030,1,0
364,28,259254,1,8
388,176,259478,2,0,B|440:160|460:96,1,100,2|0
272,72,259925,1,0
164,176,260149,2,0,B|112:160|92:96,1,100,8|0
272,72,260597,6,0,B|272:184,1,100,2|0
272,276,261045,1,8
120,256,261268,2,0,B|72:280|20:256,2,100,2|0|0
80,140,261940,2,0,B|96:89|150:69,1,100,8|0
228,132,262388,5,2
348,116,262612,1,0
428,28,262836,1,8
424,208,263060,2,0,B|444:264|400:300,1,100,2|0
348,116,263507,1,0
340,256,263731,2,0,B|284:276|244:236,1,100,8|0
424,208,264179,1,0
280,104,264403,5,0
172,152,264627,1,0
100,60,264851,2,0,B|56:36|0:52,1,100,4|0
60,204,265299,5,0
172,152,265522,1,0
232,256,265746,2,0,B|276:280|332:264,1,100,4|0
400,120,266194,5,0
476,212,266417,1,0
424,320,266641,2,0,B|456:364|516:360,2,100,4|0|0
284,216,267313,2,0,B|338:213|370:257,1,100,4|0
312,340,267761,5,2
224,292,267985,1,0
140,344,268208,1,0
312,340,268432,1,2
256,192,268880,12,2,270223
256,192,270671,5,0
332,60,270895,1,0
180,60,271119,1,4
352,200,272014,5,2
352,200,272126,1,2
352,200,272238,2,0,B|304:200|256:176|256:176|208:200|160:200,1,200,4|0
208,344,273022,5,2
168,344,273134,1,2
128,344,273246,2,0,B|64:360|48:304,1,100,2|0
52,156,273805,2,0,B|20:116|20:116|52:76,1,100,4|0
144,48,274253,5,0
184,40,274365,1,0
224,40,274477,1,0
324,40,274701,1,2
400,108,274925,1,2
320,168,275149,1,2
224,168,275372,5,0
184,168,275484,1,0
144,160,275596,1,0
80,240,275820,1,2
156,308,276044,2,2,B|156:356,2,50,2|0|2
352,80,276940,5,2
264,124,277164,1,2
256,164,277275,1,0
264,204,277388,1,4
348,256,277611,1,0
436,308,277835,5,0
348,356,278059,1,2
248,360,278283,1,0
152,332,278507,1,2
64,212,278843,1,2
212,208,279178,2,0,B|324:208,1,100,0|4
384,20,279850,5,2
480,136,280186,1,2
488,176,280298,1,2
488,216,280410,2,0,B|504:272|448:304,1,100,2|0
304,312,280970,6,0,B|184:312,1,100,4|0
108,276,281417,1,0
124,236,281529,1,0
108,196,281641,1,0
20,144,281865,1,2
80,64,282089,1,2
180,48,282313,1,0
280,48,282537,5,0
320,48,282649,1,0
360,56,282761,1,0
404,144,282984,1,4
332,212,283208,1,2
292,220,283320,1,2
252,220,283432,1,2
164,268,283656,1,4
352,352,284104,5,0
440,304,284328,1,0
456,204,284552,1,4
288,96,284999,5,0
192,56,285223,1,2
144,80,285335,1,2
120,128,285447,1,2
160,216,285671,2,2,B|208:216|208:216|256:192,1,100,0|4
255,193,286343,1,4
256,192,286567,12,2,292320
