osu file format v9

[General]
AudioFilename: Song.mp3
AudioLeadIn: 2500
PreviewTime: 167126
Countdown: 0
SampleSet: Soft
StackLeniency: 0.7
Mode: 0
LetterboxInBreaks: 1

[Editor]
DistanceSpacing: 1
BeatDivisor: 4
GridSize: 4

[Metadata]
Title:Himitsujikake no apple
Artist:Sakakibara Yui
Creator:merchat7
Version:Easy
Source:Kimi to Boku to Eden no Ringo
Tags:ALMA hentai game eroge yuri visual novel opening full ver version astom DarknessAngel

[Difficulty]
HPDrainRate:2
CircleSize:3
OverallDifficulty:1
ApproachRate:2
SliderMultiplier:1.2
SliderTickRate:1

[Events]
//Background and Video events
0,0,"background.jpg"
//Break Periods
2,14528,25529
2,104751,109932
2,112139,117768
2,206841,213813
//Storyboard Layer 0 (Background)
//Storyboard Layer 1 (Fail)
//Storyboard Layer 2 (Pass)
//Storyboard Layer 3 (Foreground)
//Storyboard Sound Samples
//Background Colour Transformations
3,100,163,162,255

[TimingPoints]
0,447.761194029851,4,2,2,70,1,0
8731,-100,4,1,1,75,0,0
10522,-100,4,2,2,75,0,0
12313,-100,4,1,1,75,0,0
12537,-100,4,1,0,50,0,0
14328,-100,4,2,0,75,0,0
26865,-100,4,2,0,70,0,0
39850,-100,4,2,1,70,0,0
42985,-100,4,2,1,75,0,0
60111,-100,4,2,0,70,0,0
75111,-100,4,2,0,5,0,0
76791,-100,4,2,1,75,0,1
89552,-100,4,2,1,50,0,1
91119,-100,4,2,1,75,0,1
104552,-100,4,2,1,75,0,0
119328,-100,4,2,2,65,0,0
120000,-100,4,2,2,55,0,0
120447,-100,4,2,2,65,0,0
126716,-100,4,2,0,65,0,0
130298,-100,4,2,0,70,0,0
131194,-100,4,2,1,70,0,0
134328,-100,4,2,1,75,0,0
134776,-100,4,2,1,75,0,1
134832,-100,4,2,1,75,0,0
151455,-100,4,2,0,70,0,0
166455,-100,4,2,0,5,0,0
168134,-100,4,2,1,75,0,1
180895,-100,4,2,1,50,0,1
182462,-100,4,2,1,75,0,1
195447,-100,4,2,1,50,0,1
197014,-100,4,2,1,70,0,0
200149,-100,4,2,1,40,0,0
200597,-100,4,2,1,70,0,0
201492,-100,4,2,1,40,0,0
201940,-100,4,2,1,70,0,0
205074,-100,4,2,1,40,0,0
205522,-100,4,2,1,70,0,0
215373,-100,4,2,2,65,0,0
219402,-100,4,2,2,30,0,0
219626,-100,4,2,2,65,0,0
222089,-100,4,2,2,60,0,0
222537,-100,4,2,2,75,0,0
223432,-100,4,2,2,40,0,0
223880,-100,4,2,2,75,0,0
225671,-100,4,2,2,65,0,0
225895,-100,4,2,2,75,0,0
227462,-100,4,2,2,65,0,0
230149,-100,4,2,2,75,0,0
230820,-100,4,2,2,65,0,0
232611,-100,4,2,2,75,0,0
239328,-100,4,2,2,80,0,0
239776,-100,4,2,0,50,0,0
241791,-100,4,2,0,75,0,0
243358,-100,4,2,1,75,0,1
256119,-100,4,2,1,50,0,1
257686,-100,4,2,1,75,0,1
270671,-100,4,2,1,50,0,1
272238,-100,4,2,1,70,0,0
286567,-100,4,2,0,50,0,0
292320,447.761194029851,4,2,0,50,1,0

[Colours]
Combo1 : 84,140,203
Combo2 : 236,160,104
Combo3 : 100,206,108
Combo4 : 209,92,99

[HitObjects]
88,320,0,1,4
64,204,447,2,0,B|136:188|192:248,1,120,2|2
196,116,1343,2,0,B|264:76,1,60,2|2
284,200,2014,2,0,B|348:220,2,60,2|2|2
72,48,3582,5,2
16,156,4029,2,0,B|76:192|132:152,1,120,2|2
200,56,4925,2,0,B|256:24,2,60,2|0|0
232,296,6268,1,0
468,336,7164,6,0,B|440:276|364:272,1,120,4|2
452,180,8059,1,2
332,164,8507,2,0,B|288:104,1,60,2|0
412,76,9179,1,0
412,76,9626,1,4
256,332,10746,6,0,B|216:284|136:296,2,120,4|2|2
244,212,12089,2,0,B|208:148,1,60,2|0
256,192,12537,12,4,14328
256,192,27089,12,4,28656
200,224,29104,6,0,B|232:284|304:276,2,120,8|0|8
96,288,30447,1,2
84,168,30895,2,0,B|132:136|144:64,1,120,8|0
256,112,31791,5,8
200,216,32238,2,0,B|264:260|320:208,1,120,4|8
384,120,33134,2,0,B|448:160|424:248,1,120,2|8
372,328,34029,2,0,B|296:368|216:368|140:328,1,240,2|0
24,356,35373,6,0,B|88:308|52:228,1,120,8|2
176,224,36268,1,8
96,136,36716,2,0,B|152:80|236:120,1,120,0|8
176,224,37611,2,0,B|236:240|256:308|256:308|272:240|344:220,1,240,2|0
256,132,38955,5,2
256,132,39402,1,4
256,312,40074,2,0,B|300:356,2,60,8|2|2
168,228,40970,1,8
496,192,42313,6,0,B|456:124|408:264|336:192,1,180,8|4
256,284,43432,1,8
152,340,43880,2,0,B|108:276|160:220,1,120,2|8
252,164,44776,1,2
196,56,45223,2,0,B|260:12|316:64,2,120,8|2|8
148,168,46567,5,4
44,224,47014,2,0,B|68:284|136:292,1,120,8|2
244,236,47910,2,0,B|300:208,1,60,8|2
348,320,48582,2,0,B|412:368,2,60,2|8|2
428,228,49477,6,0,B|492:180,2,60,2|8|4
312,204,50373,2,0,B|252:176,1,60,2|8
200,284,51044,6,0,B|144:264|132:200|132:200|56:172,1,180,2|4
124,68,52164,1,4
216,144,52611,1,6
256,320,53283,6,0,B|312:264|312:376|364:312,2,120,8|4|8
212,208,54626,1,2
332,220,55074,2,0,B|388:164,1,60,8|4
280,104,55746,2,0,B|248:52,1,60,8|4
56,284,57089,6,0,B|84:184|208:188,1,180,8|2
296,248,58208,2,0,B|364:212,1,60,2|8
300,108,58880,1,8
420,116,59328,2,0,B|480:176,1,60,8|4
352,208,60000,6,0,B|316:292|204:292|164:208,1,240,10|4
48,236,61343,2,0,B|96:192|76:108,1,120,8|0
192,84,62238,1,8
256,184,62686,2,0,B|264:108|344:76,2,120,2|8|0
376,196,64029,5,8
496,184,64477,2,0,B|488:108|408:76,2,120,2|8|0
431,285,65820,2,0,B|371:329|311:277,2,120,8|2|8
376,180,67164,6,0,B|320:124|320:236|268:172,2,120,2|8|2
252,48,68731,6,0,B|228:120,1,60,0|4
132,168,69402,2,0,B|136:236,1,60,8|4
256,236,70074,2,0,B|308:288,2,60,2|8|4
356,172,70970,2,0,B|320:96|240:112|240:112|228:68,1,180,2|4
120,40,72089,6,0,B|96:104|28:128,1,120,8|0
140,192,72985,2,0,B|124:276,1,60,8|4
308,272,73880,6,0,B|336:208|428:212,1,120,4|2
348,108,74776,2,0,B|412:68,1,60,4|2
256,192,75223,12,4,76791
256,192,77462,5,8
164,272,77910,2,0,B|204:328|276:312,1,120,2|8
364,240,78805,2,0,B|428:192,2,60,2|2|8
344,120,79701,6,0,B|280:144|232:100,1,120,2|8
124,48,80597,2,0,B|160:104|120:160,1,120,4|8
28,236,81492,2,0,B|4:296,2,60,2|0|8
144,272,82388,2,0,B|216:300,2,60,2|0|8
216,176,83283,6,0,B|256:116|340:136,1,120,2|8
428,76,84179,1,4
412,196,84626,2,0,B|392:260|440:308,1,120,8|0
320,308,85522,6,0,B|264:356,1,60,8|4
124,248,86417,2,0,B|48:248,1,60,8|4
98,132,87089,2,0,B|62:56,1,60,4|8
192,64,87761,6,0,B|288:144,2,120,4|8|0
160,180,89104,2,0,B|132:252,1,60,8|4
256,192,89552,12,6,91119
256,192,91567,6,0,B|256:260,1,60,8|8
372,228,92238,2,0,B|500:296,2,120,2|8|0
348,108,93582,1,8
228,88,94029,6,0,B|216:160|268:204,1,120,0|8
140,200,94925,2,0,B|152:272|100:316,1,120,4|8
228,308,95820,1,0
228,308,96268,2,0,B|228:228|348:180|404:272,1,240,8|8
428,92,97835,6,0,B|452:168,2,60,0|8|4
328,156,98731,2,0,B|272:216,2,60,0|8|4
216,112,99626,2,0,B|148:68,2,60,8|8|4
96,248,100746,1,4
172,340,101194,6,0,B|240:280|248:392|356:324,1,180
380,220,102313,2,0,B|360:112|256:72|152:112|132:220,1,360,2|2
256,216,104104,2,0,B|256:280,2,60,0|0|4
200,192,111492,6,0,B|256:157|312:192,1,120,2|2
84,116,119328,6,0,B|152:124|196:88|196:88|256:88,1,180,0|4
376,88,120447,1,2
484,144,120895,2,0,B|516:196|496:280|436:292,1,180,0|2
316,288,122014,2,0,B|316:356,2,60,2|0|2
396,200,122910,6,0,B|304:160|224:208,1,180,0|2
204,328,124029,2,0,B|143:353|84:328,1,120,2|0
56,216,124925,2,0,B|24:164,1,60,2|2
116,88,125596,2,0,B|144:36,2,60,0|2|2
148,264,126716,6,0,B|252:200,1,120,0|2
356,260,127611,2,0,B|356:200,1,60,2|0
460,144,128283,2,0,B|356:80,1,120,0|2
180,64,129402,2,0,B|180:132,1,60,2|4
256,288,130298,5,2
256,288,130745,1,4
76,276,131417,2,0,B|24:312,2,60,8|2|2
180,216,132313,1,8
500,52,133656,6,0,B|456:40|428:88|428:88|392:40|344:64,1,180,8|0
224,76,134775,1,12
104,72,135223,2,0,B|44:104|60:172,1,120,0|8
84,292,136119,1,2
204,312,136566,2,0,B|268:356|324:304,2,120,8|2|8
164,200,137910,5,4
56,144,138357,2,0,B|80:84|148:76,1,120,8|2
256,128,139253,2,0,B|320:128,1,60,8|2
420,68,139925,2,0,B|484:20,2,60,2|8|2
420,188,140820,6,0,B|484:236,2,60,2|8|4
316,128,141716,2,0,B|256:128,1,60,2|8
140,100,142387,6,0,B|104:148|124:212|176:232|176:232|168:256,1,180,2|4
108,352,143507,1,4
228,348,143954,1,6
392,272,144626,6,0,B|460:288|496:232,2,120,8|4|8
272,272,145969,1,2
320,160,146417,2,0,B|284:108,1,60,8|4
404,84,147089,2,0,B|440:136,1,60,8|4
212,324,148432,6,0,B|193:263|137:300|81:335|61:275,1,180,8|2
12,168,149551,2,0,B|60:132,1,60,2|8
164,68,150223,1,8
280,100,150671,2,0,B|328:60,1,60,8|4
440,24,151343,6,0,B|508:100|372:172|440:248,1,240,10|4
508,344,152686,2,0,B|452:376|392:344,1,120,8|0
276,332,153581,1,8
152,344,154029,2,0,B|96:372|37:344,2,120,2|8|0
224,248,155372,5,8
152,152,155820,2,0,B|96:124|37:152,2,120,2|8|0
272,132,157163,2,0,B|308:72|272:16,2,120,8|2|8
228,244,158507,6,0,B|208:284|248:324|228:364,2,120,2|8|2
408,260,160074,6,0,B|436:208,1,60,0|4
320,184,160745,2,0,B|348:128,1,60,8|4
436,52,161417,2,0,B|492:76,2,60,2|8|4
320,16,162313,2,0,B|240:24|208:84|208:84|164:84,1,180,2|4
60,136,163432,6,0,B|92:196|64:252,1,120,8|0
8,356,164328,2,0,B|68:356,1,60,8|4
248,356,165223,6,0,B|312:360|348:300,1,120,4|2
400,192,166119,2,0,B|340:192,1,60,2|4
256,192,166566,12,4,168134
256,192,168805,5,8
356,128,169253,2,0,B|288:132|260:64,1,120,2|8
140,68,170149,2,0,B|80:68,2,60,2|2|8
262,69,171044,6,0,B|328:76|368:20,1,120,2|8
436,120,171940,2,0,B|408:192|456:232,1,120,4|8
404,340,172835,2,0,B|332:352,2,60,2|0|8
453,231,173731,2,0,B|524:221,2,60,2|0|8
332,244,174626,6,0,B|264:264|224:216,1,120,2|8
272,104,175522,1,4
152,124,175969,2,0,B|112:136|80:172|76:208,1,120,8|0
116,324,176865,6,0,B|172:372,1,60,8|4
256,208,177760,2,0,B|256:284,1,60,8|4
340,352,178432,2,0,B|385:312,1,60,4|8
484,244,179104,6,0,B|508:187|485:127,2,120,4|8|0
385,312,180447,2,0,B|340:352,1,60,8|4
256,192,180895,12,6,182462
256,192,182910,6,0,B|256:124,1,60,8|8
336,40,183581,2,0,B|400:40|448:88,2,120,2|8|0
216,40,184925,1,8
156,144,185373,6,0,B|92:136|40:176,1,120,0|8
144,236,186268,2,0,B|208:244|260:204,1,120,4|8
300,92,187163,1,0
420,112,187611,2,0,B|372:168|420:224|468:280|420:336,1,240,8|8
239,348,189179,6,0,B|215:356|179:344,2,60,0|8|4
360,348,190074,2,0,B|384:356|420:344,2,60,0|8|4
296,244,190970,2,0,B|350:209|332:134,1,120,8|4
180,42,192089,1,4
220,156,192537,6,0,B|173:175|93:167|69:91,1,180,0|0
72,216,193656,2,0,B|139:261|240:258|312:212|300:160|300:160|384:159,1,360,2|2
256,192,195447,12,4,197014
256,188,197910,5,2
204,296,198358,2,0,B|260:320|320:296,2,120,2|0|2
112,220,199701,2,0,B|104:284|32:308,1,120,2|4
20,188,200597,6,0,B|44:120|112:120|112:120|140:64|208:56,1,240,2|4
320,96,201940,2,0,B|276:144,1,60,2|4
204,232,202611,2,0,B|236:256|236:256|288:248|288:248|308:272,2,120,2|0|4
279,140,203955,2,0,B|320:96,1,60,2|4
388,196,204626,6,0,B|464:188|508:236,1,120,2|4
416,312,205522,1,0
240,356,206194,2,0,B|172:360|172:360|128:332,1,120,4|4
424,300,215373,6,0,B|364:280|304:304,1,120,2|0
200,356,216268,2,0,B|168:300,1,60,0|2
60,252,216940,1,2
116,144,217388,1,0
232,168,217835,2,0,B|328:192|400:124,1,180,0|2
292,68,218955,6,0,B|196:92|124:24,1,180,0|0
124,144,220074,1,2
240,180,220522,2,0,B|336:156|408:224,1,180,2|0
204,352,222089,1,4
116,272,222537,6,0,B|60:248|0:272,2,120,0|0|8
204,352,223880,2,0,B|252:312|236:244,1,120,0|0
140,168,224776,2,0,B|123:99|171:59,1,120,0|0
284,104,225671,2,0,B|344:104,2,60,4|0|0
104,92,226791,6,0,B|52:176|104:264,1,180,0|4
224,268,227910,2,0,B|288:268,1,60,0|4
388,204,228582,1,4
372,84,229029,1,0
372,84,229253,2,0,B|313:130|257:82|201:34|146:79,1,240,4|4
80,244,230820,6,0,B|137:274|196:244,1,120,4|0
299,183,231716,2,0,B|330:243|299:299,1,120,4|4
195,356,232611,2,0,B|143:329|79:356,2,120,4|2|0
316,364,233955,6,0,B|383:364|418:312,1,120,2|4
288,188,235074,1,2
252,72,235522,2,0,B|287:20|358:21,2,120,0|2|0
156,148,236865,6,0,B|96:148,1,60,0|4
120,264,237537,1,4
228,312,237985,2,0,B|304:260|400:300,1,180,4|0
256,192,239328,5,4
256,192,239776,12,0,241791
192,200,242462,6,0,B|316:200,2,120,2|0|4
92,136,243805,2,0,B|128:84,1,60,0|8
244,60,244477,2,0,B|312:52|356:104,1,120,2|8
436,184,245373,2,0,B|468:128,2,60,2|2|8
360,276,246268,6,0,B|292:284|248:232,1,120,2|8
172,148,247165,2,0,B|120:192|124:256,1,120,4|8
200,344,248060,2,0,B|260:344,2,60,2|0|8
124,253,248956,2,0,B|60:253,2,60,2|0|8
244,260,249851,6,0,B|192:224|256:192|204:156,1,120,2|8
88,128,250747,1,4
192,64,251194,2,0,B|256:44|304:92,1,120,8|0
404,152,252090,6,0,B|460:104,1,60,8|4
384,280,252985,2,0,B|460:280,1,60,8|4
352,356,253656,2,0,B|276:356,1,60,4|8
192,288,254329,6,0,B|136:312|72:288,2,120,4|8|0
292,224,255672,2,0,B|256:172,1,60,8|4
256,192,256120,12,6,257687
256,296,258135,6,0,B|188:296,1,60,8|8
136,192,258806,2,0,B|76:176|12:192,2,120,2|8|0
256,208,260150,1,8
352,280,260597,6,0,B|397:242|385:170,1,120,0|8
472,88,261493,2,0,B|434:42|362:54,1,120,4|8
244,68,262388,1,0
292,176,262836,2,0,B|232:180|164:172|128:112|128:112|92:156,1,240,8|8
60,332,264403,6,0,B|-4:336,2,60,0|8|4
172,288,265299,2,0,B|108:260,2,60,0|8|4
284,328,266194,2,0,B|220:348,2,60,8|8|4
116,264,267314,1,4
160,152,267762,6,0,B|236:112|336:132,1,180
428,208,268881,2,0,B|392:208|392:208|364:236|364:236|328:216|328:216|300:244|300:244|264:228|264:228|248:256|248:256|112:264,1,360,2|2
256,192,270671,12,4,272238
200,296,272686,6,0,B|256:336|320:292,1,120,8|0
256,192,273581,1,8
312,88,274029,6,0,B|256:48|192:92,2,120,0|8|0
416,28,275372,2,0,B|464:84|424:144,1,120,8|4
324,200,276268,1,8
196,328,276940,6,0,B|124:288,2,60,8|8|4
176,208,277835,2,0,B|164:132,1,60,8|8
288,148,278507,2,0,B|340:80,2,60,0|8|8
288,268,279402,6,0,B|332:320|396:296,2,120,4|8|0
388,200,280746,2,0,B|448:172,1,60,8|4
336,116,281417,2,0,B|288:56,1,60,0|8
256,180,282089,1,0
312,284,282537,6,0,B|256:328|200:284,1,120,8|4
256,112,283656,1,4
256,232,284104,2,0,B|256:304,2,60,2|8|4
156,164,284999,6,0,B|200:88|312:88|356:164,1,240,2|4
256,232,286343,1,4
256,192,286567,12,2,292320
