osu file format v9

[General]
AudioFilename: Song.mp3
AudioLeadIn: 2500
PreviewTime: 167126
Countdown: 0
SampleSet: Soft
StackLeniency: 0.7
Mode: 0
LetterboxInBreaks: 1

[Editor]
DistanceSpacing: 2
BeatDivisor: 4
GridSize: 4

[Metadata]
Title:Himitsujikake no apple
Artist:Sakakibara Yui
Creator:merchat7
Version:D.N.Angel
Source:Kimi to Boku to Eden no Ringo
Tags:ALMA hentai game eroge yuri visual novel opening full ver version astom DarknessAngel

[Difficulty]
HPDrainRate:7
CircleSize:4
OverallDifficulty:7
ApproachRate:8
SliderMultiplier:1.8
SliderTickRate:2

[Events]
//Background and Video events
0,0,"background.jpg"
//Break Periods
2,14527,27235
2,105870,118578
2,207960,214175
2,215125,221339
//Storyboard Layer 0 (Background)
//Storyboard Layer 1 (Fail)
//Storyboard Layer 2 (Pass)
//Storyboard Layer 3 (Foreground)
//Storyboard Sound Samples
//Background Colour Transformations
3,100,163,162,255

[TimingPoints]
0,447.761194029851,4,2,1,60,1,0
27985,-100,4,2,1,70,0,0
41194,-100,4,2,2,70,0,0
42313,-100,4,2,1,70,0,0
60223,-200,4,2,1,70,0,0
60895,-133.333333333333,4,2,1,50,0,0
61007,-133.333333333333,4,2,1,70,0,0
68731,-100,4,2,1,70,0,0
75223,-100,4,1,1,45,0,0
75895,-100,4,2,1,70,0,0
76791,-100,4,2,2,85,0,1
101194,-100,4,2,2,70,0,1
105000,-100,4,2,2,85,0,0
119328,-133.333333333333,4,2,2,60,0,0
130970,-100,4,2,1,70,0,0
151343,-200,4,2,1,70,0,0
152238,-133.333333333333,4,2,1,50,0,0
152350,-133.333333333333,4,2,1,70,0,0
160074,-100,4,2,1,70,0,0
166567,-100,4,1,1,45,0,0
167238,-100,4,2,2,70,0,0
168134,-100,4,2,2,85,0,1
192537,-100,4,2,2,70,0,1
196343,-100,4,2,2,85,0,0
197462,-100,4,2,1,70,0,0
214925,-100,4,2,1,45,0,0
222089,-133.333333333333,4,2,1,50,0,0
222537,-133.333333333333,4,2,2,60,0,0
225671,-133.333333333333,4,2,1,60,0,0
227014,-133.333333333333,4,2,2,60,0,0
227462,-133.333333333333,4,2,1,60,0,0
230597,-133.333333333333,4,2,2,60,0,0
230820,-133.333333333333,4,2,1,60,0,0
231716,-133.333333333333,4,2,2,60,0,0
232164,-133.333333333333,4,2,1,60,0,0
233283,-100,4,2,1,70,0,0
242462,-100,4,2,2,70,0,0
243358,-100,4,2,2,85,0,1
267761,-100,4,2,2,70,0,1
271119,-100,4,2,1,70,0,0
286567,-100,4,2,0,50,0,0
292320,447.761194029851,4,2,2,80,1,0

[Colours]
Combo1 : 84,140,203
Combo2 : 236,160,104
Combo3 : 100,206,108
Combo4 : 209,92,99

[HitObjects]
84,104,0,2,0,B|168:76|264:104,1,180,2|0
428,280,895,2,0,B|344:308|248:280,1,180,2|0
168,212,1567,6,0,B|252:184|348:212,1,180,2|0
388,112,2238,1,2
388,112,2462,2,0,B|246:70|122:112,1,270,2|0
256,328,3582,5,2
122,112,4029,1,2
390,112,4477,1,2
256,204,4925,1,0
256,328,5149,1,0
376,328,5373,6,0,B|455:288|503:200,1,180,2|0
136,328,6268,2,0,B|56:288|8:200,1,180,2|0
156,44,7164,6,0,B|116:64|96:112,2,90,6|0|2
356,44,8059,1,2
356,44,8507,2,0,B|396:64|416:112,1,90,2|8
256,260,9179,5,8
256,260,9291,1,8
256,260,9402,1,8
256,152,9626,1,8
256,152,10074,1,8
256,44,10298,1,8
136,224,10746,6,0,B|144:272|184:304,1,90,4|0
376,224,11194,2,0,B|368:272|328:304,1,90,2|8
256,152,11641,1,2
256,152,12089,5,8
164,96,12313,2,0,B|120:88|68:108|48:160|60:208,1,180,8|8
164,236,12985,2,0,B|188:280,1,45,8|8
348,236,13320,2,0,B|324:280,1,45,8|8
256,152,13656,1,8
348,96,13880,2,0,B|392:88|444:108|464:160|452:208,1,180,8|4
64,96,27985,5,2
76,204,28208,1,0
76,204,28320,1,0
76,204,28432,2,0,B|80:256|116:288,2,90,8|4|8
164,140,29104,1,8
252,80,29328,1,2
252,80,29440,1,0
252,80,29552,2,0,B|296:56|340:64,1,90,0|0
432,120,30000,5,8
336,168,30223,2,0,B|332:256|372:344,1,180,8|0
432,252,30895,1,8
432,252,31119,2,0,B|344:248|256:288,1,180,2|0
76,280,31791,6,0,B|92:328|136:344,1,90,0|8
124,96,32238,2,0,B|108:48|64:32,1,90,8|0
148,192,32686,1,2
252,216,32910,1,0
356,192,33134,2,0,B|392:160|400:112,1,90,2|0
256,88,33582,5,8
32,200,33805,2,0,B|60:288|136:344,1,180,2|8
256,272,34477,1,8
480,200,34701,2,0,B|452:288|376:344,1,180,2|0
256,272,35373,5,8
200,180,35597,2,0,B|172:140|128:124,2,90,2|0|0
256,272,36268,1,8
312,180,36492,2,0,B|364:104|448:64,1,180,8|0
440,172,37164,5,2
288,76,37388,2,0,B|204:48|108:64,1,180,8|8
256,272,38059,1,2
256,272,38283,2,0,B|340:300|436:284,1,180,8|0
376,192,38955,1,2
376,192,39402,5,4
136,192,39626,1,2
136,192,40074,1,8
80,284,40298,2,0,B|60:328|64:376,2,90,4|0|0
180,328,40970,1,2
280,180,41194,6,0,B|244:148,1,45,8|0
284,324,41529,2,0,B|320:356,1,45,8|0
468,256,41865,1,8
468,256,42313,5,2
336,132,42537,1,0
160,88,42761,1,2
160,88,42873,1,0
160,88,42985,1,4
200,264,43208,6,0,B|236:232|252:188,1,90,2|0
160,88,43656,1,8
44,104,43880,2,0,B|58:145|94:177,1,90,0|8
160,88,44328,1,8
264,56,44552,6,0,B|348:28|444:52,1,180,2|8
364,268,45223,1,2
364,268,45447,2,0,B|280:296|184:272,1,180,8|0
132,180,46119,5,8
132,180,46231,1,0
132,180,46343,1,8
224,124,46567,1,2
444,312,47014,1,0
460,96,47350,1,0
460,96,47462,2,0,B|420:72|376:68,1,90,8|0
268,60,47910,5,8
184,220,48134,2,0,B|232:300|328:320,1,180,8|2
244,160,48805,1,0
244,160,49029,2,0,B|196:80|100:60,1,180,8|0
68,164,49701,5,10
100,268,49925,1,4
412,268,50373,1,8
384,164,50597,2,0,B|364:116|380:76,1,90,2|0
336,44,50932,2,0,B|260:40|212:88,1,135,0|8
276,176,51492,1,8
384,164,51716,5,4
136,52,52164,1,8
172,320,52611,2,0,B|256:348|352:320,1,180,4|0
176,132,53283,5,2
88,184,53507,2,0,B|60:268|88:364,1,180,8|2
244,224,54179,2,0,B|272:140|244:44,1,180,8|0
176,132,54850,5,2
452,52,55298,1,4
388,332,55746,1,0
388,332,55970,1,4
124,216,56417,5,2
100,360,56641,1,0
200,256,56865,1,0
115,139,57089,2,0,B|53:100|-8:200|53:238,1,180,4|0
344,240,57761,6,0,B|406:201|344:101|282:139,1,180,4|0
200,256,58432,1,0
328,324,58656,1,2
200,256,58880,2,0,B|176:164|200:76,1,180,4|2
336,36,59552,1,2
336,36,60000,1,0
404,88,60223,6,0,B|436:124|444:168,1,90
364,180,60895,6,0,B|368:248|424:296,2,134.999995976687,4|2|0
320,112,62014,1,0
248,72,62238,1,0
172,44,62462,6,0,B|108:16|40:44,1,134.999995976687,2|0
92,108,63134,2,0,B|35:149|26:222,1,134.999995976687,2|0
156,184,63805,5,2
284,220,64029,1,0
192,320,64253,2,0,B|132:348|60:328,1,134.999995976687,2|0
284,220,64925,5,2
284,220,65149,1,0
284,220,65373,2,0,B|304:284|372:320,1,134.999995976687,2|0
392,240,66044,6,0,B|458:204|478:140,2,134.999995976687,2|2|0
348,172,67164,1,2
256,340,67500,1,2
164,172,67835,1,0
120,240,68059,2,0,B|53:204|33:140,1,134.999995976687
124,80,68731,5,0
124,80,68843,1,0
124,80,68955,2,0,B|168:64|224:68|256:96,1,135,4|0
212,128,69402,2,0,B|236:168|284:175,1,90,8|0
284,175,70074,5,8
432,72,70298,1,8
284,176,70522,2,0,B|256:264|284:356,1,180,2|0
356,276,71194,1,2
356,276,71417,6,0,B|268:248|176:276,1,180,4|0
80,324,72089,2,0,B|96:284|96:236|76:192,1,135,2|0
76,192,72537,1,8
120,92,72761,2,0,B|136:48|184:28,2,90,0|2|4
120,92,73880,5,8
256,208,74104,1,0
392,92,74328,1,4
392,92,74776,5,8
120,92,75000,1,8
256,208,75223,1,0
256,244,75335,1,0
256,280,75447,1,0
256,316,75559,1,0
256,352,75671,1,0
164,296,75895,5,2
360,236,76119,1,0
140,172,76343,1,2
392,92,76567,1,0
120,92,76791,6,0,B|72:104|44:148|44:192|64:240,1,180,4|0
392,92,77462,2,0,B|440:104|468:148|468:192|448:240,1,180,8|2
324,228,78134,1,0
248,328,78358,1,8
324,228,78582,2,0,B|244:184|148:196,1,180,2|0
60,284,79253,2,0,B|96:312|144:304,1,90,8|0
48,64,79701,5,2
240,124,79925,1,0
40,148,80149,1,8
212,44,80373,2,0,B|304:44|384:96,1,180,2|0
396,304,81044,6,0,B|352:304|308:288|280:248,1,135,8|0
279,247,81492,1,2
212,44,81716,1,0
192,164,81940,1,8
328,44,82164,6,0,B|376:40|416:56|440:104|440:156,1,180,2|2
380,268,82835,1,8
276,340,83059,2,0,B|228:344|188:328|164:280|164:228,1,180,2|0
252,136,83731,1,8
136,88,83955,6,0,B|88:80|48:108,2,90,2|4|0
252,136,84626,2,0,B|292:160|336:164|384:144,1,135,8|0
420,104,85074,2,0,B|456:132|468:180,1,90,2|0
420,276,85522,1,8
136,216,85746,6,0,B|156:304|236:360,1,180,2|0
216,180,86417,1,8
216,180,86641,2,0,B|196:92|116:36,1,180,2|0
92,160,87313,1,8
288,84,87537,5,0
288,84,87649,1,0
288,84,87761,2,0,B|376:60|468:84,1,180,4|8
224,236,88432,2,0,B|136:260|44:236,1,180,4|0
192,152,89104,1,8
312,184,89328,2,0,B|356:196|388:232|404:280|392:328,1,180,4|0
268,296,90000,1,8
464,176,90223,5,0
464,176,90335,1,0
464,176,90447,2,0,B|488:136|484:88,1,90,2|0
128,96,90895,1,8
224,180,91119,6,0,B|292:236|387:254,1,180,4|0
128,96,91791,2,0,B|96:128|88:180,1,90,8|0
423,175,92238,2,0,B|416:128|384:96,1,90,0|2
256,32,92686,1,8
256,160,92910,2,0,B|256:344,1,180,2|0
384,332,93582,2,0,B|428:320|456:280,1,90,8|0
128,332,94029,6,0,B|84:320|56:280,1,90,2|0
216,192,94477,1,8
284,24,94701,2,0,B|328:36|356:76,2,90,2|0|0
216,192,95373,2,0,B|224:240|256:272|304:284,1,135,8|0
303,283,95820,1,0
424,248,96044,2,0,B|428:296|400:336,1,90,2|8
320,172,96492,6,0,B|336:128|368:96|412:76|464:72,1,180,2|2
340,32,97164,1,8
216,36,97388,2,0,B|168:36|128:52|92:88|80:132,1,180,2|0
204,148,98059,1,8
328,176,98283,6,0,B|315:220|279:256|239:272|191:272,1,180,4|0
204,148,98955,1,8
304,68,99179,2,0,B|344:48|392:48|436:68|464:108,1,180,4|0
380,200,99850,1,8
380,200,100074,2,0,B|348:232|336:280|344:324|384:368,1,180,4|0
132,362,100746,1,4
48,88,101194,5,2
144,168,101417,1,0
60,260,101641,1,0
132,362,101865,2,0,B|176:376|224:360|256:328|264:276,1,180,2|0
328,168,102537,6,0,B|344:208|388:236,2,90,2|0|0
256,64,103208,1,2
256,320,103656,1,2
156,88,104104,6,0,B|124:120|120:168,1,90,2|0
356,88,104552,2,0,B|388:120|392:168,1,90,4|0
176,256,105000,2,0,B|136:276,2,45
336,256,105447,2,0,B|376:276,2,45,0|0|4
136,88,119328,5,0
140,168,119552,2,0,B|144:208|164:232,1,67.4999979883433,2|0
232,184,120000,2,0,B|250:206|254:246,1,67.4999979883433,6|0
192,296,120447,2,0,B|212:328|248:336|280:324,1,101.249996982515,2|0
312,300,120895,6,0,B|344:296|376:312,1,67.4999979883433
448,348,121343,1,0
472,272,121567,2,0,B|492:204|472:136,1,134.999995976687,2|0
364,60,122238,1,2
232,92,122462,1,0
88,236,122910,6,0,B|64:208|64:176,1,67.4999979883433,0|2
144,172,123358,1,0
172,248,123582,2,0,B|160:280|136:304|100:320|68:320,2,134.999995976687,2|0|2
232,192,124701,5,0
260,268,124925,1,0
324,316,125149,2,0,B|384:344|456:344,1,134.999995976687,2|0
416,216,125820,1,2
324,316,126044,1,0
120,92,126716,5,0
196,60,126940,2,0,B|232:48|264:44|300:52|328:64,1,134.999995976687,2|0
388,116,127611,1,0
328,172,127835,2,0,B|292:184|260:188|224:180|196:168,1,134.999995976687,2|0
132,116,128507,5,0
76,176,128731,2,0,B|52:240|72:312,1,134.999995976687,2|0
148,340,129402,2,0,B|180:320|216:328,1,67.4999979883433,0|2
292,336,129850,5,0
368,304,130074,1,0
420,244,130298,2,0,B|452:180|448:112,1,134.999995976687
280,48,130970,1,2
280,48,131417,5,8
132,88,131641,1,0
272,144,131865,1,2
192,16,132089,1,0
180,168,132313,1,10
380,136,133656,5,8
380,136,133880,1,2
380,136,134104,1,0
380,136,134328,2,0,B|388:180|376:224,1,90,0|0
196,232,134776,2,0,B|188:276|200:320,1,90,4|0
292,264,135223,5,8
264,160,135447,1,0
156,144,135671,1,2
96,232,135895,1,8
336,72,136343,1,0
436,32,136567,1,8
424,140,136791,2,0,B|408:184|404:232|416:276|436:316,1,180,8|0
308,188,137462,6,0,B|268:168|220:172,1,90,2|8
64,260,137910,2,0,B|104:280|152:276,1,90,8|0
124,56,138358,2,0,B|84:36|36:36|-8:60,1,135,2|0
28,100,138805,6,0,B|40:144|88:164,1,90,8|0
188,128,139253,1,0
256,44,139477,1,8
188,324,139925,1,2
92,276,140149,1,8
188,224,140373,2,0,B|280:228|348:296,1,180,8|2
188,324,141044,5,8
296,144,141268,2,0,B|364:80|456:68,1,180,4|8
420,264,141940,2,0,B|392:304|352:320|304:320,1,135,2|0
316,268,142388,6,0,B|276:248|228:256,1,90,8|0
140,316,142835,1,8
52,256,143059,1,2
256,56,143507,1,2
152,28,143731,1,8
184,132,143955,2,0,B|256:192|352:188,1,180,2|0
408,96,144626,5,8
304,280,144850,2,0,B|228:328|132:336,1,180,8|8
296,212,145522,2,0,B|372:164|468:156,1,180,2|8
416,252,146194,5,2
336,324,146417,1,0
440,356,146641,1,4
156,316,147089,1,0
156,316,147313,1,4
332,88,147761,5,2
476,64,147985,1,0
344,12,148208,1,2
200,28,148432,2,0,B|152:40|120:72|104:116|116:168,1,180,4|0
312,356,149104,6,0,B|360:344|392:312|408:268|396:216,1,180,4|0
256,192,149776,1,0
168,308,150000,1,2
304,264,150223,1,4
304,264,150671,1,2
168,220,150895,1,2
168,220,151343,1,0
116,148,151567,6,0,B|96:104|112:60,1,90,0|0
192,40,152238,6,0,B|256:68|324:44,2,134.999995976687,4|2|0
200,120,153358,1,0
268,160,153582,1,0
348,176,153805,6,0,B|412:196|484:184,1,134.999995976687,2|0
480,104,154477,2,0,B|416:84|344:96,1,134.999995976687,2|0
424,340,155149,5,2
476,280,155373,1,0
396,264,155597,2,0,B|328:272|276:320,1,134.999995976687,2|0
208,276,156268,1,0
156,336,156492,1,0
208,276,156716,6,0,B|232:212|208:144,1,134.999995976687,2|0
144,192,157388,2,0,B|120:128|144:60,1,134.999995976687,2|0
224,40,158059,2,0,B|256:56|292:56,1,67.4999979883433
372,52,158507,6,0,B|408:40|440:40|476:60,2,101.249996982515,2|2|0
328,120,159402,2,0,B|324:192|372:244,1,134.999995976687
440,160,160074,5,0
440,160,160186,1,0
440,160,160298,2,0,B|472:124|476:80,2,90,4|8|0
332,176,160970,2,0,B|284:176|240:196|216:232|208:284,1,180,8|2
400,248,161641,5,8
240,112,161865,2,0,B|164:60|72:52,1,180,4|0
56,160,162537,2,0,B|104:172|148:156,2,90,2|0|4
56,160,163432,6,0,B|40:200|40:248|72:288,1,135,8|0
71,287,163880,1,2
172,324,164104,1,0
192,220,164328,1,0
300,208,164552,2,0,B|267:148|219:122|154:115,1,180,4|0
192,220,165223,5,8
316,88,165447,1,0
476,172,165671,1,4
156,340,166119,5,8
344,228,166343,1,8
144,140,166567,1,0
112,124,166679,1,0
76,120,166791,1,0
40,128,166902,1,0
8,148,167014,1,0
192,220,167238,6,0,B|236:240,2,45,2|0|0
244,96,167686,1,2
112,320,167910,1,0
328,204,168134,6,0,B|368:176|392:140|408:96|412:52,1,180,4|0
244,264,168805,2,0,B|272:304|308:328|352:344|396:348,1,180,8|2
248,176,169477,1,0
88,300,169701,1,8
248,176,169925,2,0,B|220:136|184:112|140:96|96:92,1,180,2|0
148,208,170597,2,0,B|168:252|208:272,1,90,8|0
264,76,171044,5,2
80,164,171268,1,0
264,76,171492,1,8
436,180,171716,2,0,B|416:268|344:332,1,180,2|0
256,240,172388,5,8
132,256,172611,1,0
132,256,172723,1,0
132,256,172835,2,0,B|140:300|176:332,1,90,2|0
392,104,173283,1,8
272,60,173507,2,0,B|184:40|92:64,1,180,2|2
188,148,174179,1,8
276,240,174402,2,0,B|336:308|428:332,1,180,2|0
472,212,175074,5,8
460,88,175298,2,0,B|428:56|380:48,2,90,2|4|0
472,212,175970,2,0,B|424:228|380:224|344:196,1,135,8|0
384,160,176417,2,0,B|348:136|296:132,1,90,0|2
100,204,176865,1,8
180,300,177089,2,0,B|220:272|240:228|228:180|200:140,1,180,2|0
88,84,177761,1,8
264,324,177985,2,0,B|352:348|444:324,1,180,2|0
472,204,178656,1,8
440,80,178880,5,0
440,80,178992,1,0
440,80,179104,2,0,B|352:52|260:68,1,180,4|8
72,172,179776,2,0,B|160:200|252:184,1,180,4|0
444,284,180447,1,8
444,284,180671,2,0,B|356:312|264:296,1,180,4|0
152,244,181343,1,8
256,172,181567,5,2
256,172,181679,1,0
256,172,181791,1,0
84,124,182014,2,0,B|100:80|136:52,1,90,2|8
428,124,182462,2,0,B|412:80|376:52,2,90,4|0|0
180,264,183134,6,0,B|206:298|251:315|303:303|336:261,1,180,8|2
176,180,183805,2,0,B|128:184|104:228,1,90,0|8
336,180,184253,2,0,B|384:184|408:228,2,90,2|0|0
256,276,184925,2,0,B|256:368,1,90,8|0
256,184,185373,5,0
132,56,185597,2,0,B|84:68|60:112,1,90,2|8
356,228,186044,2,0,B|384:188|392:140|372:96|348:60,1,180,2|0
181,165,186716,2,0,B|160:194|154:230|169:263|187:290,1,135,8|0
236,268,187164,6,0,B|264:304|252:352,1,90,2|0
128,332,187611,1,8
84,156,187835,2,0,B|88:112|116:72|160:52|212:52,1,180,2|2
256,172,188507,1,8
428,156,188731,2,0,B|424:112|396:72|352:52|300:52,1,180,2|0
256,172,189402,5,8
376,292,189626,2,0,B|400:328|444:348,1,90,4|0
136,292,190074,1,0
136,292,190298,1,8
136,292,190522,2,0,B|112:328|68:348,1,90,4|0
32,228,190970,5,2
96,120,191194,1,8
204,52,191417,2,0,B|292:36|384:64,1,180,4|0
472,220,192089,1,4
164,316,192537,5,2
248,224,192761,1,0
360,284,192985,1,0
472,220,193208,2,0,B|488:176|484:132|448:92|400:80,1,180,2|0
276,48,193880,5,2
324,164,194104,1,0
208,120,194328,1,0
256,236,194552,2,0,B|272:276|304:312|348:332|396:340,1,180,2|2
156,68,195447,6,0,B|116:96|104:148,1,90,2|0
356,68,195895,2,0,B|396:96|408:148,1,90,4|0
176,256,196343,2,0,B|136:276,2,45
336,256,196791,2,0,B|376:276,2,45,0|0|4
56,192,197462,5,2
300,36,197910,1,8
376,116,198134,2,0,B|408:152|456:156,2,90,8|0|8
376,116,199029,5,2
324,212,199253,1,0
404,284,199477,1,8
324,212,199701,1,0
216,196,199925,1,8
216,196,200037,1,0
216,196,200149,2,0,B|168:192|124:212,2,90,8|0|2
216,196,201044,5,2
460,348,201492,2,0,B|488:260|460:168,1,180,8|2
316,172,202164,2,0,B|288:260|316:352,1,180,8|2
380,240,202835,2,0,B|408:152|380:60,2,180,8|2|8
380,240,203843,1,0
380,240,203955,1,8
300,312,204179,6,0,B|212:336|120:312,1,180,2|8
122,71,205074,2,0,B|212:48|300:72,1,180,2|2
212,192,205746,1,8
212,192,206194,5,0
372,112,206417,1,2
452,272,206641,1,8
288,348,206865,1,0
288,348,207089,1,8
328,228,207313,2,0,B|307:187,4,45,8|0|0|0|4
256,192,214925,5,4
256,192,222089,5,8
256,192,222537,2,0,B|320:220|388:192,1,134.999995976687,2|0
432,124,223208,1,0
384,60,223432,1,8
384,60,223656,2,0,B|320:32|252:60,1,134.999995976687,2|0
204,124,224328,6,0,B|136:151|72:123,1,134.999995976687,2|0
44,284,225223,2,0,B|32:252|44:216,1,67.4999979883433,2|0
120,248,225671,1,8
180,300,225895,1,0
108,336,226119,1,2
352,324,226791,5,0
420,280,227014,1,8
420,280,227126,1,0
420,280,227238,2,0,B|440:248|444:216,2,67.4999979883433,2|8|0
352,236,227910,1,0
276,204,228134,2,0,B|212:188|140:208,2,134.999995976687,8|2|0
344,156,229253,6,0,B|408:124|432:56,1,134.999995976687,8|0
168,156,230149,2,0,B|104:124|80:56,1,134.999995976687,8|8
196,60,230820,6,0,B|260:92|284:160,1,134.999995976687,8|2
228,216,231492,1,0
164,268,231716,1,0
164,268,231828,1,0
164,268,231940,2,0,B|136:296|104:304,2,67.4999979883433,8|8|0
100,220,232611,2,0,B|64:164|100:92,1,134.999995976687,4|2
196,44,233283,5,8
288,100,233507,1,0
388,64,233731,1,2
492,88,233955,1,0
388,64,234179,1,8
400,172,234402,2,0,B|408:260|368:348,1,180,8|0
112,172,235074,6,0,B|106:237|135:302,1,135,8|0
136,303,235522,2,0,B|104:335|56:339,1,90,8|2
80,80,235970,1,2
184,48,236194,2,0,B|272:32|364:48,1,180,8|0
460,96,236865,1,8
368,152,237089,2,0,B|348:200|348:244|368:284|412:312,1,180,2|8
464,216,237761,1,2
464,216,237985,6,0,B|370:200|286:232,1,180,8|0
180,252,238656,1,8
76,281,238880,1,0
46,177,239104,1,8
150,148,239328,1,2
180,252,239552,1,0
256,192,239776,12,0,241791
392,104,242462,5,2
392,104,242574,1,0
392,104,242686,2,0,B|356:80|304:84,1,90,0|2
120,160,243134,2,0,B|156:184|208:180,1,90,0|4
206,180,243805,5,2
440,232,244029,2,0,B|428:280|388:308|340:304,1,135,8|0
324,252,244477,2,0,B|276:252|244:292,1,90,2|0
440,152,244925,1,8
336,80,245149,2,0,B|296:52|256:40|208:44|164:72,1,180,2|0
76,160,245820,2,0,B|116:188|156:200|204:196|248:168,1,180,8|0
412,56,246492,6,0,B|436:96|424:148,1,90,2|8
208,260,246940,2,0,B|220:306|260:330,1,90,2|0
332,228,247388,5,0
452,188,247611,2,0,B|436:144|400:116|352:108,1,135,8|0
351,107,248059,1,2
332,228,248283,2,0,B|352:276|396:292,1,90,0|8
512,336,248731,1,2
240,164,249179,1,2
352,108,249402,1,8
240,48,249626,2,0,B|196:32|152:32|108:44|72:76,1,180,2|0
36,200,250298,5,8
88,316,250522,1,2
364,144,250970,1,0
448,52,251194,1,8
444,176,251417,1,0
376,68,251641,1,2
492,112,251865,1,0
288,304,252089,5,8
288,304,252313,2,0,B|200:304|120:248,1,180,2|0
316,224,252985,1,8
316,224,253208,2,0,B|404:224|484:280,1,180,2|0
372,340,253880,1,8
316,224,254104,5,0
316,224,254216,1,0
316,224,254328,2,0,B|300:180|304:136|328:92|372:68,1,180,4|8
196,224,255000,2,0,B|212:180|208:136|184:92|140:68,1,180,4|0
178,303,255671,1,8
178,303,255895,2,0,B|214:339|254:351|302:343|338:303,1,180,4|0
256,192,256567,1,8
84,72,256791,5,2
84,72,256902,1,0
84,72,257014,2,0,B|76:116|104:160,1,90,0|2
256,60,257462,1,8
428,72,257686,2,0,B|436:116|408:160,1,90,4|0
144,240,258134,5,0
252,308,258358,2,0,B|288:332|336:336|388:320,1,135,8|0
424,288,258805,2,0,B|452:252|456:200,1,90,2|0
256,60,259253,1,8
256,60,259477,2,0,B|216:92|200:136|212:180|256:220,1,180,2|0
360,208,260149,2,0,B|388:168|384:124,1,90,8|0
212,260,260597,6,0,B|184:300|188:344,1,90,2|0
388,308,261044,1,8
240,168,261268,2,0,B|164:112|72:104,1,180,2|0
332,204,261940,2,0,B|373:147|379:79,1,135,8|0
379,79,262388,5,2
256,24,262611,2,0,B|260:68|296:104,1,90,0|8
444,168,263059,2,0,B|464:208|464:256|440:304|396:324,1,180,2|2
332,216,263731,1,8
220,268,263955,2,0,B|200:228|200:180|224:132|268:112,1,180,2|0
392,88,264626,5,0
392,88,264850,1,4
68,120,265298,1,2
188,156,265522,1,0
160,32,265746,1,4
48,336,266194,5,0
172,316,266417,1,2
288,264,266641,2,0,B|368:216|412:136,1,180,4|0
312,28,267313,2,0,B|232:76|188:156,1,180,4|2
316,148,267985,1,0
436,112,268208,1,0
400,232,268432,2,0,B|344:304|244:308,1,180,2|0
128,260,269104,5,2
200,156,269328,1,0
76,180,269552,1,0
148,76,269776,1,2
148,76,270223,1,2
148,76,270671,5,2
324,40,270895,1,0
468,148,271119,1,4
468,148,271343,1,0
468,148,271455,1,0
468,148,271567,2,0,B|464:196|432:228,1,90,0|0
256,260,272014,5,2
256,260,272126,1,0
256,260,272238,2,0,B|264:312|304:336,1,90,4|8
344,236,272686,2,0,B|336:184|296:160,1,90,8|0
216,88,273134,1,8
184,72,273246,1,0
148,68,273358,1,2
116,84,273470,1,0
92,112,273582,2,0,B|68:148|72:200,1,90,0|4
292,336,274253,5,8
188,312,274477,1,0
264,232,274701,1,2
368,268,274925,2,0,B|408:244|424:200,1,90,8|8
416,92,275373,5,0
388,68,275485,1,0
356,56,275597,1,8
176,48,275820,1,2
196,80,275932,1,0
220,104,276044,1,0
252,120,276156,1,0
288,128,276268,2,0,B|328:156|340:200,2,90,8|0|0
236,224,276940,5,2
312,304,277164,1,0
420,296,277388,2,0,B|452:264|472:220|472:176|452:128,1,180,4|8
360,72,278059,1,2
264,120,278283,1,0
168,68,278507,5,8
72,200,278843,1,2
232,224,279179,1,8
156,148,279402,6,0,B|148:196|156:240,1,90,4|8
216,328,279850,1,8
316,292,280074,1,0
420,324,280298,1,0
420,324,280410,1,0
420,324,280522,2,0,B|460:296|472:252,2,90,2|8|4
472,76,281417,5,8
440,60,281529,1,0
404,56,281641,1,2
296,52,281865,2,0,B|248:64|220:96,1,90,0|2
308,156,282313,2,0,B|336:196|332:244,1,90,8|8
232,280,282761,2,0,B|256:320|304:336,1,90,0|8
408,324,283208,5,0
408,324,283320,1,0
408,324,283432,2,0,B|444:296|460:252,1,90,0|4
248,116,284104,1,0
160,56,284328,1,2
148,164,284552,1,4
400,184,285000,5,0
284,48,285223,1,2
284,48,285335,1,0
284,48,285447,1,0
148,164,285671,1,0
264,300,285895,1,8
264,300,286343,5,4
256,192,286567,12,2,292320
