osu file format v9

[General]
AudioFilename: Himitsujikake no Apple (Short Ver.).mp3
AudioLeadIn: 3000
PreviewTime: 75828
Countdown: 0
SampleSet: Soft
StackLeniency: 0.4
Mode: 0
LetterboxInBreaks: 0

[Editor]
DistanceSpacing: 1
BeatDivisor: 2
GridSize: 8

[Metadata]
Title:Himitsujikake no apple (Short Ver.)
Artist:Sakakibara Yui
Creator:osuplayer111
Version:Normal
Source:Kimi to Boku to Eden no Ringo
Tags:Hentai Game Eroge Yuri Vicho-kun Astom xxheroxx kanpakyin

[Difficulty]
HPDrainRate:3
CircleSize:4
OverallDifficulty:3
ApproachRate:4
SliderMultiplier:1.4
SliderTickRate:0.5

[Events]
//Background and Video events
0,0,"Astom baka ;w;.jpg"
Video,0,"Kimi to Boku to Eden no Ringo.flv"
//Break Periods
2,14572,26710
//Storyboard Layer 0 (Background)
//Storyboard Layer 1 (Fail)
//Storyboard Layer 2 (Pass)
//Storyboard Layer 3 (Foreground)
Sprite,Foreground,Centre,"White Effect.png",320,240 M,0,53328,,376,71 F,0,53328,,0 S,0,53328,,1.2048 M,0,53328,53440,376,71,376,74 F,0,53328,53440,0,0.932016 M,0,53440,53552,376,74,334,83 F,0,53440,54783,0.932016,1 M,0,53552,53664,334,83,248,140 M,0,53664,53776,248,140,201,178 M,0,53776,53888,201,178,168,205 M,0,53888,54000,168,205,155,211 M,0,54000,54112,155,211,137,226 M,0,54112,54224,137,226,120,238 M,0,54224,54336,120,238,102,249 M,0,54336,54447,102,249,80,250 M,0,54447,54559,80,250,58,247 M,0,54559,54671,58,247,14,244 M,0,54671,54783,14,244,-27,243 M,0,54783,54895,-27,243,-47,254 F,0,54783,54895,1,0
Sprite,Foreground,Centre,"White Effect.png",320,240 M,0,93962,,426,231 S,0,93962,,0.7542401 F,0,93962,94074,0,1 F,0,94074,,1 F,0,94074,95418,1 F,0,95418,95578,1,0
Sprite,Foreground,Centre,"White Effect.png",320,240 M,0,93962,,331,266 S,0,93962,,0.5596796 F,0,93962,94074,0,1 F,0,94074,95418,1 F,0,95418,95578,1,0
//Storyboard Sound Samples
//Background Colour Transformations
3,100,163,162,255

[TimingPoints]
45,447.761194029851,4,2,1,100,1,0
8776,-100,4,1,1,80,0,0
10791,-100,4,2,1,100,0,0
13030,-100,4,1,1,80,0,0
14373,-100,4,2,1,100,0,0
28030,-100,4,1,1,80,0,0
28253,-100,4,2,1,100,0,0
41239,-100,4,2,1,80,0,0
42358,-100,4,2,1,100,0,0
60045,-100,4,1,1,80,0,0
60268,-100,4,2,1,100,0,0
69000,-100,4,2,1,80,0,0
69447,-100,4,2,1,100,0,0
69671,-100,4,2,1,80,0,0
70119,-100,4,2,1,100,0,0
70567,-100,4,2,1,80,0,0
71015,-100,4,2,1,100,0,0
71686,-100,4,2,1,80,0,0
71910,-100,4,2,1,100,0,0
75268,-100,4,1,1,60,0,0
75940,-100,4,2,1,100,0,0
76836,-100,4,2,1,100,0,1
91052,-100,4,2,1,100,0,0
91164,-100,4,2,1,100,0,1
105045,-100,4,1,1,60,0,1
105716,-100,4,2,1,100,0,0
125753,-100,4,2,1,5,0,0

[Colours]
Combo1 : 192,192,192
Combo2 : 153,193,223
Combo3 : 239,222,99
Combo4 : 155,116,203
Combo5 : 255,179,181

[HitObjects]
96,120,45,2,0,B|168:120|216:56,1,140,4|2
256,192,940,1,0
296,326,1388,1,2
296,326,1612,2,0,B|344:264|416:264,1,140,0|0
472,136,2507,2,0,B|416:88,1,70,0|2
160,192,3627,5,2
256,296,4074,1,0
352,192,4522,1,2
256,88,4970,2,0,B|256:168,2,70,0|0|2
256,368,6313,1,2
440,192,7209,6,0,B|408:144|408:144|320:144,1,140,4|2
186,144,8104,2,0,B|104:144|104:144|72:192,1,140,0|2
72,192,8776,1,0
128,320,9224,1,0
256,264,9671,1,4
384,320,10119,1,0
384,320,10343,1,8
440,192,10791,6,0,B|392:160|392:160|344:168|320:128,1,140,4|2
190,129,11686,2,0,B|168:168|120:160|120:160|72:192,1,140,0|2
71,192,12358,1,4
152,336,13030,6,0,B|184:272|256:248,1,140,8|0
360,336,13925,2,0,B|328:272|256:248,1,140,0|4
256,56,28030,6,0,B|256:128,1,70,0|2
200,256,28701,2,0,B|224:296|256:300|288:296|312:256,1,140,4|8
344,56,30045,1,8
256,168,30492,1,0
168,56,30940,1,8
72,320,31836,6,0,B|144:320|144:320|184:264,1,140,8|0
256,144,32731,1,8
328,264,33179,2,0,B|368:320|368:320|440:320,1,140,0|8
256,144,34522,1,8
176,336,35418,6,0,B|176:296|200:272,1,70,8|0
336,336,36089,2,0,B|336:296|312:272,1,70,0|8
256,144,36761,1,0
128,192,37209,2,0,B|128:112|32:112,1,140,8|0
152,40,38104,2,0,B|216:88,1,70,8|0
352,240,39000,6,0,B|304:272|304:272|304:312|248:336,1,140,8|4
255,332,39671,1,2
256,192,40119,1,4
256,192,40343,2,0,B|328:136|328:136|336:72|416:72,1,210,2|4
413,72,41239,2,8,B|488:152,2,105
400,208,42358,5,4
400,208,42582,2,0,B|328:240|328:320,1,140,0|4
184,320,43477,2,8,B|128:256|128:192|128:128|184:64,2,280
320,344,45716,6,0,B|408:344|408:256,1,140,0|8
407,125,46612,2,0,B|408:40|320:40,1,140,0|8
80,192,47955,2,8,B|360:192,1,280
480,120,49298,1,0
480,264,49746,5,8
480,264,49970,2,0,B|408:264|408:264|360:320,1,140,4|0
363,315,50642,1,8
256,224,51089,1,0
148,315,51537,1,8
148,315,51761,2,0,B|104:264|104:264|32:264,1,140,4|4
32,264,52433,2,0,B|32:184,1,70,2|4
192,64,53328,5,8
256,96,53552,1,0
320,64,53776,2,0,B|368:128|320:192,1,140,4|8
192,192,54671,2,0,B|144:128|192:64,1,140,0|8
256,96,55343,5,4
256,240,55791,2,0,B|192:288,1,70,4|4
256,168,56462,1,0
312,282,56910,2,0,B|256:240,1,70,0|4
192,112,57582,5,2
192,112,57806,2,0,B|256:84|256:84|320:112,1,140,0|2
256,312,58925,2,0,B|256:160,1,140,4|2
256,172,59597,1,4
256,312,60045,1,0
256,32,60940,5,4
376,96,61388,1,8
376,240,61836,1,0
256,312,62283,2,8,B|200:312|200:312|144:248|48:248|48:248|48:192,1,280
192,192,63627,1,0
48,192,64074,6,8,B|48:137|48:137|144:137|200:73|200:73|256:73,1,280
400,72,65418,1,0
472,192,65865,2,8,B|384:192|296:240|256:344,1,280
256,200,67209,1,2
255,342,67656,6,8,B|216:240|128:192|40:192,1,280
40,191,68776,2,0,B|56:112,1,70,2|4
176,64,69447,2,0,B|160:143,1,70,8|4
256,240,70119,2,0,B|256:152,2,70,2|8|4
349,132,71015,2,0,B|336:64,1,70,2|8
458,123,71686,6,0,B|471:191,1,70,4|0
471,191,72134,2,0,B|384:192|296:240|256:342,1,280,8|8
256,342,73253,1,4
56,272,73925,6,0,B|136:272|160:192,1,140,4|2
152,56,74821,1,2
152,56,75045,1,0
152,56,75268,2,0,B|232:56|256:136,1,140
352,194,76164,6,0,B|376:272|456:272,1,140,2|0
455,272,76836,1,4
256,336,77507,2,0,B|176:336|176:336|136:288,1,140,8|0
56,176,78403,1,8
56,176,78627,2,0,B|120:88|120:88|224:88,1,210,0|8
360,88,79746,6,0,B|376:168|464:168,1,140,0|8
459,168,80418,2,0,B|427:288|307:288,1,210,0|8
168,288,81537,1,0
64,192,81985,2,0,B|144:192,1,70,8|2
256,120,82656,2,0,B|176:120,1,70,2|8
320,64,83328,6,0,B|400:64|440:128,1,140,0|8
438,258,84224,1,4
438,258,84447,1,0
438,258,84671,2,0,B|400:320|320:320,1,140,8|0
192,320,85567,5,8
192,320,85791,2,0,B|112:320|74:258,1,140,4|0
73,258,86462,2,0,B|112:200,1,70,8|4
184,80,87134,1,0
328,80,87582,5,0
328,80,87806,2,0,B|368:136|368:136|400:112|440:128,1,140,4|8
435,126,88477,1,0
435,257,88925,1,0
435,257,89149,1,8
435,257,89373,2,0,B|400:272|368:248|368:248|328:304,1,140,4|0
327,304,90045,1,8
256,192,90492,6,0,B|112:192,1,140,2|0
116,192,91164,1,4
192,72,91612,1,0
192,72,91836,2,0,B|232:56|256:85|256:85|280:56|320:72,1,140,8|0
456,72,92731,6,8,B|400:128|386:192|386:192|400:256|456:312,1,280
312,320,94074,1,0
256,192,94522,1,8
256,192,94746,2,0,B|144:192|80:96,2,210,0|8|0
256,192,96313,1,8
400,192,96761,2,0,B|488:192|488:280,2,140,0|8|0
312,304,98104,6,0,B|336:232,1,70,8|4
256,360,98776,1,0
256,360,99000,1,8
256,360,99224,1,4
177,237,99671,2,0,B|200:304,2,70,0|8|4
256,40,100791,1,4
400,40,101239,6,0,B|464:72|464:72|464:144,1,140
464,140,101910,1,0
376,248,102358,1,2
376,248,102582,2,0,B|376:316|376:316|312:348,1,140,0|2
104,344,103701,1,2
56,216,104149,6,0,B|8:272,2,70,0|2|0
192,56,105268,1,0
312,128,105716,1,4
240,248,106164,6,8,B|352:288|440:224|432:120,1,280
312,48,107507,1,0
240,168,107955,2,0,B|128:128|40:192|48:296,1,280,8|8
184,336,109298,1,0
328,336,109746,1,8
424,72,110642,5,8
424,72,110865,2,0,B|352:72|320:144|320:144|240:144,1,210,4|8
152,40,111985,1,0
48,136,112433,1,8
152,224,112880,1,4
48,320,113328,1,8
328,320,114224,5,8
328,320,114447,2,0,B|432:320|432:320|496:232,1,210,4|8
384,152,115567,1,0
256,208,116015,1,8
128,152,116462,1,4
256,320,117134,1,4
72,72,118030,6,0,B|104:144|184:144,1,140,4|2
256,264,118925,1,0
329,143,119373,2,0,B|408:144|440:72,1,140,4|4
256,192,120045,12,2,125753
