osu file format v9

[General]
AudioFilename: Himitsujikake no Apple (Short Ver.).mp3
AudioLeadIn: 3000
PreviewTime: 75828
Countdown: 0
SampleSet: Soft
StackLeniency: 0.4
Mode: 0
LetterboxInBreaks: 0

[Editor]
DistanceSpacing: 1
BeatDivisor: 4
GridSize: 8

[Metadata]
Title:Himitsujikake no apple (Short Ver.)
Artist:Sakakibara Yui
Creator:osuplayer111
Version:Insane
Source:Kimi to Boku to Eden no Ringo
Tags:Hentai Game Eroge Yuri Vicho-kun Astom xxheroxx kanpakyin

[Difficulty]
HPDrainRate:8
CircleSize:5
OverallDifficulty:8
ApproachRate:8
SliderMultiplier:1.8
SliderTickRate:0.5

[Events]
//Background and Video events
0,0,"Astom baka ;w;.jpg"
Video,0,"Kimi to Boku to Eden no Ringo.flv"
//Break Periods
2,14572,27280
//Storyboard Layer 0 (Background)
//Storyboard Layer 1 (Fail)
//Storyboard Layer 2 (Pass)
//Storyboard Layer 3 (Foreground)
Sprite,Foreground,Centre,"White Effect.png",320,240 M,0,53328,,376,71 F,0,53328,,0 S,0,53328,,1.2048 M,0,53328,53440,376,71,376,74 F,0,53328,53440,0,0.932016 M,0,53440,53552,376,74,334,83 F,0,53440,54783,0.932016,1 M,0,53552,53664,334,83,248,140 M,0,53664,53776,248,140,201,178 M,0,53776,53888,201,178,168,205 M,0,53888,54000,168,205,155,211 M,0,54000,54112,155,211,137,226 M,0,54112,54224,137,226,120,238 M,0,54224,54336,120,238,102,249 M,0,54336,54447,102,249,80,250 M,0,54447,54559,80,250,58,247 M,0,54559,54671,58,247,14,244 M,0,54671,54783,14,244,-27,243 M,0,54783,54895,-27,243,-47,254 F,0,54783,54895,1,0
Sprite,Foreground,Centre,"White Effect.png",320,240 M,0,93962,,426,231 S,0,93962,,0.7542401 F,0,93962,94074,0,1 F,0,94074,,1 F,0,94074,95418,1 F,0,95418,95578,1,0
Sprite,Foreground,Centre,"White Effect.png",320,240 M,0,93962,,331,266 S,0,93962,,0.5596796 F,0,93962,94074,0,1 F,0,94074,95418,1 F,0,95418,95578,1,0
//Storyboard Sound Samples
//Background Colour Transformations
3,100,163,162,255

[TimingPoints]
45,447.761194029851,4,2,1,100,1,0
8776,-100,4,1,1,80,0,0
9447,-100,4,2,1,100,0,0
9671,-100,4,1,1,80,0,0
9895,-100,4,2,1,100,0,0
10119,-100,4,1,1,80,0,0
10791,-100,4,2,1,100,0,0
13030,-100,4,1,1,80,0,0
14149,-100,4,2,1,100,0,0
28030,-100,4,1,1,80,0,0
28253,-100,4,2,1,100,0,0
41239,-100,4,2,1,80,0,0
42358,-100,4,2,1,100,0,0
60045,-100,4,1,1,80,0,0
60268,-100,4,2,1,100,0,0
69000,-100,4,2,1,80,0,0
69224,-100,4,2,1,100,0,0
69671,-100,4,2,1,80,0,0
69895,-100,4,2,1,100,0,0
70567,-100,4,2,1,80,0,0
70791,-100,4,2,1,100,0,0
71686,-100,4,2,1,80,0,0
71910,-100,4,2,1,100,0,0
75268,-100,4,1,1,60,0,0
75940,-100,4,2,1,100,0,0
76836,-100,4,2,1,100,0,1
91052,-100,4,2,1,100,0,0
91164,-100,4,2,1,100,0,1
105045,-100,4,1,1,60,0,1
105492,-100,4,2,1,100,0,1
105716,-100,4,2,1,100,0,0
125753,-100,4,2,1,5,0,0

[Colours]
Combo1 : 192,192,192
Combo2 : 153,193,223
Combo3 : 239,222,99
Combo4 : 155,116,203
Combo5 : 255,179,181

[HitObjects]
48,128,45,2,0,B|104:40|208:56,1,180,4|2
464,128,940,2,0,B|408:40|304:56,1,180,0|2
344,144,1612,2,0,B|344:216|344:216|376:248|376:248|376:312,1,180
304,368,2283,1,2
208,368,2507,1,0
136,310,2731,2,0,B|136:248|136:248|168:216|168:216|168:144,1,180,0|2
19,59,3627,6,0,B|115:59|171:147,1,180,0|2
493,325,4522,2,0,B|397:325|341:237,1,180,0|2
257,237,5194,2,0,B|257:149,1,90
257,147,6313,1,0
48,344,7209,5,4
256,40,7656,1,2
464,344,8104,1,0
256,144,8552,1,2
256,144,8776,2,0,B|256:336,1,180
168,344,9447,2,0,B|117:344|96:296,1,90,2|4
344,344,9895,2,0,B|395:344|416:296,1,90,2|0
414,299,10231,1,0
414,299,10343,1,8
256,328,10567,6,0,B|256:240,1,90,0|4
112,136,11239,1,2
96,48,11462,1,4
176,80,11686,2,0,B|224:120|256:128|288:120|336:80,1,180,0|2
256,32,12358,2,0,B|256:216,1,180,4|0
256,212,13030,1,8
152,344,13365,6,0,B|184:384,1,45
256,336,13701,2,0,B|256:280,2,45
360,344,14149,2,0,B|331:379,2,45,2|0|4
160,32,28030,6,0,B|216:104,1,90,0|2
352,32,28477,2,0,B|296:104,1,90,0|4
200,296,29149,2,0,B|224:264|256:248|288:264|312:296,1,135,8|0
311,295,29597,1,0
256,328,29821,2,0,B|256:238,1,90,0|8
184,184,30268,2,0,B|224:128|256:128|288:128|328:184,1,180
416,184,30940,1,8
376,104,31164,2,0,B|344:64|296:56,1,90
136,104,31612,6,0,B|168:64|216:56,1,90,0|8
256,136,32059,1,0
256,224,32283,1,0
432,248,32731,2,0,B|469:192|469:192|432:136,1,135,8|0
431,135,33179,2,0,B|384:136|352:96,1,90
280,48,33627,1,8
192,48,33850,2,0,B|120:112,1,90
80,248,34298,2,0,B|152:184,1,90,0|8
208,136,34746,1,0
384,200,35194,6,0,B|320:272,1,90,0|8
256,328,35642,2,0,B|72:328,1,180
16,264,36313,1,8
72,192,36537,2,0,B|168:192|200:80,1,180
256,152,37209,2,0,B|256:240,1,90,8|0
440,192,37656,2,0,B|344:192|312:80,1,180,0|8
256,16,38328,1,0
256,368,38776,5,0
192,304,39000,2,0,B|208:248|256:232|304:248|320:304,1,180,8|4
256,368,39671,2,0,B|256:184,1,180,2|4
168,184,40343,1,2
176,96,40567,2,0,B|224:96|256:60|256:60|288:96|336:96,1,180,0|4
344,184,41239,1,8
304,264,41462,1,0
304,264,41574,1,8
208,264,41798,1,0
208,264,41910,1,8
256,40,42358,6,0,B|256:128,1,90,4|0
184,184,42806,1,0
184,184,42918,1,0
184,184,43030,2,0,B|256:238|256:238|328:184,1,180,4|8
376,312,43813,1,0
376,312,43925,2,0,B|304:368,1,90
136,312,44373,2,0,B|208:368,1,90,8|0
256,192,45045,6,0,B|256:96,1,90,0|8
176,64,45492,2,0,B|128:96,2,45,2|0|0
256,24,45940,2,0,B|304:24|336:64,1,90,0|8
384,136,46388,1,0
424,216,46612,1,0
304,352,47059,6,0,B|288:319|255:306|255:306|224:320|208:352,1,135,8|0
208,351,47507,2,0,B|136:296,1,90,0|2
64,240,47955,1,8
64,152,48179,2,0,B|160:152|200:48,1,180,0|2
256,120,48850,1,8
448,152,49074,2,0,B|352:152|312:48,1,180,0|2
256,120,49746,1,8
256,300,49970,6,0,B|256:120,1,180,4|0
200,48,50642,2,0,B|224:16|256:0|288:16|312:48,1,135,8|0
311,47,51089,1,0
344,136,51313,1,0
256,120,51537,1,8
168,136,51761,2,4,B|208:176|184:216|184:216|208:256|168:304,1,180
256,336,52433,1,8
341,300,52656,2,0,B|304:256|328:216|328:216|304:176|344:136,1,180,4|0
312,48,53328,6,0,B|360:40|392:80,1,90,8|0
256,120,53776,1,4
200,48,54000,2,0,B|152:40|120:80,1,90,0|8
256,192,54559,2,0,B|256:240,1,45
192,304,54895,2,0,B|240:336|257:366|257:366|272:336|320:304,2,180,0|4|4
256,240,56015,1,4
148,100,56462,5,0
212,40,56686,1,0
300,40,56910,1,0
364,100,57134,2,0,B|316:116|296:156|296:156|316:188|364:212,1,180,4|0
147,212,57806,2,0,B|196:188|216:156|216:156|196:116|148:100,1,180,2|0
256,96,58477,1,0
256,214,58701,1,2
200,284,58925,2,0,B|256:214|256:214|312:284,1,180,4|4
256,336,59597,2,0,B|256:152,1,180,4|0
256,156,60268,1,0
256,336,60940,5,4
256,48,61388,1,8
140,184,61836,1,0
212,232,62059,1,0
300,232,62283,1,8
372,184,62507,1,0
256,344,62955,5,0
256,344,63179,2,0,B|256:160,1,180,8|0
168,160,63850,1,0
104,96,64074,1,8
168,32,64298,2,0,B|256:64|344:32,1,180
408,96,64970,1,8
344,160,65194,1,0
256,192,65418,2,0,B|280:240|352:240|352:240|296:296,1,180,0|8
207,287,66089,2,0,B|160:240|160:240|232:240|256:192,1,180
255,192,66761,1,8
192,128,66985,6,0,B|152:96,2,45,0|0|2
256,64,67433,2,0,B|352:64,1,90,0|8
440,64,67880,1,0
400,144,68104,2,0,B|448:160|475:192|475:192|448:224|400:240,1,180,0|8
320,192,68776,1,0
304,208,68888,1,0
288,224,69000,2,0,B|216:288,1,90,4|0
144,328,69447,1,8
80,264,69671,6,0,B|134:191|134:191|80:120,1,180,4|2
32,192,70343,1,8
32,192,70567,2,0,B|216:192,1,180,4|2
256,112,71239,1,8
304,192,71462,1,0
256,272,71686,1,4
432,248,72134,6,0,B|449:209|469:192|469:192|449:177|432:136,1,135,8|0
432,136,72582,1,0
360,192,72806,2,0,B|264:192,2,90,0|8|4
104,112,73925,5,4
56,192,74149,1,0
104,272,74373,2,0,B|208:280|256:192,1,180,2|0
256,104,75045,1,2
312,32,75268,2,0,B|352:64,1,45
424,104,75604,2,0,B|392:144,1,45
336,208,75940,5,0
344,232,76052,1,0
336,256,76164,2,0,B|320:304|352:344,1,90,2|0
176,256,76612,2,0,B|192:304|160:344,2,90,0|4|0
256,256,77283,2,0,B|256:160,1,90,0|8
184,112,77731,6,0,B|144:152,2,45
256,56,78179,1,0
328,112,78403,1,8
256,168,78627,2,0,B|344:224|304:328,1,180
206,324,79298,2,0,B|168:224|256:168,1,180,8|0
184,112,79970,1,0
256,56,80194,1,8
328,112,80418,6,0,B|392:112|392:112|440:144|440:144|504:144,1,180
496,240,81089,2,0,B|456:240|456:240|432:280|432:280|384:280,1,135,8|0
383,280,81537,2,0,B|352:240|304:240,1,90
272,320,81985,2,0,B|303:360|351:360,1,90,8|2
220,249,82656,1,2
272,320,82880,1,8
307,240,83104,1,0
205,144,83552,5,0
240,64,83776,1,8
293,136,84000,2,0,B|341:128|357:80,1,90,0|4
205,144,84447,2,0,B|157:152|141:200,1,90,0|8
232,224,84895,1,0
256,264,85007,1,0
280,224,85119,1,0
328,304,85343,1,0
256,360,85567,1,8
184,304,85791,6,0,B|88:304|24:232,1,180,4|0
104,192,86462,1,8
24,151,86686,2,0,B|88:80|184:80,1,180,4|0
240,148,87358,1,8
240,236,87582,1,0
296,312,87806,6,0,B|384:312|384:312|432:296|432:240,1,180,4|8
296,72,88477,2,0,B|384:72|384:72|432:88|432:144,1,180
352,192,89149,1,8
352,192,89373,1,4
160,192,89821,1,0
160,192,90045,1,8
208,120,90268,6,0,B|176:88,2,45,2|0|0
304,120,90716,1,0
256,192,90940,1,8
208,264,91164,2,0,B|216:336|255:347|296:336|304:264,1,180,4|0
303,264,91836,1,8
256,128,92059,5,0
256,128,92171,1,0
256,128,92283,2,0,B|256:218,1,90
184,40,92731,1,8
184,40,92955,2,0,B|224:-32|256:192|288:-32|328:40,1,180
328,40,93627,1,8
448,168,94074,6,0,B|400:168|368:208,1,90
424,280,94522,1,8
352,336,94746,2,0,B|312:248|256:229|200:248|160:336,1,270,0|8
88,280,95642,1,0
88,280,95753,1,0
88,280,95865,2,0,B|40:272|32:216,1,90
72,136,96313,1,8
152,192,96537,6,0,B|152:104|200:104|200:16,1,180,2|2
256,96,97209,1,8
312,20,97433,2,0,B|312:104|360:104|360:192,1,180,0|0
368,280,98104,2,0,B|384:328|440:328,1,90,8|4
144,280,98776,2,0,B|128:328|72:328,1,90,0|8
75,327,99224,1,4
256,352,99671,2,0,B|256:264,2,90,0|8|4
256,192,100791,1,4
184,40,101239,6,0,B|216:88|256:104|296:88|328:40,1,180
256,13,101910,2,0,B|256:197,1,180,0|2
200,264,102582,2,0,B|177:307|205:352,1,90,0|2
312,264,103030,2,0,B|335:307|307:352,1,90,0|2
256,192,103701,1,2
160,96,104149,6,0,B|216:24,1,90,2|0
352,96,104597,2,0,B|296:24,1,90,2|0
296,144,105045,2,0,B|328:184,2,45,0|0|0
216,144,105492,2,0,B|184:184,2,45,2|0|4
200,272,106164,6,0,B|256:234|256:234|312:272,1,135,8|0
311,271,106612,1,0
311,271,106724,1,0
256,360,106947,2,0,B|256:312,1,45,0|8
256,168,107283,6,0,B|344:168,1,90
416,112,107731,2,0,B|456:152,2,45,0|0|8
344,56,108179,2,0,B|256:56,1,90
184,112,108627,1,0
144,192,108850,2,0,B|96:192,2,45,8|0|0
184,272,109298,1,0
256,328,109522,5,0
256,328,109634,1,0
256,328,109746,2,0,B|352:328|352:328|408:264,1,180,8|0
456,192,110418,1,0
407,119,110642,1,8
407,119,110753,1,0
407,119,110865,2,0,B|352:56|352:56|256:56,1,180,4|0
168,56,111537,6,0,B|120:56|88:96,1,90,8|0
168,328,111985,2,0,B|120:328|88:288,1,90
48,192,112433,2,0,B|144:192,1,90,8|0
232,192,112880,1,4
400,128,113328,6,0,B|421:192|421:192|400:256,1,135,8|0
399,256,113776,2,0,B|352:272,1,45
399,127,114112,2,0,B|352:112,1,45,0|8
304,192,114447,2,0,B|120:192,1,180,4|2
124,192,115007,1,0
124,192,115119,1,8
56,136,115343,2,0,B|128:80,1,90
56,248,115791,2,0,B|128:304,1,90,0|8
127,303,116127,1,0
127,303,116239,1,0
192,240,116462,5,4
256,304,116686,1,2
256,304,116798,1,0
256,304,116910,2,0,B|320:240,1,90,0|4
192,112,117582,1,2
256,48,117806,1,0
320,112,118030,1,4
136,192,118477,5,2
176,272,118701,2,0,B|144:304,2,45,0|0|2
256,312,119149,1,0
336,272,119373,1,4
376,192,119597,1,0
256,192,119821,1,4
256,192,119933,12,2,125753
