osu file format v14

[General]
AudioFilename: Reminiscence.mp3
AudioLeadIn: 1000
PreviewTime: 80351
Countdown: 0
SampleSet: Normal
StackLeniency: 0.6
Mode: 0
LetterboxInBreaks: 0
WidescreenStoryboard: 0

[Editor]
DistanceSpacing: 1
BeatDivisor: 4
GridSize: 4
TimelineZoom: 1.8

[Metadata]
Title:"Hikari Are" to Negau Kokoro o
TitleUnicode:"光あれ"と願う心を
Artist:Sakakibara Yui
ArtistUnicode:榊原ゆい
Creator:-Nanaka-
Version:Normal
Source:レミニセンス Re:Collect
Tags:REMINISCENCE Tigre Soft eroge opening Visual Novel fuyuyu-
BeatmapID:456648
BeatmapSetID:191448

[Difficulty]
HPDrainRate:3
CircleSize:3
OverallDifficulty:3
ApproachRate:4
SliderMultiplier:0.999999999999999
SliderTickRate:2

[Events]
//Background and Video events
0,0,"BG.jpg",0,0
Video,0,"Reminiscence_Re.avi"
//Break Periods
//Storyboard Layer 0 (Background)
//Storyboard Layer 1 (Fail)
//Storyboard Layer 2 (Pass)
//Storyboard Layer 3 (Foreground)
//Storyboard Sound Samples

[TimingPoints]
-630,368.098159509202,4,1,0,70,1,0
842,-100,4,2,1,65,0,0
1118,-100,4,2,3,55,0,0
1302,-100,4,2,1,65,0,0
2222,-100,4,2,2,55,0,0
2406,-100,4,2,1,65,0,0
2958,-100,4,2,2,55,0,0
3143,-100,4,2,1,65,0,0
4063,-100,4,2,3,55,0,0
4247,-100,4,2,1,65,0,0
5167,-100,4,2,2,55,0,0
5351,-100,4,2,1,65,0,0
5903,-100,4,2,2,55,0,0
6087,-100,4,2,1,65,0,0
7008,-100,4,2,3,55,0,0
7192,-100,4,2,1,65,0,0
8480,-100,4,2,3,55,0,0
8848,-100,4,2,1,65,0,0
9952,-100,4,2,3,55,0,0
10136,-100,4,2,1,65,0,0
11425,-100,4,2,3,55,0,0
11609,-100,4,2,1,65,0,0
12897,-100,4,2,3,55,0,0
13081,-100,4,2,1,65,0,0
14001,-100,4,2,2,55,0,0
14185,-100,4,2,1,65,0,0
15842,-100,4,2,3,55,0,0
16026,-100,4,2,1,65,0,0
16946,-100,4,2,2,55,0,0
17130,-100,4,2,1,65,0,0
18787,-100,4,2,3,55,0,0
18971,-100,4,2,1,65,0,0
20259,-100,4,2,3,55,0,0
20627,-100,4,2,1,65,0,0
21731,-100,4,2,3,55,0,0
21916,-100,4,2,1,65,0,0
23664,-100,4,2,1,60,0,0
23848,-100,4,2,1,65,0,0
24400,-100,4,2,1,70,0,1
24584,-100,4,2,1,65,0,0
30658,-100,4,2,1,60,0,0
30934,-100,4,2,2,50,0,0
31118,-100,4,2,1,60,0,0
33511,-100,4,2,3,50,0,0
33695,-100,4,2,1,60,0,0
34247,-100,4,2,3,50,0,0
34431,-100,4,2,1,60,0,0
35719,-100,4,2,3,50,0,0
35903,-100,4,2,1,60,0,0
37192,-100,4,2,3,50,0,0
37376,-100,4,2,1,60,0,0
39400,-100,4,2,3,50,0,0
39584,-100,4,2,1,60,0,0
44185,-100,4,2,2,50,0,0
44369,-100,4,2,1,60,0,0
45290,-100,4,2,3,50,0,0
45474,-100,4,2,1,60,0,0
46026,-100,4,2,3,50,0,0
46210,-100,4,2,1,60,0,0
51916,-100,4,2,3,50,0,0
52100,-100,4,2,1,60,0,0
52284,-100,4,2,2,50,0,0
52468,-100,4,2,1,60,0,0
52652,-100,4,2,3,50,0,0
52836,-100,4,2,1,60,0,0
53480,-100,4,2,1,50,0,0
56793,-100,4,2,1,30,0,0
59001,-100,4,2,1,50,0,0
62682,-100,4,2,1,30,0,0
65259,-100,4,2,1,65,0,0
68848,-100,4,2,3,55,0,0
69032,-100,4,2,1,65,0,0
69216,-100,4,2,2,55,0,0
69400,-100,4,2,1,65,0,0
77774,-100,4,2,1,55,0,0
78143,-100,4,2,1,45,0,0
78511,-100,4,2,1,35,0,0
78879,-100,4,2,1,25,0,0
80351,-100,4,2,1,75,0,1
82100,-100,4,2,3,65,0,1
82284,-100,4,2,1,75,0,1
83940,-100,4,2,2,65,0,1
84124,-100,4,2,1,75,0,1
91210,-100,4,2,1,75,0,0
92130,-100,4,2,1,75,0,1
93879,-100,4,2,3,65,0,1
94063,-100,4,2,1,75,0,1
103909,-100,4,2,1,70,0,0
105290,-100,4,2,2,60,0,0
105474,-100,4,2,1,70,0,0
107130,-100,4,2,3,60,0,0
107314,-100,4,2,1,70,0,0
108235,-100,4,2,2,60,0,0
108419,-100,4,2,1,70,0,0
108971,-100,4,2,2,60,0,0
109155,-100,4,2,1,70,0,0
110443,-100,4,2,2,60,0,0
110627,-100,4,2,1,70,0,0
111547,-100,4,2,3,60,0,0
111916,-100,4,2,1,70,0,0
113020,-100,4,2,3,60,0,0
113204,-100,4,2,1,70,0,0
115689,-100,4,2,1,75,0,1
115781,-100,4,2,1,75,0,0
118633,-100,4,2,1,75,0,1
118725,-100,4,2,1,75,0,0
121578,-100,4,2,1,75,0,1
121670,-100,4,2,1,75,0,0
124523,-100,4,2,1,75,0,1
124615,-100,4,2,1,75,0,0
126731,-100,4,2,1,70,0,1
126916,-100,4,2,1,70,0,0
127284,-100,4,2,1,70,0,1
127468,-100,4,2,1,70,0,0

[Colours]
Combo1 : 255,128,192
Combo2 : 255,0,0
Combo3 : 255,255,0
Combo4 : 64,0,128
Combo5 : 255,255,255

[HitObjects]
184,140,842,6,0,P|272:116|380:144,1,200,2|2,0:1|0:0,0:0:0:0:
436,220,1946,2,0,P|472:144|416:48,2,200,4|8|8,0:1|0:0|0:0,0:0:0:0:
340,244,3787,6,0,P|244:269|148:245,1,200,2|2,0:1|0:0,0:0:0:0:
84,320,4891,2,0,P|52:232|120:152,2,200,4|8|8,0:1|0:0|0:0,0:0:0:0:
184,340,6731,6,0,B|264:308|264:308|316:344|316:344|380:328|380:328,1,200,2|2,0:1|0:0,0:0:0:0:
464,220,8020,2,0,B|364:220|364:220|312:188|312:188|220:220|220:220,1,250,4|2,0:1|0:0,0:0:0:0:
140,268,9308,1,8,0:1:0:0:
78,189,9676,6,0,B|70:93|70:93|165:45,1,200,2|2,0:1|0:0,0:0:0:0:
244,172,10965,2,0,P|300:192|496:168,1,250,4|2,0:1|0:0,0:0:0:0:
376,340,12621,6,0,B|300:320|300:320|234:338|234:338|182:306|182:306,1,200,2|2,0:1|0:0,0:0:0:0:
108,368,13725,2,0,P|60:300|136:224,1,200,4|8,0:1|0:0,0:0:0:0:
228,216,14830,1,2,0:0:0:0:
328,216,15198,1,8,0:0:0:0:
368,124,15566,6,0,B|308:108|264:136|264:136|156:112,1,200,2|2,0:1|0:0,0:0:0:0:
96,52,16670,6,0,B|64:100|80:152|80:152|60:192|4:212,1,200,4|8,0:1|0:0,0:0:0:0:
28,308,17774,1,2,0:0:0:0:
112,364,18143,1,8,0:0:0:0:
172,280,18511,6,0,P|268:312|364:280,1,200,2|2,0:1|0:0,0:0:0:0:
464,176,19799,2,0,P|320:132|236:176,1,250,4|2,0:1|0:0,0:0:0:0:
168,248,21087,1,8,0:1:0:0:
261,282,21455,6,0,P|218:337|87:311,1,200,2|2,0:1|0:0,0:0:0:0:
84,174,22744,2,0,P|143:141|230:154,1,150,4|8,0:1|0:0,0:0:0:0:
305,202,23664,2,0,L|273:258,1,50,8|8,0:0|0:0,0:0:0:0:
188,364,24400,5,4,0:0:0:0:
128,284,24768,1,8,0:0:0:0:
124,184,25136,2,0,P|141:137|180:106,1,99.9999999999999,2|8,0:0|0:0,0:0:0:0:
232,196,25873,2,0,P|280:208|332:188,1,99.9999999999999,2|8,0:0|0:0,0:0:0:0:
368,100,26609,2,0,P|424:176|424:200,1,99.9999999999999,2|8,0:0|0:0,0:0:0:0:
424,276,27345,6,0,P|416:320|368:360,1,99.9999999999999,4|8,0:1|0:0,0:0:0:0:
324,272,28081,2,0,P|268:260|216:284,1,99.9999999999999,2|8,0:0|0:0,0:0:0:0:
172,356,28817,2,0,P|116:368|64:344,1,99.9999999999999,2|8,0:0|0:0,0:0:0:0:
24,268,29554,1,2,0:0:0:0:
124,284,29922,1,8,0:0:0:0:
88,192,30290,1,8,0:0:0:0:
56,100,30658,6,0,P|136:76|268:100,1,200,8|8,0:0|0:0,0:0:0:0:
340,136,31762,1,2,0:0:0:0:
412,204,32130,1,8,0:0:0:0:
368,296,32498,2,0,P|344:336|296:360,1,99.9999999999999,2|8,0:0|0:0,0:0:0:0:
268,256,33235,6,0,P|184:232|64:272,2,200,2|2|2,0:0|0:0|0:0,0:0:0:0:
368,244,35075,1,8,0:0:0:0:
360,144,35443,2,0,B|288:144|288:144|236:108|236:108|172:132|172:132,1,200,2|4,0:0|0:0,0:0:0:0:
112,208,36547,5,8,0:0:0:0:
168,292,36916,2,0,B|240:292|240:292|292:256|292:256|356:280|356:280,1,200,2|2,0:0|0:0,0:0:0:0:
440,328,38020,5,8,0:0:0:0:
440,228,38388,1,2,0:0:0:0:
440,128,38756,1,8,0:0:0:0:
364,64,39124,6,0,P|272:40|168:68,1,200,4|2,0:0|0:0,0:0:0:0:
88,116,40228,2,0,P|100:176|72:228,1,99.9999999999999,8|2,0:0|0:0,0:0:0:0:
132,300,40965,1,8,0:0:0:0:
212,240,41333,1,2,0:0:0:0:
292,180,41701,6,0,P|336:168|396:184,1,99.9999999999999,8|4,0:0|0:0,0:0:0:0:
444,264,42437,2,0,P|400:276|340:260,1,99.9999999999999,8|2,0:0|0:0,0:0:0:0:
292,180,43173,1,8,0:0:0:0:
212,240,43541,1,2,0:1:0:0:
140,308,43909,2,0,B|112:224|112:224|147:165|147:165|156:112,1,200,8|10,0:0|0:0,0:0:0:0:
244,80,45014,6,0,B|328:60|328:60|376:96|376:96|448:72|448:72,2,200,4|2|2,0:0|0:0|0:0,0:0:0:0:
144,88,46854,1,8,0:0:0:0:
92,172,47222,1,2,0:0:0:0:
124,268,47590,6,0,L|264:268,1,99.9999999999999,12|4,0:0|0:0,0:0:0:0:
304,328,48327,2,0,L|408:328,1,99.9999999999999,8|2,0:0|0:0,0:0:0:0:
472,256,49063,1,8,0:0:0:0:
436,164,49431,6,0,P|360:112|328:108,1,99.9999999999999,4|8,0:0|0:0,0:0:0:0:
260,76,50167,2,0,P|224:92|156:80,1,99.9999999999999,2|8,0:0|0:0,0:0:0:0:
88,148,50903,2,0,P|60:184|56:248,1,99.9999999999999,4|8,0:0|0:0,0:0:0:0:
144,280,51639,6,0,B|240:232|332:272|332:344|264:384|192:344|192:272|296:232|400:288,1,400,2|4,0:0|0:0,0:0:0:0:
428,192,53480,5,8,3:0:0:0:
384,104,53848,2,0,P|320:108|252:92,1,99.9999999999999,4|8,0:0|3:0,0:0:0:0:
192,140,54584,1,2,0:0:0:0:
161,44,54952,6,0,P|107:78|92:129,2,99.9999999999999,8|2|8,3:0|0:0|3:0,0:0:0:0:
193,140,56057,1,2,0:0:0:0:
276,88,56425,1,8,3:0:0:0:
256,192,56793,12,2,58265,0:0:0:0:
479,220,59001,5,4,0:0:0:0:
420,300,59369,1,8,3:0:0:0:
324,332,59738,2,0,P|280:340|196:328,1,99.9999999999999,4|8,0:0|3:0,0:0:0:0:
132,300,60474,1,2,0:0:0:0:
40,256,60842,6,0,P|88:208|128:200,2,99.9999999999999,8|2|8,3:0|0:0|3:0,0:0:0:0:
132,300,61946,1,2,0:0:0:0:
220,352,62314,1,8,3:0:0:0:
256,192,62682,12,8,64523,3:0:0:0:
424,284,65259,6,0,L|424:232|424:184,1,99.9999999999999,8|4,0:0|0:0,0:0:0:0:
368,100,65995,2,0,P|312:96|240:108,1,99.9999999999999,8|2,0:0|0:0,0:0:0:0:
184,48,66731,2,0,P|168:104|188:156,1,99.9999999999999,8|2,0:0|0:0,0:0:0:0:
152,244,67468,5,8,0:0:0:0:
212,324,67836,1,2,0:1:0:0:
304,284,68204,1,8,0:1:0:0:
376,356,68572,6,0,B|426:281|373:210,2,150,4|0|8,0:0|0:0|0:0,0:0:0:0:
328,336,69860,2,0,P|252:324|176:340,1,150,4|8,0:0|0:0,0:0:0:0:
88,296,70781,1,2,0:0:0:0:
48,204,71149,1,8,0:0:0:0:
88,112,71517,6,0,P|172:132|256:96,1,150,4|0,0:0|0:0,0:0:0:0:
268,80,72253,2,0,P|320:64|376:88,1,99.9999999999999,2|0,0:0|0:0,0:0:0:0:
384,124,72805,2,0,P|368:200|396:272,1,150,4|8,0:0|0:0,0:0:0:0:
332,344,73725,1,2,0:0:0:0:
264,272,74093,1,8,0:0:0:0:
192,344,74462,6,0,P|160:272|164:232,2,99.9999999999999,4|8|2,0:0|0:0|0:0,0:0:0:0:
264,272,75566,1,12,0:0:0:0:
224,180,75934,2,0,L|304:92,1,99.9999999999999,2|8,0:0|0:0,0:0:0:0:
372,168,76670,2,0,L|292:256,1,99.9999999999999,2|8,0:0|0:0,0:0:0:0:
256,192,77406,12,0,79063,0:0:0:0:
327,178,80351,6,0,B|340:224|340:224|328:288,1,99.9999999999999,4|8,0:1|0:0,0:0:0:0:
288,300,80903,2,0,P|239:296|172:304,1,99.9999999999999,0|0,0:0|0:0,0:0:0:0:
108,240,81639,6,0,B|184:200|236:168|236:168|244:104|316:80,1,250,4|2,0:0|0:0,0:0:0:0:
380,36,82928,2,0,L|448:36,1,50,8|0,0:0|0:0,0:0:0:0:
444,84,83296,6,0,P|408:144|364:160,1,99.9999999999999,4|8,0:0|0:0,0:0:0:0:
347,191,83848,2,0,P|336:248|356:296,2,99.9999999999999,0|0|0,0:0|0:0|0:0,0:0:0:0:
300,172,84768,6,0,P|252:173|182:171,1,99.9999999999999,4|8,0:0|0:0,0:0:0:0:
124,240,85504,1,2,0:0:0:0:
48,172,85873,1,8,0:0:0:0:
48,72,86241,6,0,P|96:84|152:56,1,99.9999999999999,4|8,0:0|0:0,0:0:0:0:
241,46,86977,2,0,P|293:30|345:50,1,99.9999999999999,2|8,0:0|0:0,0:0:0:0:
388,131,87713,6,0,P|339:148|288:122,1,99.9999999999999,4|8,0:0|0:0,0:0:0:0:
242,47,88449,1,2,0:0:0:0:
160,104,88817,1,8,0:0:0:0:
76,52,89185,6,0,B|44:112|84:168,1,99.9999999999999,4|8,0:0|0:0,0:0:0:0:
88,196,89738,1,0,0:0:0:0:
100,244,89922,2,0,L|100:360,1,99.9999999999999,2|8,0:0|0:0,0:0:0:0:
144,364,90474,5,0,0:0:0:0:
192,348,90658,2,0,P|248:336|304:352,2,99.9999999999999,2|8|8,0:0|0:0|0:0,0:0:0:0:
380,284,92130,6,0,B|370:232|370:232|383:186,1,99.9999999999999,4|8,0:1|0:0,0:0:0:0:
340,164,92682,2,0,P|288:176|240:164,1,99.9999999999999,0|0,0:0|0:0,0:0:0:0:
176,92,93419,6,0,B|220:48|292:76|292:76|352:48|416:92,1,250,4|2,0:0|0:0,0:0:0:0:
416,188,94707,2,0,L|416:256,1,50,8|0,0:0|0:0,0:0:0:0:
376,268,95075,6,0,P|324:264|276:268,1,99.9999999999999,4|8,0:0|0:0,0:0:0:0:
228,252,95627,2,0,P|232:200|220:134,1,99.9999999999999,0|0,0:0|0:0,0:0:0:0:
132,188,96363,6,0,P|128:116|204:64,1,150,4|8,0:0|0:0,0:0:0:0:
264,8,97284,1,2,0:0:0:0:
344,68,97652,1,8,0:0:0:0:
256,116,98020,6,0,L|256:230,1,99.9999999999999,4|8,0:0|0:0,0:0:0:0:
304,304,98756,2,0,P|266:319|200:297,1,99.9999999999999,2|8,0:0|0:0,0:0:0:0:
161,219,99492,2,0,P|199:205|269:225,2,99.9999999999999,4|8|2,0:0|0:0|0:0,0:0:0:0:
84,280,100596,1,8,0:1:0:0:
44,189,100965,6,0,B|63:143|63:143|18:101|18:101|39:54|39:54,1,150,4|0,0:1|0:0,0:0:0:0:
46,17,101701,1,2,0:0:0:0:
171,99,102253,5,0,0:0:0:0:
171,99,102437,2,0,L|280:99,1,99.9999999999999,10|8,0:1|0:0,0:0:0:0:
369,120,103173,2,0,P|352:166|310:191,1,99.9999999999999,2|8,0:0|0:0,0:0:0:0:
247,268,103909,6,0,P|214:230|210:182,2,99.9999999999999,4|8|2,0:1|0:0|0:0,0:0:0:0:
346,285,105014,2,0,P|433:229|465:140,1,200,4|8,0:1|0:0,0:0:0:0:
424,50,106118,2,0,L|424:0,2,50,2|0|8,0:0|0:0|0:0,0:0:0:0:
380,143,106854,6,0,P|284:117|188:141,1,200,2|2,0:1|0:0,0:0:0:0:
127,220,107958,2,0,P|88:144|152:48,2,200,4|8|8,0:1|0:0|0:0,0:0:0:0:
211,274,109799,1,2,0:1:0:0:
300,320,110167,2,0,P|372:336|464:312,1,150,8|0,0:1|0:0,0:0:0:0:
492,232,111087,6,0,B|510:150|518:111|518:111|412:30,1,250,4|2,0:1|0:0,0:0:0:0:
340,98,112376,1,8,0:0:0:0:
277,175,112744,2,0,P|221:243|109:219,1,200,2|2,0:1|0:0,0:0:0:0:
97,79,114032,6,0,P|153:39|233:55,1,150,4|8,0:1|0:0,0:0:0:0:
181,140,114952,2,0,L|199:207,1,50,8|8,0:0|0:0,0:0:0:0:
255,325,115689,6,0,L|366:283,1,99.9999999999999,4|8,0:0|0:0,0:0:0:0:
398,203,116425,2,0,L|355:92,1,99.9999999999999,2|8,0:0|0:0,0:0:0:0:
280,53,117161,2,0,L|186:88,1,99.9999999999999,2|8,0:0|0:0,0:0:0:0:
132,172,117897,2,0,L|168:265,1,99.9999999999999,2|8,0:0|0:0,0:0:0:0:
234,340,118633,6,0,P|301:319|336:288,1,99.9999999999999,4|8,0:1|0:0,0:0:0:0:
391,227,119369,1,2,0:0:0:0:
459,153,119738,1,8,0:0:0:0:
387,83,120106,2,0,P|327:45|281:38,1,99.9999999999999,2|8,0:0|0:0,0:0:0:0:
199,40,120842,2,0,P|151:54|111:83,1,99.9999999999999,2|8,0:0|0:1,0:0:0:0:
46,159,121578,5,6,0:1:0:0:
0,248,121946,1,8,0:0:0:0:
70,320,122314,1,2,0:0:0:0:
160,275,122682,1,8,0:0:0:0:
151,175,123050,6,0,P|200:153|265:159,1,99.9999999999999,2|8,0:1|0:1,0:0:0:0:
270,250,123787,2,0,P|319:250|361:225,1,99.9999999999999,2|8,0:1|0:1,0:0:0:0:
424,147,124523,5,6,0:1:0:0:
346,84,124891,1,8,0:1:0:0:
255,42,125259,1,2,0:1:0:0:
165,86,125627,1,8,0:1:0:0:
87,149,125995,1,2,0:1:0:0:
168,207,126363,1,8,0:1:0:0:
247,146,126731,6,0,L|294:200,1,50,8|8,0:0|0:0,0:0:0:0:
350,255,127284,5,8,0:0:0:0:
