osu file format v9

[General]
AudioFilename: GREGORIO.mp3
AudioLeadIn: 3000
PreviewTime: 71314
Countdown: 0
SampleSet: Soft
StackLeniency: 0.7
Mode: 0
LetterboxInBreaks: 1

[Editor]
Bookmarks: 33245
DistanceSpacing: 2
BeatDivisor: 4
GridSize: 4

[Metadata]
Title:GREGORIO
Artist:Sakakibara Yui
Creator:Mercurius
Version:Atziluth
Source:Dies Irae ~ Acta est Fabula ~
Tags:Light Scharlachrot Grun Teta

[Difficulty]
HPDrainRate:7
CircleSize:4
OverallDifficulty:7
ApproachRate:9
SliderMultiplier:2
SliderTickRate:1

[Events]
//Background and Video events
0,0,"Atziluth.jpg"
Video,0,"GREGORIO.avi"
//Break Periods
//Storyboard Layer 0 (Background)
//Storyboard Layer 1 (Fail)
//Storyboard Layer 2 (Pass)
//Storyboard Layer 3 (Foreground)
//Storyboard Sound Samples
//Background Colour Transformations
3,100,255,128,0

[TimingPoints]
142,413.793103448276,4,2,0,100,1,0
6659,-100,4,1,0,70,0,0
6866,-100,4,2,0,100,0,0
9969,-100,4,1,0,70,0,0
10176,-100,4,2,0,100,0,0
13279,-100,4,1,1,70,0,0
60866,-100,4,2,0,5,0,0
61073,-100,4,2,0,100,0,0
64693,-100,4,1,1,70,0,0
71314,-100,4,1,1,70,0,1
77831,-200,4,1,1,70,0,1
78866,-100,4,1,1,70,0,1
94383,-100,4,1,0,100,0,0

[Colours]
Combo1 : 0,0,128
Combo2 : 255,255,0
Combo3 : 192,192,192
Combo4 : 255,0,0

[HitObjects]
484,352,142,1,0
388,324,348,1,0
324,248,555,1,2
352,152,762,1,0
412,72,969,2,0,B|372:36|308:32,1,100
264,116,1383,2,0,B|240:164|176:172,1,100,2|0
164,72,1797,6,2,B|308:240,1,200
294,223,2417,1,0
252,316,2624,2,0,B|196:296|184:224,1,100,2|0
336,132,3038,2,0,B|396:156|396:228,1,100,0|2
396,304,3452,5,0
300,276,3659,1,0
204,304,3866,1,2
108,276,4073,1,0
180,208,4279,2,0,B|224:164|224:104,1,100
124,128,4693,2,0,B|128:64|96:24,1,100,2|0
32,104,5107,6,2,B|136:64|244:52,1,200
225,54,5728,1,0
324,48,5935,5,0
452,124,6142,1,0
324,200,6348,1,2
324,48,6555,1,2
452,124,6762,6,0,B|432:184|456:244,1,100,4|0
380,296,7176,2,0,B|328:280|264:296,1,100,2|0
184,312,7590,2,0,B|136:328|88:376,2,100,0|0|2
184,312,8210,1,0
116,240,8417,6,0,B|92:188|120:140,1,100,2|0
396,144,8831,2,0,B|420:196|392:244,1,100,2|0
208,52,9245,2,0,B|260:28|308:56,1,100,2|0
304,332,9659,2,0,B|252:356|204:328,1,100,2|0
256,244,10073,5,4
172,192,10279,1,0
256,136,10486,1,2
340,192,10693,1,0
420,132,10900,2,0,B|420:32,1,100
420,252,11314,2,0,B|420:352,1,100,2|0
500,192,11728,6,2,B|296:192,1,200
300,192,12348,1,0
216,136,12555,2,0,B|168:108,2,50
216,248,12969,2,0,B|168:276,2,50
132,192,13383,5,4
84,192,13486,1,0
336,192,14004,1,4
384,192,14107,1,0
236,192,14417,1,8
168,120,14624,5,0
124,148,14728,1,0
96,192,14831,1,0
124,232,14935,1,0
164,264,15038,5,4
164,316,15142,1,0
413,268,15659,1,4
413,316,15762,1,0
288,216,16073,1,8
324,180,16176,1,0
364,148,16279,1,0
404,116,16383,1,0
444,84,16486,1,0
484,52,16590,1,0
484,52,16693,6,0,B|424:28,1,50,4|0
188,68,17314,2,0,B|248:92,1,50,4|0
92,36,17728,1,8
92,36,17831,1,0
92,36,17935,2,0,B|36:16,2,50
92,136,18348,5,4
92,188,18452,1,0
256,376,18969,1,4
256,324,19073,1,4
352,292,19279,1,0
388,260,19383,1,8
416,220,19486,1,0
424,172,19590,1,0
420,124,19693,1,0
388,84,19797,1,0
344,60,19900,1,0
296,44,20004,6,0,B|328:100|320:168,1,100,4|0
132,164,20417,2,0,B|120:216|128:268,1,100,0|0
224,120,20831,2,0,B|232:176|216:224,1,100,8|0
32,232,21245,2,0,B|24:296|48:348,1,100,8|0
140,332,21659,5,0
340,332,21866,1,0
240,332,22073,1,8
439,332,22279,1,0
388,244,22486,2,0,B|324:216|312:148,1,100,8|0
320,76,22900,2,0,B|392:104|408:176,1,100,8|8
296,160,23314,6,0,B|248:144|200:80,1,100,4|0
128,56,23728,1,8
40,108,23935,1,0
88,196,24142,2,0,B|148:196|200:232,1,100,0|0
112,292,24555,2,0,B|180:304|228:360,1,100,8|0
300,328,24969,5,0
392,292,25176,1,0
464,224,25383,1,8
488,128,25590,1,0
452,36,25797,1,0
404,52,25900,1,0
356,64,26004,1,0
308,52,26107,1,0
324,100,26210,1,0
328,152,26314,1,0
304,196,26417,1,0
260,224,26521,1,0
212,232,26624,6,0,B|232:288|216:340,1,100,4|0
144,260,27038,2,0,B|116:208|136:144,1,100,8|0
148,64,27452,1,0
240,28,27659,1,0
340,32,27866,1,8
240,28,28073,1,0
256,128,28279,6,0,B|272:232|364:300,1,200,4|8
448,332,28900,1,0
357,294,29107,2,0,B|296:284|240:300,1,100,0|0
160,320,29521,2,0,B|100:324|56:312,1,100,8|8
32,216,29935,5,0
128,196,30142,1,0
224,172,30348,1,8
320,148,30555,1,0
416,128,30762,2,0,B|468:112|504:76,1,100,0|0
224,172,31176,2,0,B|172:184|132:224,1,100,8|0
76,300,31590,5,8
336,324,31797,1,0
76,300,32004,1,8
336,324,32211,1,0
76,300,32417,5,0
124,288,32521,1,0
164,256,32624,1,0
196,220,32728,1,0
212,172,32831,1,8
220,124,32935,1,0
212,76,33038,1,0
180,36,33142,1,0
136,12,33245,6,0,B|248:36|348:24,1,200,4|8
440,24,33866,1,0
388,108,34073,2,0,B|344:148|312:224,1,100
292,280,34486,2,0,B|260:332|208:360,1,100,8|8
200,252,34900,2,0,B|196:196|140:152,2,100,4|0|8
100,252,35521,1,0
0,244,35728,2,0,B|0:312|64:348,2,100,0|0|8
100,252,36348,1,0
56,164,36555,5,4
116,88,36762,1,8
144,48,36866,1,0
176,12,36969,1,0
224,100,37176,1,8
308,152,37383,1,4
308,152,37486,1,0
308,152,37590,1,8
308,152,37693,1,0
308,152,37797,1,0
392,204,38004,1,8
304,248,38210,6,0,B|256:216|208:208,1,100,4|0
228,256,38521,2,0,B|176:232|104:228,1,100,8|0
80,228,38831,1,8
60,324,39038,2,0,B|164:304|284:304,1,200,4|4
308,304,39555,1,0
356,312,39659,1,0
404,324,39762,1,0
452,340,39866,6,0,B|480:276|468:208,1,100,4|0
380,200,40279,2,0,B|400:128|384:76,1,100,8|0
468,40,40693,1,0
389,101,40900,1,0
292,120,41107,1,8
192,112,41314,1,0
148,92,41417,1,0
112,60,41521,1,4
64,148,41728,2,0,B|112:184|180:204,1,100,0|8
252,216,42142,1,0
184,288,42348,6,0,B|144:308|116:344,2,50
284,308,42762,1,8
324,276,42866,1,0
352,236,42969,1,0
372,188,43073,1,0
372,140,43176,6,0,B|424:164|469:157,1,100,4|0
280,104,43590,2,0,B|232:76|164:72,1,100,8|0
84,72,44004,1,0
136,156,44210,1,0
84,72,44417,1,8
32,156,44624,1,0
88,240,44831,6,0,B|192:248|304:304,1,200,4|0
364,348,45452,1,0
279,292,45659,2,0,B|328:188|424:144,1,200,4|0
452,56,46279,5,0
404,48,46383,1,0
356,52,46486,2,0,B|308:64|256:48,1,100,4|0
156,40,46900,2,0,B|96:40|48:64,1,100,8|0
76,156,47314,5,0
216,212,47521,1,0
68,248,47728,1,8
168,140,47935,1,0
316,108,48142,5,0
396,168,48348,1,0
428,204,48452,1,0
452,248,48555,1,8
488,340,48762,1,0
392,316,48969,1,0
352,288,49073,1,0
304,272,49176,1,8
256,268,49279,1,0
208,276,49383,1,0
120,324,49590,1,0
208,276,49797,6,0,B|220:208|184:140,1,100,4|0
84,52,50210,2,0,B|72:104|104:160,1,100,8|0
172,80,50624,2,0,B|212:52|268:44,1,100,8|8
364,60,51038,1,0
440,124,51245,1,0
480,32,51452,5,4
216,176,51762,1,8
480,32,52073,1,8
432,224,52486,5,8
384,216,52590,1,0
336,224,52693,1,0
288,244,52797,1,0
248,272,52900,1,0
216,312,53004,1,0
200,360,53107,6,0,B|148:316|80:304,1,100,4|0
40,240,53521,2,0,B|72:192|160:200,1,100,8|0
188,120,53935,2,0,B|144:96|136:40,2,100,8|0|0
284,140,54555,1,0
384,144,54762,5,4
328,228,54969,1,0
424,200,55176,1,8
372,284,55383,1,8
280,324,55590,1,0
280,324,55693,1,0
280,324,55797,1,0
180,324,56004,1,8
144,292,56107,1,0
112,256,56210,1,0
80,220,56314,1,0
44,184,56417,6,0,B|104:176|168:140,1,100,4|0
232,120,56831,2,0,B|248:68|232:12,1,100,8|0
148,68,57245,2,0,B|376:68,1,200,4|8
348,68,57866,1,0
408,148,58073,5,8
436,192,58176,1,0
440,240,58279,1,0
340,224,58486,1,8
320,272,58590,1,0
280,304,58693,1,0
216,228,58900,1,0
164,228,59004,1,0
120,208,59107,1,0
80,176,59210,1,0
64,128,59314,1,8
64,28,59521,1,0
256,192,59728,12,0,60969
256,28,61383,5,2
256,28,61486,1,0
256,28,61590,1,0
152,200,61797,1,2
152,200,61900,1,0
152,200,62004,1,0
352,200,62210,1,2
352,200,62314,1,0
352,200,62417,1,2
352,200,62521,1,0
352,200,62624,1,0
64,328,63038,5,2
64,328,63141,1,0
64,328,63245,1,0
256,264,63452,1,2
256,264,63555,1,0
256,264,63659,1,0
444,332,63865,1,2
444,332,63969,1,0
444,332,64072,1,2
444,332,64176,1,0
444,332,64279,5,0
412,292,64383,1,0
388,248,64486,1,2
384,196,64590,1,0
388,148,64693,2,0,B|396:100|432:52,1,100,4|0
332,24,65107,2,0,B|320:72|276:120,1,100,8|0
220,188,65521,2,0,B|144:260|80:376,1,200,0|8
97,345,66142,1,0
32,272,66348,5,4
432,240,66762,1,0
44,136,67176,1,4
444,104,67590,1,4
256,192,68004,12,0,70486
60,312,71314,6,0,B|96:264|168:232,1,100,4|0
236,236,71728,1,8
312,172,71935,1,0
384,236,72142,2,0,B|400:292|440:336,1,100
407,139,72555,2,0,B|392:88|367:48,1,100,8|0
324,24,72866,1,0
276,16,72969,1,4
176,36,73176,1,0
100,104,73383,2,0,B|56:148,2,50,0|0|0
144,196,73797,1,8
136,244,73900,1,0
152,292,74004,1,0
188,324,74107,1,0
232,344,74210,1,8
332,348,74417,1,0
428,324,74624,5,4
472,128,75038,2,0,B|424:96|372:80,1,100,8|0
284,64,75452,1,0
236,60,75555,1,0
184,64,75659,1,0
136,80,75762,1,0
92,108,75866,1,8
108,308,76279,5,4
12,132,76693,2,0,B|48:72|92:52,1,100,8|0
176,36,77107,1,0
224,36,77210,1,0
272,44,77314,1,0
320,56,77417,1,0
368,76,77521,1,8
440,264,77935,6,0,B|324:256|220:296,1,200,4|4
100,332,78969,1,0
48,192,79176,1,4
108,56,79383,1,0
256,64,79590,5,8
304,64,79693,1,0
352,76,79797,1,0
396,96,79900,1,0
436,124,80004,1,0
436,224,80210,1,8
432,324,80417,5,8
380,328,80521,1,0
332,328,80624,1,0
284,320,80728,1,0
236,300,80831,1,0
192,272,80935,1,0
156,236,81038,1,0
124,196,81142,1,0
108,148,81245,6,0,B|176:148|224:112,1,100,4|0
291,0,81659,2,0,B|236:0|195:22,1,100,8|0
268,92,82073,2,0,B|304:120|376:116,1,100,0|0
464,112,82486,1,8
412,196,82693,1,0
376,232,82797,1,0
344,268,82900,1,0
272,336,83107,1,0
372,336,83314,1,8
272,336,83521,1,0
172,336,83728,2,0,B|60:320|24:184,1,200,8|4
124,32,84555,5,4
32,208,84969,2,0,B|76:244|140:260,1,100,8|0
220,276,85383,1,0
268,280,85486,1,0
320,276,85590,1,0
368,264,85693,1,0
416,244,85797,1,8
380,48,86210,5,4
416,244,86624,2,0,B|372:296|324:312,1,100,8|0
240,328,87038,1,0
188,328,87142,1,0
140,320,87245,1,0
96,300,87348,1,0
56,268,87452,1,8
20,176,87659,1,0
68,88,87866,5,8
68,88,87969,1,0
68,88,88073,1,0
216,60,88279,2,0,B|216:8,2,50,8|0|0
364,84,88693,1,0
320,108,88797,1,0
276,132,88900,1,0
240,168,89004,1,0
220,212,89107,1,8
200,312,89314,1,4
300,312,89521,5,8
300,312,89624,1,0
300,312,89728,1,0
416,216,89935,2,0,B|480:216,2,50,8|0|0
428,68,90348,1,8
380,60,90452,1,0
332,56,90555,1,0
280,56,90659,1,0
232,64,90762,1,0
136,96,90969,1,4
36,112,91176,6,0,B|116:136|184:204,1,150,0|8
268,296,91797,1,8
168,296,92004,2,0,B|180:200|296:188,1,150,0|8
412,196,92624,1,8
424,96,92831,2,0,B|356:104|312:168,1,100
264,212,93245,5,8
232,248,93348,1,0
188,272,93452,1,0
140,276,93555,1,0
92,264,93659,1,8
92,64,94073,2,0,B|152:116|272:96,1,150,4|4
