osu file format v9

[General]
AudioFilename: Sakakibara Yui - Furu Furu.mp3
AudioLeadIn: 0
PreviewTime: 47916
Countdown: 0
SampleSet: Soft
StackLeniency: 0.3
Mode: 0
LetterboxInBreaks: 0

[Editor]
DistanceSpacing: 1
BeatDivisor: 4
GridSize: 8

[Metadata]
Title:Furu Furu (Short Ver.)
Artist:Sakakibara Yui
Creator:osuplayer111
Version:Hard
Source:Furufuru Full Moon
Tags:Hentai Game Little Princess kanpakyin

[Difficulty]
HPDrainRate:7
CircleSize:4
OverallDifficulty:8
ApproachRate:8
SliderMultiplier:1.8
SliderTickRate:0.5

[Events]
//Background and Video events
0,0,"this is moe.jpg"
Video,2635,"Furufuru Full Moon OP.avi"
//Break Periods
//Storyboard Layer 0 (Background)
//Storyboard Layer 1 (Fail)
//Storyboard Layer 2 (Pass)
//Storyboard Layer 3 (Foreground)
//Storyboard Sound Samples
//Background Colour Transformations
3,100,0,128,255

[TimingPoints]
3010,375,4,2,1,80,1,0
8635,-200,4,1,1,50,0,0
9010,-100,4,2,1,100,0,0
33010,-133.333333333333,4,2,1,100,0,0
42010,-100,4,2,1,100,0,0
47635,-100,4,2,1,60,0,0
47728,-100,4,2,1,70,0,0
47822,-100,4,2,1,80,0,0
47916,-100,4,2,1,90,0,0
48010,-100,4,2,1,100,0,1
59916,-100,4,2,1,100,0,0
60010,-100,4,2,1,100,0,1
72010,-100,4,2,1,100,0,0
74822,-100,4,2,1,100,0,1
83916,-100,4,2,1,100,0,0
84010,-100,4,2,1,100,0,1
96010,-100,4,2,1,100,0,0

[Colours]
Combo1 : 79,167,255
Combo2 : 255,255,106
Combo3 : 164,72,255
Combo4 : 255,106,255

[HitObjects]
48,104,3010,2,0,B|144:152|208:64,1,180,2|0
256,144,3572,1,0
320,80,3760,2,0,B|384:144,1,90
472,176,4135,2,0,B|400:240,1,90,0|2
328,288,4510,2,0,B|232:248|168:328,1,180,2|0
104,264,5072,6,0,B|56:248|48:200,1,90
88,72,5447,2,0,B|136:88|144:136,1,90
184,216,5822,1,2
184,216,6010,2,0,B|272:192|312:96,1,180,2|0
400,128,6572,2,0,B|496:160,1,90
456,240,6947,2,0,B|360:208,1,90
344,296,7322,6,0,B|264:336|168:328,1,180,2|0
104,272,7885,1,2
160,200,8072,1,0
80,160,8260,1,0
210,36,8635,6,0,B|306:36,1,90,0|4
464,112,9385,1,8
464,112,9572,2,0,B|368:112|304:184,1,180,2|2
232,240,10135,1,8
192,328,10322,2,0,B|288:328|352:256,1,180,2|2
304,184,10885,1,8
200,32,11260,5,0
96,120,11447,1,2
224,160,11635,1,2
312,320,12010,6,0,B|408:368|480:288,1,180,4|8
456,160,12572,2,0,B|360:112|288:192,1,180,2|2
292,187,13135,1,8
232,264,13322,2,0,B|160:304|128:232|56:264,1,180,2|2
58,263,13885,1,8
64,48,14260,5,4
256,344,14635,1,4
448,48,15010,6,0,B|480:144|416:224,1,180,4|8
296,208,15572,2,0,B|264:112|328:32,1,180,2|2
371,127,16135,1,8
355,272,16322,6,0,B|275:344|187:280,1,180,2|2
48,152,16885,2,0,B|128:80|216:144,1,180,8|0
191,282,17447,1,2
211,141,17635,1,2
472,80,18010,6,0,B|376:48|304:128,1,180,4|8
328,208,18572,2,0,B|424:240|496:160,1,180,2|2
80,112,19322,6,0,B|8:192|80:272,1,180,2|2
168,272,19885,1,0
216,192,20072,1,2
168,112,20260,1,4
128,192,20635,5,8
240,48,21010,5,4
312,104,21197,1,0
376,40,21385,2,0,B|456:104,1,90,8|0
424,184,21760,2,0,B|368:272|264:224,1,180,0|8
192,184,22322,2,0,B|112:248,1,90,0|2
56,296,22697,1,0
120,352,22885,1,8
192,296,23072,2,0,B|368:352,1,180,0|0
400,264,23635,6,0,B|384:216|424:184,1,90,8|0
496,128,24010,2,0,B|408:64|336:144,1,180,2|8
280,216,24572,1,0
248,136,24760,2,0,B|160:160,1,90
72,144,25135,1,8
120,64,25322,2,0,B|296:16,1,180
293,16,25885,1,8
384,168,26260,2,0,B|336:88,2,90,0|0|8
448,336,27010,6,0,B|416:304|360:304,1,90,4|0
288,344,27385,1,8
232,280,27572,2,0,B|128:256|128:152,1,180
128,152,28135,2,0,B|208:112,1,90,8|0
208,24,28510,2,0,B|128:64,1,90,2|0
208,112,28885,1,8
284,68,29072,2,0,B|332:148|444:116,1,180
472,200,29635,6,0,B|392:288,1,90,8|0
352,336,30010,2,0,B|280:272|280:176,1,180,2|8
152,304,30760,1,0
80,248,30947,1,0
120,168,31135,1,8
48,112,31322,1,0
208,32,31697,1,0
280,88,31885,2,0,B|472:88,2,180,8|2|8
368,192,33010,6,0,B|416:256|368:320,1,134.999995976687,4|8
240,352,33760,1,8
240,352,33947,2,0,B|168:352|120:296,1,134.999995976687,0|2
40,184,34697,1,8
80,128,34885,2,0,B|144:160|216:128,1,134.999995976687,2|8
272,96,35447,2,0,B|272:56|304:40,1,67.4999979883433,2|8
368,64,35822,1,0
432,88,36010,6,0,B|448:160|376:200,1,134.999995976687,4|2
312,232,36572,1,0
248,264,36760,2,0,B|232:336|304:376,1,134.999995976687,8|2
303,375,37322,1,8
416,304,37697,1,8
360,176,38072,1,2
360,176,38260,2,0,B|224:176,1,134.999995976687,8|8
88,176,39010,6,0,B|88:104|152:64,1,134.999995976687,4|8
288,64,39760,1,8
288,64,39947,2,0,B|424:64,1,134.999995976687,2|8
488,184,40697,1,2
488,184,40885,2,0,B|448:240|368:224,1,134.999995976687,0|8
367,223,41447,1,0
367,223,41635,1,8
224,328,42010,6,0,B|136:296|96:208,1,180,4|8
48,128,42572,1,4
200,40,42947,2,0,B|248:16|288:48,1,90,2|8
320,128,43322,2,0,B|392:192|488:144,1,180,2|8
408,88,43885,1,2
408,88,44072,1,0
384,264,44447,5,2
336,344,44635,1,8
256,304,44822,1,0
304,224,45010,2,0,B|208:112|56:168,1,270,4|4
216,80,45947,1,8
296,32,46135,1,8
464,192,46510,5,4
424,320,46697,1,2
304,288,46885,1,2
344,160,47072,1,4
144,320,47635,5,2
160,296,47728,1,0
176,272,47822,1,0
192,248,47916,1,0
208,224,48010,1,4
248,144,48197,2,0,B|296:64,1,90,0|8
344,160,48572,2,0,B|440:160,1,90
296,232,48947,2,0,B|344:312,1,90,0|8
430,322,49322,6,0,B|502:242|430:154,1,180,2|0
344,160,49885,1,8
256,160,50072,2,0,B|188:242|260:322,2,180,2|0|0
299,80,51010,1,2
387,80,51197,1,0
344,160,51385,1,8
168,160,51760,5,0
125,80,51947,1,2
213,80,52135,1,8
256,160,52322,2,0,B|224:256|104:240,1,180,4|8
32,200,52885,1,0
32,288,53072,2,0,B|64:384|184:368,1,180,2|0
264,368,53635,1,8
392,304,53822,6,0,B|456:224,1,90,0|4
456,72,54197,2,0,B|400:152,1,90,0|8
248,208,54572,2,0,B|312:128,1,90,0|0
304,137,54947,1,0
404,145,55135,1,8
448,233,55322,1,2
176,56,55697,5,0
88,80,55885,1,8
112,168,56072,1,0
200,144,56260,2,0,B|280:88|376:128,1,180,2|8
384,304,57010,6,0,B|304:360|208:320,1,180,4|8
212,321,57572,1,4
371,126,57947,1,8
296,226,58135,1,8
212,321,58322,1,4
40,280,58697,6,0,B|16:184|96:120,1,180,4|8
152,192,59260,1,4
256,40,59635,1,8
360,192,60010,5,4
408,120,60197,2,0,B|464:48,1,90,0|8
448,192,60572,2,0,B|544:192,1,90,0|2
408,264,60947,2,0,B|464:336,1,90,0|8
360,192,61322,2,0,B|168:192,1,180,2|0
88,192,61885,1,8
136,112,62072,2,0,B|320:112,2,180,2|0|0
48,112,63010,2,0,B|-24:192|48:272,1,180,2|8
48,272,63572,1,4
208,352,63947,5,2
256,272,64135,1,0
304,352,64322,2,0,B|360:272|464:288,1,180,4|8
432,200,64885,1,0
376,128,65072,2,0,B|320:208|216:192,1,180,4|0
128,192,65635,6,0,B|80:192|48:152,1,90,8|0
88,72,66010,2,0,B|136:72|168:112,1,90,4|0
256,112,66385,1,8
336,72,66572,2,0,B|416:24,1,90
464,96,66947,2,0,B|384:144,1,90,0|8
312,184,67322,2,0,B|312:280|416:320,1,180,4|0
412,318,67885,1,8
240,320,68072,5,2
128,344,68260,1,0
104,232,68447,1,2
216,208,68635,1,8
172,276,68822,1,2
144,152,69010,6,0,B|200:80|256:71|312:80|368:152,2,270,4|2|4
384,320,70697,1,8
256,192,71072,1,0
256,192,71260,1,8
128,320,71635,1,8
64,152,72010,5,4
256,40,73322,1,4
448,152,74072,1,4
256,40,74447,1,4
64,152,74822,1,4
168,152,75010,2,0,B|360:152,1,180,0|8
160,264,75760,5,0
212,336,75947,1,2
300,336,76135,1,8
352,264,76322,2,0,B|304:176|344:88,1,180,4|0
256,48,76885,1,8
169,90,77072,2,0,B|208:176|160:264,1,180,2|0
120,344,77635,6,0,B|224:344,1,90,8|0
256,264,78010,1,4
392,344,78197,2,0,B|288:344,1,90,0|8
336,264,78572,2,0,B|336:208|392:208,1,90
176,264,78947,2,0,B|176:208|120:208,1,90,0|8
256,264,79322,2,0,B|256:80,1,180,2|0
176,40,79885,1,8
256,84,80072,1,0
336,40,80260,1,2
256,344,80635,5,8
136,216,81010,1,4
176,40,81385,1,8
176,40,81572,2,0,B|224:80|256:84|288:80|336:40,1,180,4|2
336,39,82135,1,0
336,39,82322,1,8
376,216,82697,1,4
256,344,83072,1,8
256,344,83260,2,0,B|256:160,1,180,4|4
88,80,84010,6,0,B|176:112,1,90,4|0
32,192,84385,2,0,B|120:192,1,90,8|0
88,304,84760,2,0,B|176:272,1,90,2|0
208,192,85135,1,8
296,192,85322,6,0,B|336:280|440:280,1,180,2|0
464,192,85885,1,8
440,103,86072,2,0,B|336:104|296:192,1,180,2|0
216,352,86822,1,0
216,352,87010,2,0,B|32:352,1,180,2|8
36,352,87572,1,4
40,176,87947,5,2
104,112,88135,1,8
168,176,88322,2,0,B|248:136|272:32,1,180,2|0
360,64,88885,1,8
432,120,89072,2,0,B|352:160|328:264,1,180,2|0
240,240,89635,1,8
152,360,89822,5,0
104,224,90010,1,4
56,360,90197,1,0
168,280,90385,1,8
40,280,90572,1,0
152,360,90760,1,0
104,224,90947,1,0
56,360,91135,1,8
168,280,91322,1,2
128,104,91697,6,0,B|160:144|208:128,1,90,0|8
264,56,92072,1,0
352,88,92260,1,2
424,40,92447,1,0
488,104,92635,2,0,B|472:152|416:160,1,90,8|0
344,200,93010,1,4
464,336,93385,5,8
464,336,93572,2,0,B|400:264|296:288,1,180,4|0
48,335,94135,2,0,B|112:264|211:287,1,180,4|0
168,200,94697,2,0,B|144:152|168:112,1,90,8|0
344,200,95072,2,0,B|368:152|344:112,1,90,0|8
256,152,95635,1,8
256,40,96010,5,4
256,344,96385,1,8
256,344,96572,2,0,B|352:312|384:216,1,180,2|2
320,160,97135,1,8
256,96,97322,1,2
130,224,97697,1,2
192,160,97885,1,8
176,304,98260,5,2
336,304,98447,1,2
256,192,98635,1,2
40,152,99010,6,0,B|72:56|168:32,1,180,4|8
256,32,99572,1,2
384,176,99947,1,2
448,240,100135,1,8
472,152,100322,2,0,B|440:56|344:32,1,180,2|2
256,32,100885,1,8
48,352,101260,5,4
464,352,101635,1,4
256,136,102010,6,0,B|256:320,1,180,4|8
256,316,102572,1,2
128,192,102947,1,2
48,152,103135,1,8
128,104,103322,1,2
384,104,103697,1,2
464,152,103885,1,8
128,192,104260,5,2
256,320,104447,1,2
384,192,104635,1,2
208,32,105010,6,0,B|136:112|216:192,1,180,4|8
297,190,105572,2,0,B|376:112|304:32,1,180,2|2
256,320,106322,5,2
128,192,106697,1,0
184,72,106885,1,2
328,72,107072,1,0
384,192,107260,1,4
256,144,107822,5,2
88,272,108197,1,0
184,360,108385,1,2
328,360,108572,1,0
424,272,108760,1,4
256,232,109322,5,2
104,144,109697,1,0
184,40,109885,1,2
328,40,110072,1,0
408,144,110260,1,4
256,320,110635,1,2
256,144,111010,5,4
256,8,111197,1,2
472,192,111572,1,2
40,192,111947,1,2
120,296,112135,1,0
256,320,112322,1,2
392,296,112510,1,4
472,192,112697,1,2
256,74,113072,1,6
