osu file format v9

[General]
AudioFilename: 19 Short Ver.mp3
AudioLeadIn: 2000
PreviewTime: 59094
Countdown: 1
SampleSet: Soft
StackLeniency: 0.7
Mode: 0
LetterboxInBreaks: 1

[Editor]
DistanceSpacing: 0.8
BeatDivisor: 4
GridSize: 8

[Metadata]
Title:Farfalla of Fate
Artist:Sakakibara Yui
Creator:PSPDS Eddie
Version:Normal
Source:Steins;Gate
Tags:Patchouli

[Difficulty]
HPDrainRate:3
CircleSize:4
OverallDifficulty:3
ApproachRate:3
SliderMultiplier:0.999999999999999
SliderTickRate:1

[Events]
//Background and Video events
0,0,"EddieBG.JPG"
//Break Periods
2,9871,17461
2,131025,136308
//Storyboard Layer 0 (Background)
//Storyboard Layer 1 (Fail)
//Storyboard Layer 2 (Pass)
//Storyboard Layer 3 (Foreground)
//Storyboard Sound Samples
//Background Colour Transformations
3,100,163,162,255

[TimingPoints]
440.443729722231,384.615384615385,3,2,2,70,1,0
58310,-100,3,1,0,60,0,0
60328,-100,3,2,2,60,0,0
77632,-100,3,1,0,60,0,0
78785,-100,3,2,2,70,0,0
105605,-100,3,1,0,60,0,0
106546,-100,3,2,2,70,0,0
126498,-100,3,1,0,60,0,0
127267,-100,3,2,2,70,0,0
156113,-100,3,1,0,60,0,0
157267,-100,3,2,2,70,0,0
175921,-100,3,2,0,5,0,0

[HitObjects]
200,192,440,2,0,B|240:240|304:224,1,99.9999999999999,2|0
288,146,1209,2,0,B|336:106|392:122,2,99.9999999999999,2|0|2
288,226,2363,1,2
256,304,2748,6,0,B|144:304,1,99.9999999999999,2|0
80,288,3517,2,0,B|72:224|120:200,1,99.9999999999999,2|0
120,120,4286,1,2
120,120,4671,1,2
200,120,5055,6,0,B|312:120,2,99.9999999999999,2|0|2
200,200,6209,1,0
256,256,6594,1,2
312,200,6978,1,2
392,200,7363,6,0,B|448:216|488:264,2,99.9999999999999,0|2|2
352,128,8517,2,0,B|272:64|152:96,1,200,2|2
162,93,9671,1,4
256,128,18901,6,0,B|384:120|432:216,1,200
392,280,20055,1,0
312,280,20440,1,2
232,280,20825,1,2
152,280,21209,6,0,B|112:184|152:80,2,200,0|0|2
232,280,23132,1,2
312,280,23517,2,0,B|344:184|304:80,1,200
224,88,24671,1,0
224,168,25055,1,2
224,248,25440,1,2
224,328,25825,6,0,B|96:328|64:224,1,200
40,152,26978,2,0,B|16:96|40:40,2,99.9999999999999,0|2|2
120,168,28132,6,0,B|232:128|264:24,2,200,4|0|2
168,232,30055,1,2
240,200,30440,2,0,B|344:144|368:40,2,200,4|0|2
176,240,32363,1,2
240,280,32748,6,0,B|360:280|408:176,1,200,4|0
408,104,33901,2,0,B|464:80|472:24,2,99.9999999999999,0|2|2
328,80,35055,1,0
256,120,35440,1,2
184,80,35825,1,2
104,80,36209,6,0,B|80:160|112:240,1,150,4|4
224,232,37363,1,4
304,232,37748,6,0,B|352:232,2,50,2|0|2
224,232,38517,2,0,B|208:288|144:304,2,99.9999999999999,2|2|2
224,152,39671,2,0,B|304:88|424:96,1,200,2|2
472,152,40825,1,0
472,232,41209,1,2
408,280,41594,2,0,B|344:280|296:240,1,99.9999999999999,2|4
240,280,42363,6,0,B|208:240|216:184,1,99.9999999999999,2|2
296,160,43132,2,0,B|240:64|128:64,1,200,2|2
131,144,44286,2,0,B|67:152|35:200,1,99.9999999999999,2|0
72,264,45055,2,0,B|24:296,2,50,2|0|2
152,264,45825,1,2
232,264,46209,1,2
296,312,46594,6,0,B|328:208|424:160,1,200,4|2
392,88,47748,2,0,B|336:112|280:88,1,99.9999999999999,4|2
256,112,48325,2,0,B|248:160|200:192,1,99.9999999999999,4|2
256,192,48901,12,4,50055
256,192,50632,6,0,B|256:128,2,50,2|2|2
256,232,51209,2,0,B|136:232|96:136,1,200,2|2
136,64,52363,1,0
216,64,52748,1,2
216,144,53132,2,0,B|280:144,1,50
304,144,53517,6,0,B|416:144,2,99.9999999999999,2|0|2
304,224,54671,2,0,B|416:224,2,99.9999999999999,2|0|2
304,304,55825,2,0,B|200:336|96:304,1,200,4|2
104,224,56978,2,0,B|104:120,2,99.9999999999999,4|0|2
184,224,58132,2,0,B|296:224,2,99.9999999999999
184,144,59286,2,0,B|251:86|280:96,2,99.9999999999999
184,224,60440,6,0,B|184:272|248:304,1,99.9999999999999,0|2
320,320,61209,1,2
400,296,61594,2,0,B|328:232|352:152,1,150,4|4
376,48,62748,5,0
296,48,63132,1,2
296,128,63517,1,2
216,128,63901,5,0
216,48,64286,1,2
136,48,64671,1,2
136,128,65055,6,0,B|80:112|16:120,2,99.9999999999999,0|2|2
136,208,66209,2,0,B|112:256|144:320,1,99.9999999999999,0|2
216,304,66978,2,0,B|216:256,2,50,2|0|2
296,304,67748,1,2
296,224,68132,1,2
296,144,68517,5,0
256,72,68901,1,2
216,144,69286,1,2
256,72,69671,6,0,B|376:56|448:128,1,200,4|4
488,192,70825,2,0,B|448:312|336:328,1,200,4|4
272,328,71978,2,0,B|160:328,2,99.9999999999999,0|2|2
272,248,73132,2,0,B|168:248,2,99.9999999999999,0|2|2
272,168,74286,6,0,B|256:72|168:40,1,150,4|4
104,136,75440,1,4
48,192,75825,1,2
104,248,76209,1,2
160,192,76594,6,0,B|200:224|256:216,2,99.9999999999999,0|2|2
104,136,77748,2,0,B|16:200,2,99.9999999999999
176,96,78901,6,0,B|264:24|376:56,1,200,0|2
424,104,80055,2,0,B|368:192|256:200,1,200,0|2
176,200,81209,2,0,B|64:200,2,99.9999999999999,0|2|2
176,280,82363,2,0,B|272:328|384:264,1,200,0|2
344,192,83517,6,0,B|448:160|480:48,1,200,4|4
400,56,84671,2,8,B|328:120|208:72,1,200,8|8
152,128,85825,1,0
216,176,86209,1,2
152,232,86594,1,2
216,280,86978,6,0,B|160:336|64:336,2,150,4|4|4
296,256,88517,1,2
376,280,88901,1,2
296,256,89286,2,0,B|296:152,1,99.9999999999999,0|2
296,156,90055,1,2
215,156,90440,2,0,B|95:156,2,99.9999999999999,0|2|2
295,156,91594,6,0,B|304:64|376:24,1,150,2|2
472,80,92748,2,0,B|504:128|496:184,1,99.9999999999999,0|2
488,216,93325,2,0,B|456:304|384:320,1,150,2|0
328,264,94286,1,2
272,320,94671,1,2
216,264,95055,6,4,B|120:256|80:176,2,150
216,144,96786,2,4,B|304:136|360:200,1,150,4|4
464,192,98132,5,2
464,192,98517,2,4,B|464:104|392:48,1,150,6|6
288,72,99671,2,4,B|288:152|368:208,2,150,6|6|6
128,72,101594,6,0,B|64:72,2,50,2|0|6
240,112,102555,2,4,B|160:112|112:192,1,150,4|6
128,272,103517,1,2
200,232,103901,2,0,B|248:264|253:314,2,99.9999999999999,0|0|2
256,176,105055,1,0
256,96,105440,1,4
176,96,105825,2,0,B|72:96,2,99.9999999999999,0|0|4
256,96,106978,5,0
336,96,107363,1,2
296,168,107748,2,0,B|200:224|88:192,1,200,0|2
96,272,108901,6,0,B|200:304|312:272,1,200,0|2
293,276,110055,1,12
432,192,110825,6,0,B|432:312,2,99.9999999999999,2|0|2
432,112,111978,1,2
352,112,112363,2,0,B|352:224,2,99.9999999999999,2|2|2
272,112,113517,6,0,B|264:200|184:232,1,150,4|4
80,192,114671,1,0
80,112,115055,1,2
80,192,115440,2,0,B|80:256,2,50,0|2|12
256,192,116017,12,12,118132
256,192,118901,5,2
176,192,119286,1,0
256,192,119671,1,2
336,192,120055,2,0,B|440:192,2,99.9999999999999,2|0|2
256,192,121209,1,2
256,272,121594,2,0,B|184:272,1,50
168,272,121978,2,0,B|104:272,2,50,2|0|2
176,192,122748,6,4,B|120:120|160:40,2,150
256,96,124478,2,0,B|288:160|256:208,1,99.9999999999999,4|4
256,232,125055,2,0,B|224:280|168:296,2,99.9999999999999,0|2|2
328,192,126209,1,12
328,112,126594,6,0,B|432:112,2,99.9999999999999,0|0|12
256,192,127555,12,12,130825
256,240,137748,6,0,B|216:280|160:288,2,99.9999999999999
256,160,138902,2,0,B|200:160|160:120,1,99.9999999999999,0|2
88,160,139671,1,2
40,224,140056,2,0,B|16:280|48:328,2,99.9999999999999,0|2|2
88,160,141210,5,0
120,88,141594,1,2
192,56,141979,1,2
192,136,142363,5,0
264,96,142748,1,2
296,24,143133,1,2
352,88,143517,6,0,B|408:104|472:96,2,99.9999999999999,0|2|2
352,168,144671,2,0,B|376:216|344:280,1,99.9999999999999,0|2
270,264,145440,2,0,B|270:312,2,50,2|0|2
272,184,146210,1,2
200,224,146594,1,2
120,224,146979,5,0
56,264,147363,1,2
56,184,147748,1,2
56,104,148133,6,0,B|168:112|248:48,1,200,4|4
280,120,149287,2,0,B|384:88|472:144,1,200,4|4
471,223,150440,2,0,B|471:335,2,99.9999999999999,0|2|2
392,224,151594,2,0,B|392:336,2,99.9999999999999,0|2|2
312,224,152748,6,0,B|216:240|184:328,1,150,4|4
152,192,153902,1,4
72,192,154287,1,2
72,112,154671,1,2
152,112,155056,6,0,B|192:80|248:88,2,99.9999999999999,0|2|2
152,192,156210,2,0,B|152:304,2,99.9999999999999
232,192,157363,6,0,B|320:120|432:152,1,200,0|2
448,224,158517,2,0,B|392:312|280:320,1,200,0|2
200,320,159671,2,0,B|88:320,2,99.9999999999999,0|2|2
200,240,160825,2,0,B|152:144|216:32,1,200,0|2
128,32,161979,6,0,B|80:128|112:232,1,200,4|4
136,304,163133,2,8,B|208:368|328:320,1,200,8|12
360,248,164287,1,0
296,192,164671,1,2
360,144,165056,1,2
296,88,165440,6,0,B|352:32|448:32,2,150,4|4|4
224,128,166979,1,2
144,104,167363,1,2
224,128,167748,2,0,B|224:232,1,99.9999999999999,0|2
224,228,168517,1,2
304,228,168902,2,0,B|424:228,2,99.9999999999999,0|2|2
223,228,170056,6,0,B|222:288|190:336,1,99.9999999999999,2|0
160,312,170633,2,0,B|120:280|48:288,1,99.9999999999999,2|0
65,286,171210,1,2
65,206,171594,5,2
65,206,171787,2,0,B|97:118|169:102,1,150,2|0
208,176,172748,1,2
256,112,173133,1,2
304,48,173517,6,4,B|400:56|440:136,2,150
344,160,175248,2,4,B|312:256|248:280,1,150,4|4
256,192,176017,12,0,180440
