osu file format v12

[General]
AudioFilename: Cocoro Root.mp3
AudioLeadIn: 0
PreviewTime: 74791
Countdown: 0
SampleSet: Soft
StackLeniency: 0.7
Mode: 0
LetterboxInBreaks: 0
WidescreenStoryboard: 0

[Editor]
DistanceSpacing: 0.9
BeatDivisor: 4
GridSize: 4

[Metadata]
Title:Cocoro Root
TitleUnicode:ココロルート
Artist:Sakakibara Yui
ArtistUnicode:榊原ゆい
Creator:BeatofIke
Version:Normal@Function!
Source:Cocoro@Function!
Tags:opening galgame galge eroge kokoro vn visual novel pulltop willplus ココロ@ファンクション!
BeatmapID:324412
BeatmapSetID:114076

[Difficulty]
HPDrainRate:4
CircleSize:3
OverallDifficulty:4
ApproachRate:5
SliderMultiplier:1.2
SliderTickRate:1

[Events]
//Background and Video events
Video,0,"Video@Function!.avi"
0,0,"BG@Function!.jpg",0,0
//Break Periods
2,24410,29362
//Storyboard Layer 0 (Background)
//Storyboard Layer 1 (Fail)
//Storyboard Layer 2 (Pass)
//Storyboard Layer 3 (Foreground)
//Storyboard Sound Samples
//Background Colour Transformations
3,100,163,162,255

[TimingPoints]
210.075498078565,428.571428571429,4,2,2,60,1,0
13924,-100,4,2,1,65,0,0
20781,-100,4,2,1,70,0,0
40710,-100,4,2,2,70,0,0
40924,-100,4,2,1,70,0,0
54424,-100,4,2,2,70,0,0
54638,-100,4,2,1,70,0,0
65567,-100,4,2,2,70,0,0
66210,-100,4,2,1,70,0,0
75638,-100,4,2,1,75,0,1
77567,-100,4,2,2,75,0,1
77781,-100,4,2,1,75,0,1
91281,-100,4,2,2,75,0,1
91495,-100,4,2,1,75,0,1
99638,-100,4,2,1,70,0,0
112495,-100,4,2,2,70,0,0
112924,-100,4,2,1,70,0,0
114210,-100,4,2,1,60,0,0
115067,-100,4,2,1,50,0,0
115924,-100,4,2,1,45,0,0
116781,-100,4,2,1,40,0,0
117210,-100,4,2,1,35,0,0
117638,-100,4,2,1,30,0,0
118067,-100,4,2,1,25,0,0
118495,-100,4,2,1,20,0,0
118924,-100,4,2,1,15,0,0
119352,-100,4,2,1,10,0,0
119781,-100,4,2,1,5,0,0

[Colours]
Combo1 : 32,176,223
Combo2 : 43,106,170
Combo3 : 25,217,243
Combo4 : 0,213,112

[HitObjects]
40,56,3638,2,0,L|132:44,1,90,2|0,0:0|0:0,0:0:0:0:
128,124,4281,2,0,L|220:112,1,90,2|0,0:0|0:0,0:0:0:0:
216,192,4924,2,0,L|284:184,1,60,2|0,0:0|0:0,0:0:0:0:
328,180,5352,6,0,L|420:168,1,90,2|0,0:0|0:0,0:0:0:0:
416,248,5995,2,0,L|508:236,2,90,2|0|2,0:0|0:0|0:0,0:0:0:0:
376,284,6852,1,2,0:0:0:0:
336,320,7067,6,0,L|216:336,1,120,2|0,0:0|0:0,0:0:0:0:
140,260,7924,2,0,L|260:244,1,120
312,148,8781,2,0,L|194:164,1,120,2|0,0:0|0:0,0:0:0:0:
116,87,9638,2,0,L|235:72,1,120,2|2,0:0|0:0,0:0:0:0:
256,192,10495,12,2,12210,0:0:0:0:
136,128,13924,5,6,0:0:0:0:
202,40,14352,1,8,0:0:0:0:
310,40,14781,1,0,0:0:0:0:
376,128,15210,1,8,0:0:0:0:
312,216,15638,2,0,P|256:234|200:216,2,120,2|8|0,0:0|0:0|0:0,0:0:0:0:
256,124,16924,1,8,0:0:0:0:
202,28,17352,5,2,0:0:0:0:
310,28,17781,1,8,0:0:0:0:
256,124,18210,1,0,0:0:0:0:
200,216,18638,6,0,L|172:268,1,60,10|2,0:0|0:0,0:0:0:0:
256,336,19281,2,0,L|256:276,2,60,2|10|2,0:0|0:0|0:0,0:0:0:0:
340,268,20138,2,0,L|312:216,1,60,2|8,0:0|0:0,0:0:0:0:
256,124,20781,1,4,0:0:0:0:
256,192,20995,12,2,24210,0:0:0:0:
256,192,31067,12,2,32781,0:0:0:0:
200,40,34495,5,4,0:0:0:0:
312,40,34924,1,8,0:0:0:0:
312,148,35352,2,0,P|256:166|200:147,1,120,0|8,0:0|0:0,0:0:0:0:
104,192,36210,1,0,0:0:0:0:
76,296,36638,1,8,0:0:0:0:
172,344,37067,2,0,L|228:364,1,60,2|0,0:0|0:0,0:0:0:0:
284,364,37495,2,0,L|340:344,1,60,8|0,0:0|0:0,0:0:0:0:
392,324,37924,6,0,P|410:268|392:212,1,120,2|8,0:0|0:0,0:0:0:0:
336,119,38781,2,0,P|392:101|448:120,1,120,0|8,0:0|0:0,0:0:0:0:
484,160,39424,1,0,0:0:0:0:
392,212,39852,2,0,P|360:228|328:224,1,60,0|8,0:0|0:0,0:0:0:0:
284,212,40281,2,0,P|232:136|252:56,1,180,0|8,0:0|0:0,0:0:0:0:
336,120,41352,5,2,0:0:0:0:
384,100,41567,2,0,L|440:76,2,60,0|8|0,0:0|0:0|0:0,0:0:0:0:
392,212,42424,2,0,L|448:188,2,60,0|8|0,0:0|0:0|0:0,0:0:0:0:
340,232,43067,2,0,P|296:272|236:272,1,120,2|8,0:0|0:0,0:0:0:0:
220,164,43924,2,0,P|248:172|268:204,2,60,0|0|8,0:0|0:0|0:0,0:0:0:0:
256,192,44781,12,2,46495,0:0:0:0:
312,344,48210,5,4,0:0:0:0:
200,344,48638,1,8,0:0:0:0:
200,236,49067,2,0,P|256:218|312:237,1,120,0|8,0:0|0:0,0:0:0:0:
408,192,49924,1,0,0:0:0:0:
436,88,50352,1,8,0:0:0:0:
340,40,50781,2,0,L|284:20,1,60,2|0,0:0|0:0,0:0:0:0:
228,20,51210,2,0,L|172:40,1,60,8|0,0:0|0:0,0:0:0:0:
120,60,51638,6,0,P|102:116|120:172,1,120,2|8,0:0|0:0,0:0:0:0:
176,265,52495,2,0,P|120:283|64:264,1,120,0|8,0:0|0:0,0:0:0:0:
28,224,53138,1,0,0:0:0:0:
120,172,53567,2,0,P|152:156|184:160,1,60,0|8,0:0|0:0,0:0:0:0:
228,172,53995,2,0,P|280:248|260:328,1,180,0|8,0:0|0:0,0:0:0:0:
176,264,55067,5,6,0:0:0:0:
128,284,55282,2,0,L|72:308,2,60,0|8|0,0:0|0:0|0:0,0:0:0:0:
120,172,56139,2,0,L|64:196,2,60,0|8|0,0:0|0:0|0:0,0:0:0:0:
172,152,56782,2,0,P|216:112|276:112,1,120,6|8,0:0|0:0,0:0:0:0:
292,220,57639,2,0,P|264:212|244:180,2,60,2|0|8,0:0|0:0|0:0,0:0:0:0:
256,192,58495,12,2,60210,0:0:0:0:
232,232,61924,5,4,0:0:0:0:
188,132,62352,1,8,0:0:0:0:
288,88,62781,1,0,0:0:0:0:
332,188,63210,1,8,0:0:0:0:
316,296,63638,2,0,P|268:332|208:336,1,120,2|8,0:0|0:0,0:0:0:0:
164,312,64281,2,0,P|136:276|132:200,1,120,2|2,0:0|0:0,0:0:0:0:
72,112,65138,6,0,B|120:84|184:88|224:148|224:148|272:104|272:104|336:112,1,300,2|0,0:0|0:0,0:0:0:0:
404,32,66638,2,0,L|468:40,1,60,8|2,0:0|0:0,0:0:0:0:
396,188,67495,2,0,L|460:196,1,60,8|2,0:0|0:0,0:0:0:0:
392,280,68138,2,0,L|332:272,1,60,2|8,0:0|0:0,0:0:0:0:
280,268,68567,1,0,0:0:0:0:
244,308,68781,6,0,P|200:348|140:352,1,120,4|8,0:0|0:0,0:0:0:0:
52,296,69638,2,0,P|96:256|156:252,1,120,0|8,0:0|0:0,0:0:0:0:
172,200,70281,2,0,L|180:140,1,60,0|4,0:0|0:0,0:0:0:0:
280,96,70924,2,0,L|272:156,1,60,8|2,0:0|0:0,0:0:0:0:
256,264,71567,1,2,0:0:0:0:
256,192,71995,12,2,73710,0:0:0:0:
48,36,74781,6,0,L|108:36,1,60,2|0,0:0|0:0,0:0:0:0:
152,68,75210,2,0,L|212:68,1,60,2|0,0:0|0:0,0:0:0:0:
256,36,75638,6,0,B|320:36|320:36|300:72|300:116|320:148,1,180,4|2,0:0|0:0,0:0:0:0:
412,92,76710,2,0,P|424:120|424:160,1,60,2|8,0:0|0:0,0:0:0:0:
412,200,77138,2,0,P|344:252|256:232,1,180,2|8,0:0|0:0,0:0:0:0:
204,232,77995,2,0,L|168:284,2,60,2|0|2,0:0|0:0|0:0,0:0:0:0:
232,184,78638,1,8,0:0:0:0:
280,88,79067,6,0,L|340:72,2,60,2|0|8,0:0|0:0|0:0,0:0:0:0:
228,96,79710,2,0,P|168:104|116:80,1,120,2|0,0:0|0:0,0:0:0:0:
68,104,80352,2,0,L|48:160,1,60,8|2,0:0|0:0,0:0:0:0:
96,256,80995,2,0,L|76:312,2,60,0|8|0,0:0|0:0|0:0,0:0:0:0:
116,204,81638,2,0,B|124:176|124:176|160:208|208:200,1,120,0|8,0:0|0:0,0:0:0:0:
256,296,82495,6,0,P|332:276|392:348,1,180,4|2,0:0|0:0,0:0:0:0:
464,264,83567,2,0,L|468:204,2,60,2|8|4,0:0|0:0|0:0,0:0:0:0:
384,192,84424,2,0,L|388:132,2,60,0|10|0,0:0|0:0|0:0,0:0:0:0:
300,124,85281,2,0,L|304:64,2,60,2|10|0,0:0|0:0|0:0,0:0:0:0:
256,192,85924,12,2,87424,0:0:0:0:
84,320,88495,6,0,L|144:320,1,60,2|0,0:0|0:0,0:0:0:0:
200,320,88924,2,0,L|260:320,1,60,10|0,0:0|0:0,0:0:0:0:
312,320,89352,6,0,B|368:320|368:320|444:320|464:256,1,180,4|2,0:0|0:0,0:0:0:0:
488,152,90424,2,0,L|500:92,1,60,2|8,0:0|0:0,0:0:0:0:
508,40,90852,2,0,P|424:68|340:40,1,180,2|8,0:0|0:0,0:0:0:0:
292,16,91710,1,2,0:0:0:0:
256,116,92138,2,0,L|236:172,1,60,2|8,0:0|0:0,0:0:0:0:
184,268,92781,6,0,P|256:280|336:216,1,180,4|4,0:0|0:0,0:0:0:0:
235,172,93852,1,2,0:0:0:0:
256,192,94281,12,8,95781,0:0:0:0:
176,76,96210,6,0,B|228:72|256:40|256:40|284:72|336:76,1,180,4|2,0:0|0:0,0:0:0:0:
308,180,97281,2,0,P|340:184|376:176,2,60,2|8|0,0:0|0:0|1:0,0:0:0:0:
203,180,98138,2,0,P|174:184|144:179,2,60,0|0|2,1:0|1:0|0:0,0:0:0:0:
256,276,98995,2,0,L|292:328,2,60,2|8|2,0:0|0:0|0:0,0:0:0:0:
200,272,99638,6,0,P|136:284|100:324,1,120,6|8,0:0|0:0,0:0:0:0:
76,372,100281,1,2,0:0:0:0:
28,276,100710,1,2,0:0:0:0:
44,224,100924,1,8,0:0:0:0:
60,172,101138,1,2,0:0:0:0:
76,120,101352,6,0,L|136:120,2,60,2|2|10,0:0|0:0|0:0,0:0:0:0:
60,68,101995,1,2,0:0:0:0:
164,40,102424,2,0,L|224:40,1,60,2|10,0:0|0:0,0:0:0:0:
276,40,102852,1,2,0:0:0:0:
332,40,103067,6,0,P|384:64|404:120,1,120,2|8,0:0|0:0,0:0:0:0:
428,220,103924,2,0,P|460:208|480:188,2,60,0|2|10,0:0|0:0|0:0,0:0:0:0:
408,272,104567,1,2,0:0:0:0:
388,324,104781,6,0,P|336:348|276:336,1,120,2|8,0:0|0:0,0:0:0:0:
236,236,105638,2,0,P|178:223|124:248,1,120,0|8,0:0|0:0,0:0:0:0:
104,300,106281,1,2,0:0:0:0:
84,352,106495,5,6,0:0:0:0:
24,264,106924,2,0,L|48:208,1,60,10|2,0:0|0:0,0:0:0:0:
104,120,107567,2,0,P|76:108|44:108,2,60,2|8|2,0:0|0:0|0:0,0:0:0:0:
140,160,108210,5,6,0:0:0:0:
176,120,108424,2,0,P|204:108|236:108,2,60,2|10|2,0:0|0:0|0:0,0:0:0:0:
224,216,109281,2,0,L|248:272,1,60,2|10,0:0|0:0,0:0:0:0:
268,320,109710,1,2,0:0:0:0:
320,320,109924,6,0,B|352:320|352:320|400:320|424:276,1,120,6|8,0:0|0:0,0:0:0:0:
440,172,110781,1,0,0:0:0:0:
444,120,110995,2,0,L|448:60,2,60,2|10|2,0:0|0:0|0:0,0:0:0:0:
440,172,111638,6,0,P|296:136|408:36,1,360,6|10,0:0|0:0,0:0:0:0:
448,60,113138,2,0,L|444:120,1,60,2|6,0:0|0:0,0:0:0:0:
256,192,113995,12,0,120210,0:0:0:0:
