osu file format v12

[General]
AudioFilename: Cocoro Root.mp3
AudioLeadIn: 0
PreviewTime: 74791
Countdown: 0
SampleSet: Soft
StackLeniency: 0.7
Mode: 0
LetterboxInBreaks: 0
WidescreenStoryboard: 0

[Editor]
DistanceSpacing: 1.5
BeatDivisor: 4
GridSize: 4

[Metadata]
Title:Cocoro Root
TitleUnicode:ココロルート
Artist:Sakakibara Yui
ArtistUnicode:榊原ゆい
Creator:BeatofIke
Version:Insane@Function!
Source:Cocoro@Function!
Tags:opening galgame galge eroge kokoro vn visual novel pulltop willplus ココロ@ファンクション!
BeatmapID:297108
BeatmapSetID:114076

[Difficulty]
HPDrainRate:7
CircleSize:4
OverallDifficulty:7
ApproachRate:9
SliderMultiplier:2
SliderTickRate:2

[Events]
//Background and Video events
Video,0,"Video@Function!.avi"
0,0,"BG@Function!.jpg",0,0
//Break Periods
//Storyboard Layer 0 (Background)
//Storyboard Layer 1 (Fail)
//Storyboard Layer 2 (Pass)
//Storyboard Layer 3 (Foreground)
//Storyboard Sound Samples
//Background Colour Transformations
3,100,163,162,255

[TimingPoints]
210.075498078565,428.571428571429,4,2,2,60,1,0
3852,-100,4,2,2,5,0,0
3960,-100,4,2,2,60,0,0
4495,-100,4,2,2,5,0,0
4602,-100,4,2,2,60,0,0
5567,-100,4,2,2,5,0,0
5674,-100,4,2,2,60,0,0
5781,-100,4,2,2,5,0,0
5995,-100,4,2,2,60,0,0
8138,-100,4,2,2,5,0,0
8352,-100,4,2,2,60,0,0
8995,-100,4,2,2,5,0,0
9210,-100,4,2,2,60,0,0
12424,-100,4,2,2,5,0,0
12531,-100,4,2,2,60,0,0
13067,-100,4,2,2,5,0,0
13174,-100,4,2,2,60,0,0
13924,-100,4,2,1,65,0,0
15852,-100,4,2,2,65,0,0
16067,-100,4,2,1,65,0,0
16710,-100,4,2,2,65,0,0
16924,-100,4,2,1,65,0,0
20781,-100,4,2,1,70,0,0
26138,-100,4,2,2,70,0,0
26352,-100,4,2,1,70,0,0
28495,-100,4,2,2,70,0,0
28710,-100,4,2,1,70,0,0
31281,-100,4,2,2,70,0,0
31495,-100,4,2,1,70,0,0
35567,-100,4,2,2,70,0,0
35781,-100,4,2,1,70,0,0
38995,-100,4,2,2,70,0,0
39210,-100,4,2,1,70,0,0
40495,-100,4,2,2,70,0,0
40924,-100,4,2,1,70,0,0
45638,-100,4,2,2,70,0,0
45852,-100,4,2,1,70,0,0
49281,-100,4,2,2,70,0,0
49495,-100,4,2,1,70,0,0
52710,-100,4,2,2,70,0,0
52924,-100,4,2,1,70,0,0
62995,-100,4,2,2,70,0,0
63210,-100,4,2,1,70,0,0
70710,-100,4,2,2,70,0,0
70924,-100,4,2,1,70,0,0
71352,-100,4,2,2,70,0,0
71567,-100,4,2,1,70,0,0
75638,-100,4,2,1,75,0,1
77352,-100,4,2,2,75,0,1
77567,-100,4,2,1,75,0,1
80781,-100,4,2,2,75,0,1
80995,-100,4,2,1,75,0,1
83352,-100,4,2,2,75,0,1
83567,-100,4,2,1,75,0,1
91067,-100,4,2,2,75,0,1
91281,-100,4,2,1,75,0,1
92995,-100,4,2,2,75,0,1
93210,-100,4,2,1,75,0,1
93638,-100,4,2,2,75,0,1
93852,-100,4,2,1,75,0,1
94495,-100,4,2,2,75,0,1
94710,-100,4,2,1,75,0,1
99638,-100,4,2,1,70,0,0
110138,-100,4,2,2,70,0,0
110352,-100,4,2,1,70,0,0
114210,-100,4,2,1,60,0,0
115067,-100,4,2,1,50,0,0
115924,-100,4,2,1,45,0,0
116781,-100,4,2,1,40,0,0
117210,-100,4,2,1,35,0,0
117638,-100,4,2,1,30,0,0
118067,-100,4,2,1,25,0,0
118495,-100,4,2,1,20,0,0
118924,-100,4,2,1,15,0,0
119352,-100,4,2,1,10,0,0
119781,-100,4,2,1,5,0,0

[Colours]
Combo1 : 32,176,223
Combo2 : 43,106,170
Combo3 : 25,217,243
Combo4 : 0,213,112

[HitObjects]
28,192,3638,6,0,L|52:44,1,150,2|0,0:0|0:0,0:0:0:0:
116,264,4281,2,0,L|140:116,1,150,2|0,0:0|0:0,0:0:0:0:
96,340,4924,2,0,P|145:337|182:305,1,100,2|0,0:0|0:0,0:0:0:0:
156,197,5352,6,0,P|84:191|40:248,2,150,2|0|2,0:0|0:0|0:0,0:0:0:0:
164,220,6102,1,2,0:0:0:0:
172,244,6210,2,0,P|220:254|264:233,1,100,2|0,0:0|0:0,0:0:0:0:
304,152,6638,2,0,P|348:131|396:141,1,100,2|0,0:0|0:0,0:0:0:0:
452,212,7067,6,0,L|435:311,1,100,2|0,0:0|0:0,0:0:0:0:
352,344,7495,2,0,L|368:244,1,100
315,75,7924,2,0,L|280:272,1,200
264,360,8567,1,0,0:0:0:0:
208,212,8781,6,0,P|298:181|368:246,1,200,2|0,0:0|0:0,0:0:0:0:
280,272,9424,1,0,0:0:0:0:
192,300,9638,2,0,L|93:283,1,100,2|0,0:0|0:0,0:0:0:0:
125,107,10067,2,0,L|224:124,1,100,2|0,0:0|0:0,0:0:0:0:
256,192,10495,12,0,11781,0:0:0:0:
328,190,12210,6,0,P|256:208|183:190,1,150,2|0,0:0|0:0,0:0:0:0:
184,56,12852,2,0,P|256:37|328:55,1,150,2|0,0:0|0:0,0:0:0:0:
132,264,13495,2,0,P|99:226|96:177,1,100,2|0,0:0|0:0,0:0:0:0:
184,192,13924,5,6,0:0:0:0:
256,248,14138,1,0,0:0:0:0:
328,192,14352,1,8,0:0:0:0:
415,177,14567,2,0,P|412:226|380:264,1,100
312,320,14995,1,0,0:0:0:0:
256,248,15210,1,8,0:0:0:0:
200,320,15424,1,0,0:0:0:0:
132,264,15638,6,0,P|96:192|164:104,1,200,2|8,0:0|0:0,0:0:0:0:
216,32,16281,1,0,0:0:0:0:
236,120,16495,2,0,P|269:209|205:279,1,200,0|8,0:0|0:0,0:0:0:0:
184,192,17138,1,0,0:0:0:0:
216,32,17352,5,2,0:0:0:0:
240,40,17460,1,0,0:0:0:0:
264,48,17567,1,0,0:0:0:0:
288,56,17674,1,0,0:0:0:0:
312,64,17781,2,0,L|360:84,3,50,10|0|0|0,0:0|0:0|0:0|0:0,0:0:0:0:
380,96,18210,5,2,0:0:0:0:
395,115,18317,1,0,0:0:0:0:
402,139,18424,1,0,0:0:0:0:
402,164,18531,1,0,0:0:0:0:
392,187,18638,1,10,0:0:0:0:
375,205,18745,1,0,0:0:0:0:
353,216,18852,1,0,0:0:0:0:
328,219,18960,1,0,0:0:0:0:
304,212,19067,6,0,L|256:192,1,50,2|0,0:0|0:0,0:0:0:0:
184,164,19388,1,0,0:0:0:0:
124,216,19602,2,0,L|76:196,2,50,0|2|0,0:0|0:0|0:0,0:0:0:0:
138,295,20031,1,0,0:0:0:0:
212,324,20245,1,0,0:0:0:0:
236,332,20352,1,2,0:0:0:0:
260,340,20460,1,0,0:0:0:0:
284,348,20567,1,0,0:0:0:0:
308,356,20674,1,0,0:0:0:0:
332,364,20781,6,0,L|432:364,1,100,6|0,0:0|0:0,0:0:0:0:
476,300,21210,2,0,P|496:255|484:208,1,100,8|0,0:0|0:0,0:0:0:0:
456,180,21531,1,0,0:0:0:0:
428,152,21638,2,0,P|415:104|436:60,1,100
512,36,22067,1,8,0:0:0:0:
492,112,22281,1,0,0:0:0:0:
436,60,22495,6,0,P|400:20|348:12,1,100,2|0,0:0|0:0,0:0:0:0:
364,92,22924,2,0,L|264:112,1,100,8|0,0:0|0:0,0:0:0:0:
256,140,23245,1,0,0:0:0:0:
248,168,23352,1,0,0:0:0:0:
240,196,23460,2,0,L|184:208,1,50
112,224,23781,1,8,0:0:0:0:
48,372,23995,2,0,L|104:360,1,50,2|2,0:0|0:0,0:0:0:0:
136,352,24210,5,2,0:0:0:0:
168,280,24424,1,0,0:0:0:0:
248,272,24638,2,0,P|296:259|344:271,1,100,8|0,0:0|0:0,0:0:0:0:
360,308,24960,1,0,0:0:0:0:
380,344,25067,2,0,P|428:356|476:343,1,100,0|0,0:0|0:0,0:0:0:0:
476,184,25495,2,0,P|427:171|379:184,1,100,8|0,0:0|0:0,0:0:0:0:
428,251,25924,6,0,P|476:184|452:75,1,200,2|8,0:0|0:0,0:0:0:0:
384,32,26567,2,0,L|332:32,1,50
308,60,26781,2,0,L|256:60,2,50
368,112,27210,1,8,0:0:0:0:
292,136,27424,2,0,L|240:136,1,50,2|2,0:0|0:0,0:0:0:0:
212,136,27638,6,0,P|164:156|144:200,1,100,6|0,0:0|0:0,0:0:0:0:
116,272,28067,1,10,0:0:0:0:
132,348,28281,2,0,P|208:320|216:212,1,200,2|2,0:0|0:0,0:0:0:0:
212,136,28924,1,8,0:0:0:0:
280,172,29138,1,2,0:0:0:0:
328,284,29352,5,6,0:0:0:0:
400,320,29567,2,0,P|448:316|488:284,1,100,2|10,0:0|0:0,0:0:0:0:
504,208,29995,1,2,0:0:0:0:
504,208,30102,1,0,0:0:0:0:
476,132,30317,1,0,0:0:0:0:
476,132,30424,1,2,0:0:0:0:
448,56,30638,2,0,L|348:56,1,100,10|2,0:0|0:0,0:0:0:0:
328,132,31067,6,0,P|256:160|152:104,1,200,6|8,0:0|0:0,0:0:0:0:
112,36,31710,2,0,P|91:47|76:68,1,50
43,184,32031,2,0,P|65:172|80:152,1,50
153,106,32352,2,0,P|168:156|152:200,1,100,8|2,0:0|0:0,0:0:0:0:
136,224,32674,1,2,0:0:0:0:
128,252,32781,1,6,0:0:0:0:
136,280,32888,1,0,0:0:0:0:
184,344,33102,1,0,0:0:0:0:
212,352,33210,1,8,0:0:0:0:
280,312,33424,5,2,0:0:0:0:
308,320,33531,1,2,0:0:0:0:
336,328,33638,1,2,0:0:0:0:
364,332,33745,1,2,0:0:0:0:
392,328,33852,1,2,0:0:0:0:
420,320,33960,1,2,0:0:0:0:
448,312,34067,5,10,0:0:0:0:
464,272,34174,1,2,0:0:0:0:
468,228,34281,1,2,0:0:0:0:
464,184,34388,1,2,0:0:0:0:
448,144,34495,1,6,0:0:0:0:
388,76,34710,6,0,P|360:120|368:184,1,100,0|8,0:0|0:0,0:0:0:0:
448,144,35138,1,0,0:0:0:0:
472,56,35352,2,0,P|432:0|312:32,1,200,0|8,0:0|0:0,0:0:0:0:
304,116,35995,2,0,P|284:164|236:192,1,100
136,100,36424,2,0,P|152:56|204:24,1,100,0|8,0:0|0:0,0:0:0:0:
220,108,36852,1,0,0:0:0:0:
220,272,37067,1,2,0:0:0:0:
80,192,37281,1,0,0:0:0:0:
256,192,37495,2,0,P|296:232|304:280,1,100,8|0,0:0|0:0,0:0:0:0:
324,360,37924,5,2,0:0:0:0:
392,300,38138,2,0,P|436:272|488:272,1,100,0|8,0:0|0:0,0:0:0:0:
464,360,38567,1,0,0:0:0:0:
392,300,38781,2,0,P|344:248|376:132,1,200,0|8,0:0|0:0,0:0:0:0:
470,124,39424,2,0,P|463:173|432:212,1,100
317,54,39852,2,0,P|363:36|412:44,1,100,0|8,0:0|0:0,0:0:0:0:
374,132,40281,2,0,B|296:176|232:128|220:68|220:68|180:108|124:92,1,300,0|8,0:0|0:0,0:0:0:0:
156,12,41138,1,0,0:0:0:0:
72,28,41352,6,0,P|44:72|72:152,1,100,2|0,0:0|0:0,0:0:0:0:
80,264,41781,2,0,P|109:225|108:176,1,100,8|0,0:0|0:0,0:0:0:0:
24,200,42210,1,0,0:0:0:0:
128,92,42424,1,0,0:0:0:0:
200,224,42638,2,0,P|232:260|280:272,1,100,8|0,0:0|0:0,0:0:0:0:
384,164,43067,6,0,P|352:128|304:116,1,100,2|0,0:0|0:0,0:0:0:0:
320,348,43495,2,0,P|356:316|368:268,1,100,8|0,0:0|0:0,0:0:0:0:
264,40,43924,2,0,P|228:72|216:120,1,100
280,271,44352,1,8,0:0:0:0:
303,116,44567,1,0,0:0:0:0:
152,180,44781,5,2,0:0:0:0:
280,272,44995,1,0,0:0:0:0:
303,116,45210,1,8,0:0:0:0:
392,112,45424,2,0,P|480:160|512:252,1,200
424,328,46067,1,8,0:0:0:0:
368,256,46281,1,0,0:0:0:0:
384,184,46495,6,0,P|424:208|440:256,1,100,2|0,0:0|0:0,0:0:0:0:
352,328,46924,2,0,P|312:304|296:256,1,100,8|2,0:0|0:0,0:0:0:0:
300,228,47245,1,2,0:0:0:0:
308,200,47352,1,2,0:0:0:0:
312,172,47460,1,2,0:0:0:0:
308,144,47567,1,2,0:0:0:0:
296,116,47674,1,2,0:0:0:0:
280,92,47781,5,2,0:0:0:0:
240,68,47888,1,2,0:0:0:0:
196,60,47995,1,2,0:0:0:0:
152,72,48102,1,2,0:0:0:0:
120,104,48210,1,6,0:0:0:0:
117,212,48424,6,0,P|165:207|200:172,1,100,0|8,0:0|0:0,0:0:0:0:
120,104,48852,1,0,0:0:0:0:
28,176,49067,2,0,B|71:192|116:212|116:212|96:268|136:308,1,200,0|8,0:0|0:0,0:0:0:0:
261,241,49710,2,0,P|242:196|199:173,1,100
228,316,50138,2,0,P|276:322|318:296,1,100,0|8,0:0|0:0,0:0:0:0:
336,220,50567,1,0,0:0:0:0:
428,104,50781,1,0,0:0:0:0:
420,252,50995,1,0,0:0:0:0:
340,128,51210,1,8,0:0:0:0:
476,184,51424,1,0,0:0:0:0:
358,42,51638,6,0,P|309:42|271:73,1,100,2|0,0:0|0:0,0:0:0:0:
256,164,52067,2,0,P|216:193|167:194,1,100,8|0,0:0|0:0,0:0:0:0:
30,87,52495,2,0,P|115:46|188:108,1,200,0|8,0:0|0:0,0:0:0:0:
167,194,53138,1,0,0:0:0:0:
104,136,53352,1,0,0:0:0:0:
187,107,53567,1,0,0:0:0:0:
256,164,53781,1,8,0:0:0:0:
80,224,53995,5,0,0:0:0:0:
124,48,54210,1,0,0:0:0:0:
256,164,54424,1,0,0:0:0:0:
187,107,54638,2,0,P|225:76|274:73,1,100,8|0,0:0|0:0,0:0:0:0:
348,124,55067,5,4,0:0:0:0:
327,214,55281,2,0,P|289:245|240:248,1,100,0|8,0:0|0:0,0:0:0:0:
167,194,55710,1,0,0:0:0:0:
188,108,55924,1,0,0:0:0:0:
256,164,56138,1,0,0:0:0:0:
240,248,56352,2,0,L|220:346,1,100,8|0,0:0|0:0,0:0:0:0:
336,376,56781,5,6,0:0:0:0:
448,336,56995,2,0,L|468:236,1,100,0|8,0:0|0:0,0:0:0:0:
480,148,57424,1,0,0:0:0:0:
496,60,57638,2,0,P|444:68|408:100,1,100,2|0,0:0|0:0,0:0:0:0:
352,168,58067,2,0,L|256:136,1,100,8|0,0:0|0:0,0:0:0:0:
144,84,58495,5,6,0:0:0:0:
116,96,58602,1,0,0:0:0:0:
88,108,58710,1,0,0:0:0:0:
60,120,58817,1,0,0:0:0:0:
32,132,58924,2,0,L|24:184,3,50,8|0|0|0,0:0|0:0|0:0|0:0,0:0:0:0:
20,212,59352,1,0,0:0:0:0:
16,240,59460,1,0,0:0:0:0:
12,268,59567,1,0,0:0:0:0:
8,296,59674,1,0,0:0:0:0:
8,324,59781,2,0,L|44:357,3,50,8|0|0|0,0:0|0:0|0:0|0:0,0:0:0:0:
68,376,60210,5,2,0:0:0:0:
96,372,60317,1,2,0:0:0:0:
124,368,60424,1,2,0:0:0:0:
152,364,60531,1,2,0:0:0:0:
180,360,60638,1,10,0:0:0:0:
208,356,60745,1,2,0:0:0:0:
236,352,60852,1,2,0:0:0:0:
268,348,60960,1,2,0:0:0:0:
296,344,61067,2,0,L|328:304,3,50,2|2|2|2,0:0|0:0|0:0|0:0,0:0:0:0:
352,280,61495,2,0,L|400:268,3,50,10|2|2|2,0:0|0:0|0:0|0:0,0:0:0:0:
436,260,61924,6,0,L|468:164,1,100,6|0,0:0|0:0,0:0:0:0:
492,88,62352,1,8,0:0:0:0:
424,44,62567,2,0,P|375:36|330:56,1,100
256,88,62995,1,0,0:0:0:0:
181,56,63210,2,0,P|136:36|88:44,1,100,8|0,0:0|0:0,0:0:0:0:
20,88,63638,5,2,0:0:0:0:
44,164,63852,2,0,L|75:258,1,100,0|8,0:0|0:0,0:0:0:0:
52,333,64281,2,0,P|100:333|138:303,1,100
148,280,64602,1,0,3:0:0:0:
156,256,64710,2,0,P|194:225|243:225,1,100,0|8,0:0|0:0,0:0:0:0:
384,320,65138,6,0,P|433:320|471:289,1,100,2|0,0:0|0:0,0:0:0:0:
420,160,65567,2,0,P|371:160|333:191,1,100,0|8,0:0|0:0,0:0:0:0:
488,212,65995,1,0,0:0:0:0:
500,132,66210,2,0,L|512:32,1,100
333,191,66638,6,0,L|321:291,1,100,8|2,0:0|0:0,0:0:0:0:
256,352,67067,1,0,0:0:0:0:
191,291,67281,2,0,L|179:191,1,100,0|8,0:0|0:0,0:0:0:0:
196,104,67710,2,0,P|147:104|109:135,1,100,2|0,0:0|0:0,0:0:0:0:
96,156,68031,1,0,0:0:0:0:
191,291,68245,2,0,P|238:280|269:242,1,100,0|0,0:0|0:0,0:0:0:0:
279,220,68567,1,0,0:0:0:0:
286,198,68674,1,0,0:0:0:0:
294,175,68781,6,0,P|324:136|372:126,1,100,6|0,0:0|0:0,0:0:0:0:
443,242,69210,2,0,P|412:280|364:290,1,100,8|0,0:0|0:0,0:0:0:0:
395,56,69638,2,0,P|433:86|443:134,1,100,0|0,0:0|0:0,0:0:0:0:
340,360,70067,2,0,P|301:329|291:281,1,100,8|0,0:0|0:0,0:0:0:0:
294,175,70495,6,0,L|192:168,1,100,4|0,0:0|0:0,0:0:0:0:
104,164,70924,1,8,0:0:0:0:
12,60,71138,2,0,L|114:67,1,100,2|0,0:0|0:0,0:0:0:0:
202,71,71567,1,2,0:0:0:0:
294,175,71781,1,8,0:0:0:0:
256,192,71995,12,2,73710,0:0:0:0:
128,308,74138,5,2,0:0:0:0:
256,336,74352,1,2,0:0:0:0:
384,308,74567,5,0,0:0:0:0:
400,284,74674,1,0,0:0:0:0:
408,256,74781,1,2,0:0:0:0:
400,228,74888,1,0,0:0:0:0:
384,204,74995,1,0,0:0:0:0:
324,136,75210,1,2,0:0:0:0:
308,112,75317,1,0,0:0:0:0:
300,84,75424,1,0,0:0:0:0:
308,56,75531,1,0,0:0:0:0:
324,32,75638,1,6,0:0:0:0:
396,84,75852,5,0,0:0:0:0:
312,256,76067,1,8,0:0:0:0:
236,192,76281,2,0,P|188:180|140:192,1,100,2|0,0:0|0:0,0:0:0:0:
44,320,76710,2,0,P|92:332|140:320,1,100,2|8,0:0|0:0,0:0:0:0:
224,288,77138,2,0,B|272:296|312:256|312:256|336:312|404:312,1,200,2|0,0:0|0:0,0:0:0:0:
472,280,77781,1,10,0:0:0:0:
468,192,77995,2,0,P|436:156|384:144,1,100,2|0,0:0|0:0,0:0:0:0:
360,148,78317,1,0,0:0:0:0:
336,164,78424,2,0,P|348:76|260:28,1,200,2|0,0:0|0:0,0:0:0:0:
190,156,79067,6,0,P|239:148|272:112,1,100,2|0,0:0|0:0,0:0:0:0:
200,76,79495,1,8,0:0:0:0:
180,236,79710,2,0,L|164:336,1,100,2|0,0:0|0:0,0:0:0:0:
96,276,80138,1,2,0:0:0:0:
190,156,80352,1,8,0:0:0:0:
248,300,80567,2,0,P|328:352|404:292,1,200,2|0,0:0|0:0,0:0:0:0:
399,212,81210,6,0,P|352:227|324:267,1,100,8|0,0:0|0:0,0:0:0:0:
324,267,81531,1,0,0:0:0:0:
324,267,81638,1,0,0:0:0:0:
468,256,81852,2,0,P|480:204|460:160,1,100,0|8,0:0|0:0,0:0:0:0:
440,140,82174,1,0,0:0:0:0:
412,132,82281,1,0,0:0:0:0:
384,132,82388,1,0,0:0:0:0:
356,144,82495,6,0,P|324:184|320:232,1,100,4|0,0:0|0:0,0:0:0:0:
399,212,82924,1,8,0:0:0:0:
316,72,83138,2,0,P|248:148|240:244,1,200,0|2,0:0|0:0,0:0:0:0:
260,332,83781,2,0,P|212:332|168:300,1,100,8|6,0:0|0:0,0:0:0:0:
180,72,84424,5,0,0:0:0:0:
256,200,84638,1,10,0:0:0:0:
332,72,84852,1,0,0:0:0:0:
188,152,85067,2,0,P|172:200|188:248,1,100,0|2,0:0|0:0,0:0:0:0:
325,245,85495,2,0,P|339:198|324:152,1,100,8|2,0:0|0:0,0:0:0:0:
256,192,85924,12,2,87424,0:0:0:0:
289,128,87852,6,0,L|192:152,2,100,2|10|2,0:0|0:0|0:0,0:0:0:0:
325,119,88388,1,0,0:0:0:0:
362,114,88495,1,2,0:0:0:0:
397,125,88603,1,0,0:0:0:0:
426,150,88710,1,0,0:0:0:0:
441,184,88817,1,0,0:0:0:0:
441,221,88924,1,10,0:0:0:0:
426,255,89031,1,0,0:0:0:0:
399,280,89138,1,0,0:0:0:0:
364,292,89245,1,0,0:0:0:0:
328,300,89352,6,0,L|228:324,1,100,6|0,0:0|0:0,0:0:0:0:
144,344,89781,1,8,0:0:0:0:
72,292,89995,2,0,P|40:252|44:204,1,100,2|0,0:0|0:0,0:0:0:0:
79,57,90424,2,0,P|110:95|108:144,1,100,2|8,0:0|0:0,0:0:0:0:
24,128,90852,2,0,B|108:144|108:144|124:208|192:208,1,200,2|0,0:0|0:0,0:0:0:0:
256,142,91495,1,8,0:0:0:0:
304,64,91710,2,0,P|348:40|396:48,1,100,2|0,0:0|0:0,0:0:0:0:
408,68,92031,1,0,0:0:0:0:
420,88,92138,2,0,P|462:111|511:104,1,100,2|8,0:0|0:0,0:0:0:0:
480,20,92567,1,0,0:0:0:0:
352,144,92781,6,0,P|332:196|412:300,1,200,6|8,0:0|0:0,0:0:0:0:
492,320,93424,2,0,P|412:300|332:376,1,200,6|2,0:0|0:0,0:0:0:0:
256,324,94067,1,8,0:0:0:0:
179,374,94281,2,0,P|114:303|20:320,1,200,6|2,0:0|0:0,0:0:0:0:
88,380,94924,1,8,0:0:0:0:
124,224,95138,2,0,P|132:175|166:139,1,100,2|0,0:0|0:0,0:0:0:0:
256,100,95567,1,0,0:0:0:0:
345,139,95781,2,0,P|378:175|388:223,1,100,8|0,0:0|0:0,0:0:0:0:
304,216,96210,6,0,P|256:200|208:216,1,100,6|0,0:0|0:0,0:0:0:0:
152,284,96638,1,8,0:0:0:0:
208,356,96852,2,0,P|256:372|304:356,1,100
360,284,97281,1,0,0:0:0:0:
436,336,97495,1,8,0:0:0:0:
484,184,97710,5,0,1:0:0:0:
484,184,98138,1,0,1:0:0:0:
400,48,98352,1,0,1:0:0:0:
292,168,98567,1,2,0:0:0:0:
256,180,98674,1,0,0:0:0:0:
196,84,98888,1,2,0:0:0:0:
176,120,98995,1,0,0:0:0:0:
64,84,99210,1,10,0:0:0:0:
76,124,99317,1,0,0:0:0:0:
88,164,99424,1,0,0:0:0:0:
100,200,99531,1,0,0:0:0:0:
112,236,99638,5,6,0:0:0:0:
144,332,99852,1,0,0:0:0:0:
248,352,100067,2,0,L|348:340,1,100,10|2,0:0|0:0,0:0:0:0:
356,300,100388,1,0,0:0:0:0:
364,260,100495,2,0,L|464:248,1,100,0|2,0:0|0:0,0:0:0:0:
488,88,100924,2,0,L|388:100,1,100,8|2,0:0|0:0,0:0:0:0:
299,99,101352,6,0,P|310:51|348:20,1,100,2|2,0:0|0:0,0:0:0:0:
296,188,101781,2,0,L|196:200,1,100,10|2,0:0|0:0,0:0:0:0:
180,232,102102,1,0,0:0:0:0:
168,264,102210,1,0,0:0:0:0:
152,296,102317,2,0,L|100:304,1,50,0|2,0:0|0:0,0:0:0:0:
260,336,102638,2,0,L|360:324,1,100,10|2,0:0|0:0,0:0:0:0:
436,308,103067,6,0,P|464:264|456:216,1,100,2|0,0:0|0:0,0:0:0:0:
404,160,103495,2,0,P|398:111|425:70,1,100,8|0,0:0|0:0,0:0:0:0:
425,70,103817,1,0,0:0:0:0:
425,70,103924,1,0,0:0:0:0:
480,132,104138,1,2,0:0:0:0:
380,248,104352,1,10,0:0:0:0:
352,100,104567,1,2,0:0:0:0:
292,180,104781,6,0,P|248:204|200:200,1,100,2|0,0:0|0:0,0:0:0:0:
172,68,105210,2,0,P|216:44|264:48,1,100,8|0,0:0|0:0,0:0:0:0:
296,56,105531,1,0,0:0:0:0:
328,72,105638,1,0,0:0:0:0:
352,100,105745,2,0,L|376:144,1,50
416,224,106067,1,8,0:0:0:0:
320,352,106281,2,0,L|296:308,1,50,2|2,0:0|0:0,0:0:0:0:
276,272,106495,6,0,P|228:256|184:272,1,100,6|0,0:0|0:0,0:0:0:0:
59,344,106924,2,0,P|105:360|152:344,1,100,10|2,0:0|0:0,0:0:0:0:
168,308,107245,1,0,0:0:0:0:
184,272,107352,2,0,L|212:176,1,100,0|2,0:0|0:0,0:0:0:0:
328,100,107781,2,0,L|300:196,1,100,8|2,0:0|0:0,0:0:0:0:
256,64,108210,6,0,P|288:28|340:20,1,100,6|2,0:0|0:0,0:0:0:0:
404,64,108638,1,10,0:0:0:0:
396,144,108852,2,0,L|380:200,1,50,2|0,0:0|0:0,0:0:0:0:
426,296,109174,2,0,L|440:248,1,50,0|2,0:0|0:0,0:0:0:0:
364,348,109495,2,0,P|316:364|268:352,1,100,10|2,0:0|0:0,0:0:0:0:
135,288,109924,6,0,P|217:237|308:272,1,200,6|8,0:0|0:0,0:0:0:0:
364,348,110567,1,0,0:0:0:0:
364,348,110674,1,0,0:0:0:0:
404,260,110888,1,0,0:0:0:0:
404,260,110995,1,2,0:0:0:0:
440,168,111210,2,0,P|388:160|344:180,1,100,10|2,0:0|0:0,0:0:0:0:
328,200,111531,1,0,0:0:0:0:
316,228,111638,6,0,L|296:276,1,50,6|0,0:0|0:0,0:0:0:0:
196,156,111960,2,0,L|216:108,1,50,0|8,0:0|0:0,0:0:0:0:
297,274,112281,2,0,L|250:293,1,50,2|0,0:0|0:0,0:0:0:0:
215,110,112602,2,0,L|261:90,1,50
250,293,112924,5,10,0:0:0:0:
204,312,113031,1,2,0:0:0:0:
157,331,113138,1,2,0:0:0:0:
112,348,113245,1,2,0:0:0:0:
65,367,113352,1,6,0:0:0:0:
256,192,113995,12,0,120210,0:0:0:0:
