osu file format v12

[General]
AudioFilename: Cocoro Root.mp3
AudioLeadIn: 0
PreviewTime: 74791
Countdown: 0
SampleSet: Soft
StackLeniency: 0.3
Mode: 0
LetterboxInBreaks: 0
WidescreenStoryboard: 0

[Editor]
DistanceSpacing: 1
BeatDivisor: 4
GridSize: 4

[Metadata]
Title:Cocoro Root
TitleUnicode:ココロルート
Artist:Sakakibara Yui
ArtistUnicode:榊原ゆい
Creator:BeatofIke
Version:Hard@Function!
Source:Cocoro@Function!
Tags:opening galgame galge eroge kokoro vn visual novel pulltop willplus ココロ@ファンクション!
BeatmapID:297107
BeatmapSetID:114076

[Difficulty]
HPDrainRate:6
CircleSize:4
OverallDifficulty:6
ApproachRate:8
SliderMultiplier:1.6
SliderTickRate:2

[Events]
//Background and Video events
0,0,"BG@Function!.jpg",0,0
Video,0,"Video@Function!.avi"
//Break Periods
//Storyboard Layer 0 (Background)
//Storyboard Layer 1 (Fail)
//Storyboard Layer 2 (Pass)
//Storyboard Layer 3 (Foreground)
//Storyboard Sound Samples
//Background Colour Transformations
3,100,163,162,255

[TimingPoints]
210.075498078565,428.571428571429,4,2,2,60,1,0
3852,-100,4,2,2,5,0,0
3960,-100,4,2,2,60,0,0
4495,-100,4,2,2,5,0,0
4602,-100,4,2,2,60,0,0
5567,-100,4,2,2,5,0,0
5674,-100,4,2,2,60,0,0
8138,-100,4,2,2,5,0,0
8352,-100,4,2,2,60,0,0
8995,-100,4,2,2,5,0,0
9210,-100,4,2,2,60,0,0
13924,-100,4,2,1,65,0,0
15852,-100,4,2,2,65,0,0
16067,-100,4,2,1,65,0,0
17567,-100,4,2,2,65,0,0
17781,-100,4,2,1,65,0,0
20781,-100,4,2,1,70,0,0
22710,-100,4,2,2,70,0,0
22924,-100,4,2,1,70,0,0
24424,-100,4,2,2,70,0,0
24638,-100,4,2,1,70,0,0
26138,-100,4,2,2,70,0,0
26352,-100,4,2,1,70,0,0
27852,-100,4,2,2,70,0,0
28067,-100,4,2,1,70,0,0
30210,-100,4,2,2,70,0,0
30424,-100,4,2,1,70,0,0
31281,-100,4,2,2,70,0,0
31495,-100,4,2,1,70,0,0
35567,-100,4,2,2,70,0,0
35781,-100,4,2,1,70,0,0
38995,-100,4,2,2,70,0,0
39210,-100,4,2,1,70,0,0
40495,-100,4,2,2,70,0,0
40924,-100,4,2,1,70,0,0
45638,-100,4,2,2,70,0,0
46067,-100,4,2,1,70,0,0
49281,-100,4,2,2,70,0,0
49495,-100,4,2,1,70,0,0
59352,-100,4,2,2,70,0,0
59567,-100,4,2,1,70,0,0
60424,-100,4,2,2,70,0,0
60638,-100,4,2,1,70,0,0
61281,-100,4,2,2,70,0,0
61495,-100,4,2,1,70,0,0
62138,-100,4,2,2,70,0,0
62352,-100,4,2,1,70,0,0
62995,-100,4,2,2,70,0,0
63210,-100,4,2,1,70,0,0
65352,-100,4,2,2,70,0,0
65567,-100,4,2,1,70,0,0
67067,-100,4,2,2,70,0,0
67281,-100,4,2,1,70,0,0
67924,-100,4,2,2,70,0,0
68138,-100,4,2,1,70,0,0
68995,-100,4,2,2,70,0,0
69210,-100,4,2,1,70,0,0
69852,-100,4,2,2,70,0,0
70067,-100,4,2,1,70,0,0
75638,-100,4,2,1,75,0,1
77352,-100,4,2,2,75,0,1
77567,-100,4,2,1,75,0,1
79924,-100,4,2,2,75,0,1
80138,-100,4,2,1,75,0,1
80781,-100,4,2,2,75,0,1
80995,-100,4,2,1,75,0,1
82710,-100,4,2,2,75,0,1
82924,-100,4,2,1,75,0,1
90210,-100,4,2,2,75,0,1
90424,-100,4,2,1,75,0,1
91067,-100,4,2,2,75,0,1
91281,-100,4,2,1,75,0,1
92995,-100,4,2,2,75,0,1
93210,-100,4,2,1,75,0,1
93638,-100,4,2,2,75,0,1
93852,-100,4,2,1,75,0,1
96424,-100,4,2,2,75,0,1
96638,-100,4,2,1,75,0,1
97067,-100,4,2,2,75,0,1
97281,-100,4,2,1,75,0,1
99638,-100,4,2,1,70,0,0
99852,-100,4,2,2,70,0,0
100067,-100,4,2,1,70,0,0
100495,-100,4,2,2,70,0,0
100710,-100,4,2,1,70,0,0
103281,-100,4,2,2,70,0,0
103495,-100,4,2,1,70,0,0
103924,-100,4,2,2,70,0,0
104138,-100,4,2,1,70,0,0
104995,-100,4,2,2,70,0,0
105210,-100,4,2,1,70,0,0
109067,-100,4,2,2,70,0,0
109281,-100,4,2,1,70,0,0
110138,-100,4,2,2,70,0,0
110352,-100,4,2,1,70,0,0
110781,-100,4,2,2,70,0,0
110995,-100,4,2,1,70,0,0
111852,-100,4,2,2,70,0,0
112067,-100,4,2,1,70,0,0
112495,-100,4,2,2,70,0,0
112710,-100,4,2,1,70,0,0
114210,-100,4,2,1,60,0,0
115067,-100,4,2,1,50,0,0
115924,-100,4,2,1,45,0,0
116781,-100,4,2,1,40,0,0
117210,-100,4,2,1,35,0,0
117638,-100,4,2,1,30,0,0
118067,-100,4,2,1,25,0,0
118495,-100,4,2,1,20,0,0
118924,-100,4,2,1,15,0,0
119352,-100,4,2,1,10,0,0
119781,-100,4,2,1,5,0,0

[Colours]
Combo1 : 32,176,223
Combo2 : 43,106,170
Combo3 : 25,217,243
Combo4 : 0,213,112

[HitObjects]
336,88,3638,6,0,L|452:116,1,120,2|0,0:0|0:0,0:0:0:0:
360,192,4281,2,0,L|476:220,1,120,2|0,0:0|0:0,0:0:0:0:
368,272,4924,2,0,P|328:268|296:244,1,80,2|0,0:0|0:0,0:0:0:0:
280,168,5352,6,0,P|228:208|224:264,1,120,2|0,0:0|0:0,0:0:0:0:
108,300,5995,2,0,L|68:304,2,40,2|2|2,0:0|0:0|0:0,0:0:0:0:
172,348,6424,2,0,L|256:344,2,80,0|2|0,0:0|0:0|0:0,0:0:0:0:
108,300,7067,6,0,L|128:220,1,80,2|0,0:0|0:0,0:0:0:0:
52,192,7495,2,0,L|72:112,1,80,0|0,0:0|0:0,0:0:0:0:
92,36,7924,2,0,P|168:52|208:120,1,160
256,184,8567,1,0,0:0:0:0:
304,118,8781,6,0,P|343:52|420:36,1,160,2|0,0:0|0:0,0:0:0:0:
440,114,9424,2,0,L|460:192,1,80,0|2,0:0|0:0,0:0:0:0:
384,222,9852,2,0,L|404:300,1,80,0|2,0:0|0:0,0:0:0:0:
256,192,10495,12,2,12210,0:0:0:0:
256,28,13924,5,6,0:0:0:0:
296,152,14138,1,0,0:0:0:0:
192,76,14352,1,8,0:0:0:0:
320,76,14567,1,0,0:0:0:0:
216,152,14781,2,0,P|204:188|172:212,1,80
296,152,15210,2,0,P|308:188|340:212,1,80,8|0,0:0|0:0,0:0:0:0:
181,290,15638,6,0,P|256:268|332:292,1,160,2|8,0:0|0:0,0:0:0:0:
376,364,16281,2,0,P|408:336|416:300,1,80
420,168,16710,2,0,P|389:193|380:232,1,80,0|8,0:0|0:0,0:0:0:0:
460,236,17138,1,0,0:0:0:0:
500,168,17352,6,0,P|464:100|384:96,1,160,2|8,0:0|0:0,0:0:0:0:
340,160,17995,2,0,P|304:184|264:184,1,80
284,108,18424,1,0,0:0:0:0:
296,28,18638,2,0,P|256:30|224:53,1,80,8|0,0:0|0:0,0:0:0:0:
180,120,19067,5,2,0:0:0:0:
152,196,19281,2,0,L|124:276,1,80
68,208,19710,1,2,0:0:0:0:
180,120,19924,1,0,0:0:0:0:
208,260,20138,2,0,L|284:292,1,80,0|2,0:0|0:0,0:0:0:0:
356,320,20567,1,0,0:0:0:0:
328,180,20781,5,6,0:0:0:0:
208,260,20995,1,0,0:0:0:0:
180,120,21210,2,0,L|256:152,1,80,8|0,0:0|0:0,0:0:0:0:
292,164,21531,1,0,0:0:0:0:
328,180,21638,1,0,0:0:0:0:
300,40,21852,1,0,0:0:0:0:
180,120,22067,2,0,P|148:144|108:144,1,80,8|0,0:0|0:0,0:0:0:0:
228,64,22495,6,0,B|268:108|252:156|220:184|220:184|200:200,1,160,2|8,0:0|0:0,0:0:0:0:
136,248,23138,1,0,0:0:0:0:
164,276,23245,1,0,0:0:0:0:
204,284,23352,1,0,0:0:0:0:
280,252,23567,2,0,P|317:238|356:252,1,80,0|8,0:0|0:0,0:0:0:0:
408,312,23995,1,2,0:0:0:0:
432,280,24102,1,2,0:0:0:0:
436,240,24210,6,0,B|424:180|364:168|364:168|372:116,1,160,2|8,0:0|0:0,0:0:0:0:
444,80,24852,2,0,L|452:40,2,40
371,117,25281,1,0,0:0:0:0:
308,68,25495,2,0,P|260:48|232:56,1,80,8|0,0:0|0:0,0:0:0:0:
192,120,25924,6,0,P|140:172|64:152,1,160,2|8,0:0|0:0,0:0:0:0:
40,228,26567,1,0,0:0:0:0:
48,268,26674,1,0,0:0:0:0:
56,308,26781,1,0,0:0:0:0:
148,352,26995,1,0,0:0:0:0:
224,280,27210,2,0,L|208:201,1,80,8|2,0:0|0:0,0:0:0:0:
200,160,27531,1,2,0:0:0:0:
192,120,27638,6,0,P|192:76|288:48,1,160,6|10,0:0|0:0,0:0:0:0:
360,80,28281,2,0,L|432:116,1,80,2|0,0:0|0:0,0:0:0:0:
504,148,28710,1,2,0:0:0:0:
440,192,28924,2,0,P|420:228|420:272,1,80,8|2,0:0|0:0,0:0:0:0:
432,344,29352,5,6,0:0:0:0:
356,320,29567,2,0,P|316:308|280:320,1,80,2|10,0:0|0:0,0:0:0:0:
212,360,29995,2,0,P|136:384|60:360,1,160,2|2,0:0|0:0,0:0:0:0:
24,292,30638,2,0,L|0:216,1,80,10|2,0:0|0:0,0:0:0:0:
28,140,31067,6,0,P|104:116|180:140,1,160,6|8,0:0|0:0,0:0:0:0:
216,208,31710,1,0,0:0:0:0:
216,208,31817,1,0,0:0:0:0:
216,208,31924,2,0,L|240:284,1,80,0|0,0:0|0:0,0:0:0:0:
212,360,32352,1,8,0:0:0:0:
292,348,32567,2,0,L|330:359,2,40,2|2|6,0:0|0:0|0:0,0:0:0:0:
421,235,33210,5,8,0:0:0:0:
400,312,33424,1,2,0:0:0:0:
400,312,33531,1,2,0:0:0:0:
400,312,33638,2,0,L|389:350,2,40,2|2|2,0:0|0:0|0:0,0:0:0:0:
477,287,34067,1,10,0:0:0:0:
458,253,34174,1,2,0:0:0:0:
421,235,34281,1,2,0:0:0:0:
380,233,34388,1,2,0:0:0:0:
346,252,34495,5,6,0:0:0:0:
284,304,34710,1,0,0:0:0:0:
204,320,34924,1,8,0:0:0:0:
128,296,35138,1,0,0:0:0:0:
72,240,35352,2,0,P|52:176|88:92,1,160,0|8,0:0|0:0,0:0:0:0:
152,48,35995,2,0,P|168:88|156:124,1,80
16,56,36424,2,0,P|39:25|77:15,1,80,0|8,0:0|0:0,0:0:0:0:
92,168,36852,2,0,P|53:163|26:135,2,80,0|2|0,0:0|0:0|0:0,0:0:0:0:
157,121,37495,1,8,0:0:0:0:
256,204,37710,1,0,0:0:0:0:
324,156,37924,6,0,P|358:138|402:138,1,80,2|0,0:0|0:0,0:0:0:0:
478,166,38352,2,0,P|496:201|496:240,1,80,8|0,0:0|0:0,0:0:0:0:
439,348,38781,2,0,P|385:290|379:212,1,160,0|8,0:0|0:0,0:0:0:0:
402,137,39424,1,0,0:0:0:0:
468,84,39638,1,0,0:0:0:0:
478,166,39852,1,0,0:0:0:0:
324,156,40067,1,8,0:0:0:0:
340,76,40281,2,0,P|272:92|296:232,1,240,0|8,0:0|0:0,0:0:0:0:
445,240,41352,5,2,0:0:0:0:
324,156,41567,1,0,0:0:0:0:
291,230,41781,1,8,0:0:0:0:
256,304,41995,2,0,L|176:304,1,80
96,304,42424,1,0,0:0:0:0:
128,228,42638,1,8,0:0:0:0:
164,156,42852,2,0,L|244:156,1,80,0|2,0:0|0:0,0:0:0:0:
324,156,43281,6,0,P|316:116|288:88,2,80,0|8|0,0:0|0:0|0:0,0:0:0:0:
212,84,43924,2,0,P|224:44|256:20,1,80
244,156,44352,2,0,L|164:156,1,80,8|0,0:0|0:0,0:0:0:0:
128,229,44781,5,2,0:0:0:0:
176,360,44995,1,0,0:0:0:0:
312,360,45210,1,8,0:0:0:0:
360,228,45424,2,0,P|244:256|128:228,1,240,0|8,0:0|0:0,0:0:0:0:
128,148,46281,6,0,L|168:76,1,80,0|2,0:0|0:0,0:0:0:0:
216,16,46710,1,0,0:0:0:0:
296,16,46924,1,8,0:0:0:0:
345,78,47138,2,0,L|384:148,1,80,2|2,0:0|0:0,0:0:0:0:
320,220,47567,1,2,0:0:0:0:
296,144,47781,1,10,0:0:0:0:
216,144,47995,1,2,0:0:0:0:
192,220,48210,5,6,0:0:0:0:
132,272,48424,2,0,P|96:287|57:280,2,80,0|8|0,0:0|0:0|0:0,0:0:0:0:
192,220,49067,2,0,P|196:152|144:80,1,160,0|8,0:0|0:0,0:0:0:0:
72,48,49710,2,0,P|64:86|80:122,1,80
204,36,50138,2,0,P|174:9|135:5,1,80,0|8,0:0|0:0,0:0:0:0:
152,156,50567,2,0,P|189:143|212:111,2,80
144,80,51210,1,8,0:0:0:0:
276,72,51424,1,0,0:0:0:0:
285,147,51638,6,0,P|313:173|353:178,1,80,2|0,0:0|0:0,0:0:0:0:
408,60,52067,2,0,P|379:33|339:28,1,80,8|0,0:0|0:0,0:0:0:0:
348,104,52495,1,0,0:0:0:0:
360,256,52710,1,0,0:0:0:0:
484,168,52924,1,8,0:0:0:0:
353,179,53138,6,0,P|314:189|290:219,1,80,0|0,0:0|0:0,0:0:0:0:
364,332,53567,2,0,P|402:321|426:291,1,80,0|8,0:0|0:0,0:0:0:0:
360,256,53995,1,0,0:0:0:0:
276,332,54210,1,0,0:0:0:0:
192,256,54424,1,0,0:0:0:0:
276,180,54638,1,8,0:0:0:0:
76,76,55067,5,6,0:0:0:0:
140,28,55281,2,0,P|178:17|216:28,1,80,0|8,0:0|0:0,0:0:0:0:
280,76,55710,2,0,P|317:86|355:75,1,80,0|0,0:0|0:0,0:0:0:0:
420,28,56138,1,0,0:0:0:0:
484,76,56352,1,8,0:0:0:0:
420,124,56567,1,0,0:0:0:0:
484,172,56781,6,0,P|494:209|483:247,1,80,6|0,0:0|0:0,0:0:0:0:
356,248,57210,2,0,P|345:210|356:172,1,80,8|0,0:0|0:0,0:0:0:0:
420,296,57638,1,2,0:0:0:0:
348,328,57852,1,0,0:0:0:0:
280,284,58067,2,0,P|242:273|204:283,1,80,8|0,0:0|0:0,0:0:0:0:
140,328,58495,6,0,P|102:338|64:327,2,80,6|0|8,0:0|0:0|0:0,0:0:0:0:
104,256,59138,2,0,B|60:236|20:260|20:260|36:228|16:188,1,160
4,112,59781,2,0,P|44:112|76:136,1,80,8|0,0:0|0:0,0:0:0:0:
140,180,60210,6,0,P|200:152|196:68,1,160,2|8,0:0|0:0,0:0:0:0:
256,16,60852,1,0,0:0:0:0:
316,67,61067,2,0,P|306:142|372:180,1,160,2|8,0:0|0:0,0:0:0:0:
460,248,61710,1,0,0:0:0:0:
460,248,61924,6,0,P|501:183|460:120,1,160,6|8,0:0|0:0,0:0:0:0:
420,52,62567,1,0,0:0:0:0:
380,120,62781,2,0,P|339:184|380:247,1,160,0|8,0:0|0:0,0:0:0:0:
420,316,63424,1,0,0:0:0:0:
340,316,63638,6,0,P|300:316|268:340,1,80,2|0,0:0|0:0,0:0:0:0:
196,372,64067,1,8,0:0:0:0:
124,340,64281,2,0,P|92:316|52:317,1,80,0|0,0:0|0:0,0:0:0:0:
40,280,64602,1,0,3:0:0:0:
28,240,64710,1,0,0:0:0:0:
4,164,64924,1,8,0:0:0:0:
36,92,65138,6,0,P|108:62|180:92,1,160,2|0,0:0|0:0,0:0:0:0:
216,164,65781,2,0,L|296:164,1,80,8|0,0:0|0:0,0:0:0:0:
320,240,66210,1,0,0:0:0:0:
256,288,66424,1,0,0:0:0:0:
192,240,66638,1,8,0:0:0:0:
140,180,66852,6,0,P|112:232|160:312,1,160,2|0,0:0|0:0,0:0:0:0:
256,288,67495,1,8,0:0:0:0:
352,311,67710,2,0,P|399:251|372:180,1,160,2|2,0:0|0:0,0:0:0:0:
296,164,68352,1,0,0:0:0:0:
216,164,68567,1,0,0:0:0:0:
256,92,68781,6,0,B|312:68|356:108|356:108|396:72,1,160,6|8,0:0|0:0,0:0:0:0:
472,52,69424,1,0,0:0:0:0:
452,128,69638,2,0,B|417:166|417:166|457:210|433:266,1,160,0|8,0:0|0:0,0:0:0:0:
364,228,70281,1,0,0:0:0:0:
364,228,70495,6,0,L|284:244,1,80,4|0,0:0|0:0,0:0:0:0:
208,260,70924,1,8,0:0:0:0:
144,360,71138,2,0,L|224:344,1,80,2|0,0:0|0:0,0:0:0:0:
300,328,71567,1,2,0:0:0:0:
364,228,71781,1,8,0:0:0:0:
256,192,71995,12,2,73710,0:0:0:0:
172,60,74138,5,2,0:0:0:0:
152,138,74352,1,2,0:0:0:0:
132,216,74567,5,0,0:0:0:0:
132,216,74674,1,0,0:0:0:0:
132,216,74781,2,0,L|121:254,2,40,2|0|0,0:0|0:0|0:0,0:0:0:0:
77,155,75210,1,2,0:0:0:0:
111,136,75317,1,0,0:0:0:0:
152,138,75424,1,0,0:0:0:0:
189,156,75531,1,0,0:0:0:0:
209,191,75638,6,0,P|212:232|192:272,1,80,6|0,0:0|0:0,0:0:0:0:
164,340,76067,1,8,0:0:0:0:
244,332,76281,2,0,P|284:320|324:332,1,80,2|0,0:0|0:0,0:0:0:0:
392,368,76710,2,0,P|430:377|468:365,1,80,2|8,0:0|0:0,0:0:0:0:
512,300,77138,2,0,P|528:220|496:148,1,160,2|0,0:0|0:0,0:0:0:0:
448,88,77781,2,0,P|424:120|420:160,1,80,8|2,0:0|0:0,0:0:0:0:
508,40,78210,2,0,P|476:16|436:12,1,80,0|2,0:0|0:0,0:0:0:0:
376,60,78638,1,8,0:0:0:0:
296,196,79067,6,0,L|216:212,1,80,2|0,0:0|0:0,0:0:0:0:
140,228,79495,1,8,0:0:0:0:
68,324,79710,2,0,L|228:292,1,160,2|0,0:0|0:0,0:0:0:0:
304,276,80352,1,8,0:0:0:0:
372,320,80567,2,0,P|444:340|504:288,1,160,2|0,0:0|0:0,0:0:0:0:
428,260,81210,1,8,0:0:0:0:
360,220,81424,1,0,0:0:0:0:
304,276,81638,2,0,L|224:292,1,80
128,196,82067,2,0,L|208:180,1,80,8|0,0:0|0:0,0:0:0:0:
284,164,82495,6,0,B|272:124|236:96|192:104|192:104|152:112,1,160,6|8,0:0|0:0,0:0:0:0:
76,132,83138,1,2,0:0:0:0:
44,204,83352,1,0,0:0:0:0:
128,196,83567,2,0,L|208:180,1,80,2|8,0:0|0:0,0:0:0:0:
284,164,83995,1,6,0:0:0:0:
232,320,84424,6,0,L|312:304,1,80,0|10,0:0|0:0,0:0:0:0:
388,288,84852,1,0,0:0:0:0:
332,228,85067,1,0,0:0:0:0:
284,164,85281,2,0,L|205:179,1,80,2|8,0:0|0:0,0:0:0:0:
128,196,85710,1,0,0:0:0:0:
256,192,85924,12,2,87424,0:0:0:0:
436,92,87852,5,2,0:0:0:0:
356,80,88067,1,10,0:0:0:0:
276,68,88281,1,0,0:0:0:0:
276,68,88388,1,0,0:0:0:0:
276,68,88495,2,0,L|232:64,3,40,2|0|0|0,0:0|0:0|0:0|0:0,0:0:0:0:
208,92,88924,2,0,L|164:96,3,40,10|0|0|0,0:0|0:0|0:0|0:0,0:0:0:0:
132,112,89352,6,0,L|122:193,1,80,6|0,0:0|0:0,0:0:0:0:
112,272,89781,1,8,0:0:0:0:
52,220,89995,2,0,P|120:192|184:240,1,160,2|2,0:0|0:0,0:0:0:0:
256,272,90638,1,8,0:0:0:0:
328,239,90852,2,0,P|388:192|460:220,1,160,2|0,0:0|0:0,0:0:0:0:
400,272,91495,1,8,0:0:0:0:
376,116,91710,2,0,L|366:36,1,80,2|0,0:0|0:0,0:0:0:0:
222,32,92138,2,0,L|232:112,1,80,2|8,0:0|0:0,0:0:0:0:
244,192,92567,1,0,0:0:0:0:
256,272,92781,6,0,P|184:244|168:168,1,160,6|8,0:0|0:0,0:0:0:0:
232,112,93424,2,0,P|304:140|320:216,1,160,6|0,0:0|0:0,0:0:0:0:
244,192,94067,1,8,0:0:0:0:
256,192,94281,12,8,95781,0:0:0:0:
188,252,96210,6,0,P|256:288|324:252,1,160,6|8,0:0|0:0,0:0:0:0:
324,164,96852,2,0,P|256:128|188:164,1,160
256,208,97495,1,8,0:0:0:0:
256,208,97710,1,0,1:0:0:0:
256,208,98138,5,0,1:0:0:0:
324,248,98352,1,0,1:0:0:0:
332,328,98567,1,2,0:0:0:0:
260,360,98781,1,2,0:0:0:0:
256,360,98888,1,2,0:0:0:0:
252,360,98995,1,2,0:0:0:0:
184,328,99210,1,10,0:0:0:0:
196,248,99424,1,2,0:0:0:0:
192,248,99531,1,2,0:0:0:0:
188,248,99638,6,0,P|116:208|100:136,1,160,6|10,0:0|0:0,0:0:0:0:
20,116,100281,2,0,P|68:60|148:72,1,160,2|2,0:0|0:0,0:0:0:0:
220,108,100924,1,8,0:0:0:0:
220,108,101138,2,0,L|244:184,1,80,2|2,0:0|0:0,0:0:0:0:
268,260,101567,1,2,0:0:0:0:
188,248,101781,1,10,0:0:0:0:
328,196,101995,1,2,0:0:0:0:
328,196,102102,1,0,0:0:0:0:
328,196,102210,2,0,P|352:232|388:248,1,80,0|2,0:0|0:0,0:0:0:0:
464,148,102638,2,0,P|440:112|404:96,1,80,10|2,0:0|0:0,0:0:0:0:
364,28,103067,6,0,B|320:64|332:116|332:116|300:117|275:139,1,160,2|8,0:0|0:0,0:0:0:0:
328,196,103710,2,0,B|304:216|272:217|272:217|284:269|240:305,1,160,0|2,0:0|0:0,0:0:0:0:
180,356,104352,2,0,L|100:356,1,80,10|2,0:0|0:0,0:0:0:0:
40,304,104781,2,0,P|8:232|40:160,1,160,2|8,0:0|0:0,0:0:0:0:
100,112,105424,2,0,L|180:112,1,80,0|0,0:0|0:0,0:0:0:0:
232,52,105852,1,0,0:0:0:0:
284,112,106067,1,8,0:0:0:0:
336,52,106281,1,2,0:0:0:0:
336,52,106388,1,2,0:0:0:0:
336,52,106495,6,0,L|416:52,1,80,6|0,0:0|0:0,0:0:0:0:
468,112,106924,1,10,0:0:0:0:
416,172,107138,2,0,P|405:210|416:248,1,80,2|0,0:0|0:0,0:0:0:0:
380,320,107567,2,0,P|342:309|304:320,1,80,2|8,0:0|0:0,0:0:0:0:
256,256,107995,1,2,0:0:0:0:
177,286,108210,6,0,L|149:210,1,80,6|2,0:0|0:0,0:0:0:0:
125,134,108638,1,10,0:0:0:0:
201,106,108852,2,0,L|257:258,1,160,2|2,0:0|0:0,0:0:0:0:
241,334,109495,1,10,0:0:0:0:
177,286,109710,1,2,0:0:0:0:
125,134,109924,6,0,P|136:56|224:32,1,160,6|8,0:0|0:0,0:0:0:0:
307,27,110567,2,0,P|377:58|387:134,1,160,0|2,0:0|0:0,0:0:0:0:
352,232,111210,1,10,0:0:0:0:
256,272,111424,1,2,0:0:0:0:
160,232,111638,6,0,P|256:171|352:232,1,240,6|2,0:0|0:0,0:0:0:0:
352,232,112388,1,2,0:0:0:0:
352,232,112495,1,2,0:0:0:0:
256,272,112710,1,2,0:0:0:0:
160,232,112924,1,10,0:0:0:0:
160,232,113031,1,2,0:0:0:0:
160,232,113138,1,2,0:0:0:0:
160,232,113245,1,2,0:0:0:0:
160,232,113352,1,6,0:0:0:0:
256,192,113995,12,0,120210,0:0:0:0:
