osu file format v12

[General]
AudioFilename: Cocoro Root.mp3
AudioLeadIn: 0
PreviewTime: 74791
Countdown: 0
SampleSet: Soft
StackLeniency: 0.7
Mode: 0
LetterboxInBreaks: 0
WidescreenStoryboard: 0

[Editor]
DistanceSpacing: 1
BeatDivisor: 4
GridSize: 4

[Metadata]
Title:Cocoro Root
TitleUnicode:ココロルート
Artist:Sakakibara Yui
ArtistUnicode:榊原ゆい
Creator:BeatofIke
Version:Easy@Function!
Source:Cocoro@Function!
Tags:opening galgame galge eroge kokoro vn visual novel pulltop willplus ココロ@ファンクション!
BeatmapID:324389
BeatmapSetID:114076

[Difficulty]
HPDrainRate:3
CircleSize:3
OverallDifficulty:3
ApproachRate:4
SliderMultiplier:0.9
SliderTickRate:1

[Events]
//Background and Video events
Video,0,"Video@Function!.avi"
0,0,"BG@Function!.jpg",0,0
//Break Periods
2,24410,29362
//Storyboard Layer 0 (Background)
//Storyboard Layer 1 (Fail)
//Storyboard Layer 2 (Pass)
//Storyboard Layer 3 (Foreground)
//Storyboard Sound Samples
//Background Colour Transformations
3,100,163,162,255

[TimingPoints]
210.075498078565,428.571428571429,4,2,2,60,1,0
13924,-100,4,2,1,65,0,0
17352,-100,4,2,1,65,0,0
18210,-100,4,2,2,65,0,0
18638,-100,4,2,1,65,0,0
19495,-100,4,2,2,65,0,0
20781,-100,4,2,1,70,0,0
36210,-100,4,2,2,70,0,0
36638,-100,4,2,1,70,0,0
39638,-100,4,2,2,70,0,0
40067,-100,4,2,1,70,0,0
43924,-100,4,2,2,70,0,0
44352,-100,4,2,1,70,0,0
49924,-100,4,2,2,70,0,0
50352,-100,4,2,1,70,0,0
53352,-100,4,2,2,70,0,0
53781,-100,4,2,1,70,0,0
65138,-100,4,2,2,70,0,0
66210,-100,4,2,1,70,0,0
67067,-100,4,2,2,70,0,0
67495,-100,4,2,1,70,0,0
75638,-100,4,2,1,75,0,1
76495,-100,4,2,2,75,0,1
76924,-100,4,2,1,75,0,1
79924,-100,4,2,2,75,0,1
80352,-100,4,2,1,75,0,1
91281,-100,4,2,2,75,0,1
91495,-100,4,2,1,75,0,1
94710,-100,4,2,2,75,0,1
95781,-100,4,2,1,75,0,1
98995,-100,4,2,2,75,0,1
99210,-100,4,2,1,75,0,1
99638,-100,4,2,1,70,0,0
108424,-100,4,2,2,70,0,0
108638,-100,4,2,1,70,0,0
114210,-100,4,2,1,60,0,0
115067,-100,4,2,1,50,0,0
115924,-100,4,2,1,45,0,0
116781,-100,4,2,1,40,0,0
117210,-100,4,2,1,35,0,0
117638,-100,4,2,1,30,0,0
118067,-100,4,2,1,25,0,0
118495,-100,4,2,1,20,0,0
118924,-100,4,2,1,15,0,0
119352,-100,4,2,1,10,0,0
119781,-100,4,2,1,5,0,0

[Colours]
Combo1 : 32,176,223
Combo2 : 43,106,170
Combo3 : 25,217,243
Combo4 : 0,213,112

[HitObjects]
300,240,3638,2,0,B|321:304|321:304|300:368,2,135,2|2|2,0:0|0:0|0:0,0:0:0:0:
212,240,5352,2,0,B|191:304|191:304|212:368,2,135,2|2|2,0:0|0:0|0:0,0:0:0:0:
300,240,7067,6,0,P|336:214|362:177,1,90,2|0,0:0|0:0,0:0:0:0:
362,90,7924,2,0,P|336:53|300:28,1,90
212,28,8781,2,0,P|175:53|149:90,1,90,2|0,0:0|0:0,0:0:0:0:
149,177,9638,2,0,P|175:214|212:240,1,90,2|2,0:0|0:0,0:0:0:0:
256,192,10495,12,2,12210,0:0:0:0:
328,124,13924,5,4,0:0:0:0:
300,40,14352,1,8,0:0:0:0:
212,40,14781,1,0,0:0:0:0:
184,124,15210,1,8,0:0:0:0:
256,180,15638,6,0,L|256:269,1,90,2|8,0:0|0:0,0:0:0:0:
300,348,16495,1,0,0:0:0:0:
212,348,16924,1,8,0:0:0:0:
140,300,17352,6,0,B|156:260|216:244|256:269|256:269|296:244|356:260|372:300,1,270,2|8,0:0|0:0,0:0:0:0:
428,367,19067,2,0,P|459:310|443:246,1,135,2|2,0:0|0:0,0:0:0:0:
387,178,20138,2,0,P|355:236|372:300,1,135,2|4,0:0|0:0,0:0:0:0:
256,192,20995,12,2,24210,0:0:0:0:
256,192,31067,12,2,32781,0:0:0:0:
300,296,34495,6,0,L|392:296,1,90,4|8,0:0|0:0,0:0:0:0:
456,236,35352,2,0,P|482:296|455:356,2,135,0|0|8,0:0|0:0|0:0,0:0:0:0:
390,296,37067,2,0,L|300:296,1,90,2|8,0:0|0:0,0:0:0:0:
212,296,37924,6,0,L|120:296,1,90,2|8,0:0|0:0,0:0:0:0:
56,236,38781,2,0,P|29:296|56:356,2,135,0|0|8,0:0|0:0|0:0,0:0:0:0:
122,296,40495,2,0,L|212:296,1,90,0|8,0:0|0:0,0:0:0:0:
256,216,41352,6,0,L|256:127,1,90,2|8,0:0|0:0,0:0:0:0:
212,48,42210,1,0,0:0:0:0:
300,48,42638,1,8,0:0:0:0:
372,96,43067,2,0,B|356:136|296:152|256:127|256:127|216:152|156:136|140:96,1,270,2|8,0:0|0:0,0:0:0:0:
256,192,44781,12,2,46495,0:0:0:0:
300,192,48210,6,0,L|365:126,1,90,4|8,0:0|0:0,0:0:0:0:
367,40,49067,2,0,P|427:64|451:125,2,135,0|0|8,0:0|0:0|0:0,0:0:0:0:
363,128,50781,2,0,L|299:191,1,90,0|8,0:0|0:0,0:0:0:0:
212,192,51638,6,0,L|146:126,1,90,2|8,0:0|0:0,0:0:0:0:
145,40,52495,2,0,P|84:64|60:125,2,135,0|0|8,0:0|0:0|0:0,0:0:0:0:
149,128,54210,2,0,L|212:191,1,90,0|8,0:0|0:0,0:0:0:0:
256,268,55067,5,4,0:0:0:0:
298,344,55495,2,0,P|256:358|214:344,1,90,8|0,0:0|0:0,0:0:0:0:
164,268,56352,1,8,0:0:0:0:
214,192,56781,2,0,P|256:178|298:192,1,90,4|8,0:0|0:0,0:0:0:0:
348,268,57638,1,2,0:0:0:0:
298,344,58067,1,8,0:0:0:0:
256,192,58495,12,2,60210,0:0:0:0:
176,316,61924,6,0,B|224:312|256:349|256:349|288:312|336:316,1,180,4|0,0:0|0:0,0:0:0:0:
380,236,63210,1,8,0:0:0:0:
316,172,63638,2,0,P|256:146|196:172,1,135,2|0,0:0|0:0,0:0:0:0:
132,236,64710,1,0,0:0:0:0:
108,320,65138,6,0,P|44:236|108:152,1,225,2|0,0:0|0:0,0:0:0:0:
172,88,66638,2,0,B|220:88|256:60|256:60|292:88|340:88,1,180,8|8,0:0|0:0,0:0:0:0:
300,168,67924,1,0,0:0:0:0:
212,168,68352,1,8,0:0:0:0:
172,248,68781,6,0,B|220:248|256:276|256:276|292:248|340:248,1,180,4|0,0:0|0:0,0:0:0:0:
400,316,70067,1,8,0:0:0:0:
315,344,70495,2,0,P|256:369|195:342,1,135,4|0,0:0|0:0,0:0:0:0:
112,316,71567,1,0,0:0:0:0:
256,192,71995,12,2,73710,0:0:0:0:
212,192,74781,5,2,0:0:0:0:
300,192,75210,1,2,0:0:0:0:
388,192,75638,6,0,P|364:132|300:104,2,135,4|0|8,0:0|0:0|0:0,0:0:0:0:
368,280,77352,2,0,P|340:316|300:332,1,90,0|8,0:0|0:0,0:0:0:0:
212,332,78210,2,0,P|171:315|144:280,1,90,0|8,0:0|0:0,0:0:0:0:
124,192,79067,6,0,P|148:132|212:104,2,135,2|2|8,0:0|0:0|0:0,0:0:0:0:
176,264,80781,2,0,B|224:260|256:297|256:297|288:260|336:264,1,180
388,192,82067,1,8,0:0:0:0:
316,136,82495,6,0,P|256:111|195:137,1,135,4|2,0:0|0:0,0:0:0:0:
140,64,83567,2,0,P|180:48|212:12,1,90,0|4,0:0|0:0,0:0:0:0:
300,13,84424,2,0,P|330:47|372:64,1,90,0|2,0:0|0:0,0:0:0:0:
316,136,85281,2,0,L|332:184,2,45,0|8|0,0:0|0:0|0:0,0:0:0:0:
256,192,85924,12,2,87424,0:0:0:0:
256,60,88495,5,2,0:0:0:0:
256,152,88924,1,10,0:0:0:0:
316,216,89352,6,0,P|256:241|195:215,1,135,4|2,0:0|0:0,0:0:0:0:
132,152,90424,1,2,0:0:0:0:
196,88,90852,2,0,P|256:63|317:89,1,135,2|8,0:0|0:0,0:0:0:0:
380,152,91924,1,0,0:0:0:0:
392,240,92352,1,8,0:0:0:0:
316,288,92781,6,0,P|256:313|195:287,1,135,4|6,0:0|0:0,0:0:0:0:
120,240,93852,1,2,0:0:0:0:
168,164,94281,2,0,P|256:58|344:164,1,315,4|8,0:0|0:0,0:0:0:0:
391,243,96210,6,0,P|416:304|390:365,1,135,4|0,0:0|0:0,0:0:0:0:
324,304,97281,1,0,0:0:0:0:
256,364,97710,1,0,1:0:0:0:
188,304,98138,1,0,1:0:0:0:
121,365,98567,2,0,P|95:304|120:243,1,135,2|8,0:0|0:0,0:0:0:0:
44,192,99638,5,4,0:0:0:0:
84,112,100067,1,8,0:0:0:0:
124,32,100495,2,0,P|168:24|212:32,1,90,0|8,0:0|0:0,0:0:0:0:
256,112,101352,5,2,0:0:0:0:
328,168,101781,1,8,0:0:0:0:
300,256,102210,2,0,P|256:264|212:256,1,90,0|8,0:0|0:0,0:0:0:0:
184,168,103067,5,2,0:0:0:0:
256,112,103495,1,8,0:0:0:0:
299,32,103924,2,0,P|343:24|388:32,1,90,0|8,0:0|0:0,0:0:0:0:
428,112,104781,5,2,0:0:0:0:
468,192,105210,1,8,0:0:0:0:
392,244,105638,2,0,L|310:288,1,90,0|8,0:0|0:0,0:0:0:0:
284,368,106495,6,0,P|236:328|232:260,1,135,4|2,0:0|0:0,0:0:0:0:
292,192,107567,1,2,0:0:0:0:
352,124,107995,2,0,P|349:58|300:15,1,135,2|8,0:0|0:0,0:0:0:0:
271,96,109067,2,0,L|191:138,1,90,0|8,0:0|0:0,0:0:0:0:
112,180,109924,6,0,P|100:264|172:312,1,180,4|0,0:0|0:0,0:0:0:0:
256,340,111210,1,8,0:0:0:0:
340,311,111638,2,0,P|411:264|400:180,1,180,4|0,0:0|0:0,0:0:0:0:
344,112,112924,1,8,0:0:0:0:
256,92,113352,1,4,0:0:0:0:
256,192,113995,12,0,120210,0:0:0:0:
