osu file format v12

[General]
AudioFilename: Cocoro Root.mp3
AudioLeadIn: 0
PreviewTime: 74791
Countdown: 0
SampleSet: Soft
StackLeniency: 0.7
Mode: 0
LetterboxInBreaks: 0
WidescreenStoryboard: 0

[Editor]
DistanceSpacing: 1
BeatDivisor: 4
GridSize: 4

[Metadata]
Title:Cocoro Root
TitleUnicode:ココロルート
Artist:Sakakibara Yui
ArtistUnicode:榊原ゆい
Creator:BeatofIke
Version:Beginner@Function!
Source:Cocoro@Function!
Tags:opening galgame galge eroge kokoro vn visual novel pulltop willplus ココロ@ファンクション!
BeatmapID:324181
BeatmapSetID:114076

[Difficulty]
HPDrainRate:2
CircleSize:3
OverallDifficulty:2
ApproachRate:3
SliderMultiplier:0.8
SliderTickRate:1

[Events]
//Background and Video events
Video,0,"Video@Function!.avi"
0,0,"BG@Function!.jpg",0,0
//Break Periods
2,24410,29362
//Storyboard Layer 0 (Background)
//Storyboard Layer 1 (Fail)
//Storyboard Layer 2 (Pass)
//Storyboard Layer 3 (Foreground)
//Storyboard Sound Samples
//Background Colour Transformations
3,100,163,162,255

[TimingPoints]
210.075498078565,428.571428571429,4,2,2,60,1,0
13924,-100,4,2,1,65,0,0
14781,-100,4,2,2,65,0,0
15210,-100,4,2,1,65,0,0
16495,-100,4,2,2,65,0,0
16924,-100,4,2,1,65,0,0
19495,-100,4,2,2,65,0,0
19710,-100,4,2,1,65,0,0
19924,-100,4,2,2,65,0,0
20781,-100,4,2,2,70,0,0
34495,-100,4,2,1,70,0,0
42210,-100,4,2,2,70,0,0
42638,-100,4,2,1,70,0,0
43924,-100,4,2,2,70,0,0
44352,-100,4,2,1,70,0,0
55924,-100,4,2,2,70,0,0
56352,-100,4,2,1,70,0,0
57638,-100,4,2,2,70,0,0
58067,-100,4,2,1,70,0,0
62781,-100,4,2,2,70,0,0
63210,-100,4,2,1,70,0,0
64495,-100,4,2,2,70,0,0
64710,-100,4,2,1,70,0,0
65567,-100,4,2,2,70,0,0
66210,-100,4,2,1,70,0,0
67067,-100,4,2,2,70,0,0
67495,-100,4,2,1,70,0,0
67924,-100,4,2,2,70,0,0
68352,-100,4,2,1,70,0,0
69638,-100,4,2,2,70,0,0
70067,-100,4,2,1,70,0,0
71352,-100,4,2,2,70,0,0
71567,-100,4,2,1,70,0,0
75638,-100,4,2,1,75,0,1
76495,-100,4,2,2,75,0,1
76924,-100,4,2,1,75,0,1
78210,-100,4,2,2,75,0,1
78638,-100,4,2,1,75,0,1
79924,-100,4,2,2,75,0,1
80352,-100,4,2,1,75,0,1
85281,-100,4,2,2,75,0,1
85495,-100,4,2,1,75,0,1
90210,-100,4,2,2,75,0,1
90638,-100,4,2,1,75,0,1
91924,-100,4,2,2,75,0,1
92352,-100,4,2,1,75,0,1
93638,-100,4,2,2,75,0,1
93852,-100,4,2,1,75,0,1
94710,-100,4,2,2,75,0,1
95781,-100,4,2,1,75,0,1
99424,-100,4,2,2,75,0,1
99638,-100,4,2,1,70,0,0
102210,-100,4,2,2,70,0,0
102638,-100,4,2,1,70,0,0
107352,-100,4,2,2,70,0,0
107781,-100,4,2,1,70,0,0
108638,-100,4,2,1,70,0,0
109067,-100,4,2,2,70,0,0
109495,-100,4,2,1,70,0,0
112495,-100,4,2,2,70,0,0
112924,-100,4,2,1,70,0,0
114210,-100,4,2,1,60,0,0
115067,-100,4,2,1,50,0,0
115924,-100,4,2,1,45,0,0
116781,-100,4,2,1,40,0,0
117210,-100,4,2,1,35,0,0
117638,-100,4,2,1,30,0,0
118067,-100,4,2,1,25,0,0
118495,-100,4,2,1,20,0,0
118924,-100,4,2,1,15,0,0
119352,-100,4,2,1,10,0,0
119781,-100,4,2,1,5,0,0

[Colours]
Combo1 : 32,176,223
Combo2 : 43,106,170
Combo3 : 25,217,243
Combo4 : 0,213,112

[HitObjects]
216,240,3638,2,0,P|160:140|216:40,1,240,2|0,0:0|0:0,0:0:0:0:
296,40,5352,2,0,P|352:140|296:240,1,240,2|0,0:0|0:0,0:0:0:0:
256,308,7067,5,2,0:0:0:0:
132,208,7924,1,0,0:0:0:0:
256,108,8781,1,2,0:0:0:0:
380,208,9638,1,2,0:0:0:0:
256,192,10495,12,2,12210,0:0:0:0:
216,164,13924,6,0,B|212:228|158:264|158:264|212:300|216:364,1,240,4|8,0:0|0:0,0:0:0:0:
296,364,15638,2,0,B|300:300|354:264|354:264|300:228|296:164,1,240,2|8,0:0|0:0,0:0:0:0:
296,84,17352,6,0,L|376:72,2,80,2|8|0,0:0|0:0|0:0,0:0:0:0:
256,16,18638,1,8,0:0:0:0:
216,84,19067,2,0,L|96:66,2,120,2|2|2,0:0|0:0|0:0,0:0:0:0:
296,84,20781,1,4,0:0:0:0:
256,192,20995,12,2,24210,0:0:0:0:
256,192,31067,12,2,32781,0:0:0:0:
296,64,34495,6,0,B|336:60|368:32|368:32|400:60|440:64,1,160,4|0,0:0|0:0,0:0:0:0:
480,132,35781,1,8,0:0:0:0:
436,200,36210,2,0,P|368:236|300:200,1,160,0|2,0:0|0:0,0:0:0:0:
256,132,37495,1,8,0:0:0:0:
212,200,37924,6,0,P|144:236|77:200,1,160,2|0,0:0|0:0,0:0:0:0:
32,132,39210,1,8,0:0:0:0:
72,64,39638,2,0,B|112:60|144:32|144:32|176:60|216:64,1,160
256,132,40924,1,8,0:0:0:0:
296,200,41352,6,0,P|380:254|295:307,1,240,2|8,0:0|0:0,0:0:0:0:
216,308,43067,2,0,P|130:254|215:200,1,240,2|8,0:0|0:0,0:0:0:0:
256,192,44781,12,2,46495,0:0:0:0:
298,84,48210,6,0,B|350:84|350:84|410:84|438:136,1,160,4|0,0:0|0:0,0:0:0:0:
494,192,49495,1,8,0:0:0:0:
438,248,49924,2,0,B|410:300|350:300|350:300|298:300,1,160
256,232,51210,1,8,0:0:0:0:
214,300,51638,6,0,B|162:300|162:300|102:300|74:248,1,160,2|0,0:0|0:0,0:0:0:0:
18,192,52924,1,8,0:0:0:0:
74,136,53352,2,0,B|102:84|162:84|162:84|214:84,1,160,0|0,0:0|0:0,0:0:0:0:
256,152,54638,1,8,0:0:0:0:
298,220,55067,6,0,P|383:274|298:328,1,240,4|8,0:0|0:0,0:0:0:0:
214,327,56781,2,0,P|129:274|214:220,1,240,4|8,0:0|0:0,0:0:0:0:
256,192,58495,12,2,60210,0:0:0:0:
156,322,61924,6,0,B|200:326|216:366|216:366|256:350|296:366|296:366|312:326|356:322,1,240,4|8,0:0|0:0,0:0:0:0:
392,252,63638,2,0,P|443:172|392:92,1,200,2|0,0:0|0:0,0:0:0:0:
340,32,65138,6,0,B|296:32|256:80|256:80|216:32|172:32,1,200,2|0,0:0|0:0,0:0:0:0:
119,92,66638,2,0,P|69:172|120:252,2,200,8|2|4,0:0|0:0|0:0,0:0:0:0:
180,148,69210,6,0,P|256:170|332:148,1,160,8|8,0:0|0:0,0:0:0:0:
392,92,70495,2,0,P|442:172|392:252,1,200,4|2,0:0|0:0,0:0:0:0:
256,192,71995,12,2,73710,0:0:0:0:
256,44,74781,6,0,L|256:124,1,80,2|2,0:0|0:0,0:0:0:0:
324,168,75638,6,0,P|380:186|436:168,2,120,4|0|8,0:0|0:0|0:0,0:0:0:0:
296,244,77352,2,0,P|322:296|375:323,2,120,0|2|8,0:0|0:0|0:0,0:0:0:0:
216,244,79067,6,0,P|189:296|136:323,2,120,2|2|8,0:0|0:0|0:0,0:0:0:0:
180,172,80781,2,0,P|141:180|96:168,1,80,0|8,0:0|0:0,0:0:0:0:
52,232,81638,2,0,P|60:264|56:312,1,80,0|8,0:0|0:0,0:0:0:0:
135,323,82495,6,0,P|188:296|216:244,1,120,4|2,0:0|0:0,0:0:0:0:
256,176,83567,2,0,L|256:96,2,80,2|4|2,0:0|0:0|0:0,0:0:0:0:
296,244,84852,2,0,P|323:296|375:323,1,120,2|8,0:0|0:0,0:0:0:0:
256,192,85924,12,2,87424,0:0:0:0:
216,96,88495,6,0,L|296:96,1,80,2|2,0:0|0:0,0:0:0:0:
296,176,89352,6,0,P|352:194|408:176,2,120,4|2|8,0:0|0:0|0:0,0:0:0:0:
216,176,91067,2,0,P|160:194|104:176,2,120,0|2|8,0:0|0:0|0:0,0:0:0:0:
216,96,92781,6,0,P|256:24|296:96,1,200,4|0,0:0|0:0,0:0:0:0:
296,176,94281,2,0,P|256:278|216:176,1,280,4|8,0:0|0:0,0:0:0:0:
146,136,96210,6,0,P|118:196|122:256,1,120,4|2,0:0|0:0,0:0:0:0:
144,324,97281,2,0,L|216:360,1,80,2|0,0:0|1:0,0:0:0:0:
296,360,98138,2,0,L|368:324,1,80,0|0,1:0|1:0,0:0:0:0:
392,248,98995,2,0,P|392:189|366:136,1,120,2|4,0:0|0:0,0:0:0:0:
296,96,100067,6,0,L|216:96,1,80,8|0,0:0|0:0,0:0:0:0:
168,160,100924,1,8,0:0:0:0:
156,240,101352,2,0,B|200:244|216:284|216:284|256:268|296:284|296:284|312:244|356:240,1,240,2|8,0:0|0:0,0:0:0:0:
344,160,103067,6,0,P|404:176|432:264,2,160,2|0|2,0:0|0:0|0:0,0:0:0:0:
296,96,105210,2,0,L|296:16,1,80,8|0,0:0|0:0,0:0:0:0:
216,16,106067,2,0,L|216:96,1,80,8|4,0:0|0:0,0:0:0:0:
168,160,106924,6,0,P|108:176|80:264,1,160,8|8,0:0|0:0,0:0:0:0:
136,316,108210,2,0,L|256:316|376:316,1,240,4|8,0:0|0:0,0:0:0:0:
432,262,109924,6,0,P|415:187|344:160,1,160,4|0,0:0|0:0,0:0:0:0:
356,240,111210,1,8,0:0:0:0:
316,308,111638,2,0,L|256:308|196:308,2,120,4|2|8,0:0|0:0|0:0,0:0:0:0:
356,240,113352,1,4,0:0:0:0:
256,192,113995,12,0,120210,0:0:0:0:
