osu file format v9

[General]
AudioFilename: chu x chu.mp3
AudioLeadIn: 1500
PreviewTime: 52268
Countdown: 1
SampleSet: Soft
StackLeniency: 0.5
Mode: 0
LetterboxInBreaks: 1

[Editor]
DistanceSpacing: 0.8
BeatDivisor: 2
GridSize: 4

[Metadata]
Title:Chu x Chu!!
Artist:Sakakibara Yui
Creator:Snowy Dream
Version:Relaxing
Source:Chu x Chu Idol
Tags:Video game galgame pink vampire Komeiji Yuki

[Difficulty]
HPDrainRate:3
CircleSize:4
OverallDifficulty:5
ApproachRate:6
SliderMultiplier:1.2
SliderTickRate:2

[Events]
//Background and Video events
0,0,"chuchu!.jpg"
//Break Periods
2,77015,87059
2,146191,156225
//Storyboard Layer 0 (Background)
//Storyboard Layer 1 (Fail)
//Storyboard Layer 2 (Pass)
//Storyboard Layer 3 (Foreground)
//Storyboard Sound Samples
//Background Colour Transformations
3,100,245,84,237

[TimingPoints]
580,352.941176470588,4,2,0,70,1,0
52815,-100,4,1,0,70,0,1
69050,-100,4,1,0,70,0,0
76815,-100,4,2,0,80,0,0
121109,-200,4,2,0,80,0,0
121991,-100,4,1,0,70,0,1
138932,-100,4,1,0,70,0,0
168579,-100,4,1,0,70,0,1
174227,-100,4,1,0,70,0,0
179874,-100,4,1,0,70,0,1
185521,-100,4,1,0,70,0,0
191168,-100,4,1,0,70,0,1
215168,-100,4,1,0,70,0,0
228932,-100,4,2,0,70,0,0

[Colours]
Combo1 : 182,182,182
Combo2 : 240,0,120
Combo3 : 0,0,240
Combo4 : 252,78,200

[HitObjects]
112,104,5521,5,0
112,104,5874,1,0
80,192,6227,2,0,B|144:200|192:160,1,120,4|8
280,120,6932,1,0
360,168,7285,1,0
312,248,7638,2,0,B|264:287|200:296,1,120,0|8
120,256,8344,2,0,B|80:192,1,60
136,184,8697,2,0,B|104:128,1,60
144,104,9050,6,0,B|208:88|280:104,1,120,0|8
328,168,9756,2,0,B|264:184|192:168,1,120
200,264,10462,2,0,B|256:232,1,60
288,264,10815,2,0,B|352:224,1,60,8|0
376,264,11168,1,0
376,264,11521,1,0
448,152,11874,6,0,B|384:128|328:152,1,120,4|8
248,96,12579,1,0
232,192,12932,1,0
200,280,13285,2,0,B|256:312|328:280,1,120,0|8
408,272,13991,1,0
352,192,14344,1,0
416,120,14697,6,0,B|360:80|304:120,3,120,0|8|0|0
224,176,16109,2,0,B|168:215|112:175,3,120,0|8|0|0
88,272,17521,1,0
184,272,17874,2,0,B|320:272,1,120,8|0
368,344,18579,2,0,B|240:344,1,120,0|4
152,336,19285,5,8
152,336,19462,1,0
144,240,19815,2,0,B|208:208|272:232,1,120
304,248,20344,1,0
400,224,20697,2,0,B|360:176|296:152,2,120,8|0|8
336,296,21756,2,0,B|288:328|216:328,1,120,0|8
160,256,22462,2,0,B|103:244|52:193,1,120,0|8
128,136,23168,2,0,B|80:96,1,60,0|2
156,36,23697,2,0,B|204:84,1,60,0|2
212,172,24227,1,8
304,152,24579,6,0,B|368:128|424:128,1,120,4|8
464,144,25109,1,0
448,240,25462,2,0,B|416:264|376:272,1,60,0|8
304,256,25991,2,0,B|240:240|176:248,1,120,4|8
148,216,26521,1,0
136,168,26697,2,0,B|200:184|264:176,1,120,0|8
344,136,27403,5,0
424,184,27756,1,8
344,232,28109,2,0,B|360:296|408:336,1,120,0|8
408,240,28815,2,0,B|375:297|319:323,1,120,0|8
240,272,29521,1,0
192,264,29697,1,0
144,272,29874,1,8
136,176,30227,6,0,B|200:152|256:176,1,120,0|8
344,160,30932,1,0
312,248,31285,1,8
408,240,31638,2,0,B|464:128,1,120,0|8
392,64,32344,1,0
296,80,32697,2,0,B|176:80,1,120,8|0
112,152,33403,1,8
112,152,33579,1,0
208,152,33932,1,0
208,152,34109,6,0,B|296:152,2,60,8|0|0
160,232,34815,1,8
224,304,35168,1,0
312,272,35521,1,8
296,176,35874,1,4
368,112,36227,6,0,B|376:184,2,60,8|0|0
280,80,36932,1,8
184,64,37285,2,0,B|120:72|72:128,1,120,4|8
168,152,37991,1,0
208,184,38168,1,0
216,232,38344,1,8
136,288,38697,6,0,B|112:224|56:192,2,120,0|8|0
232,304,39756,1,8
280,304,39932,1,0
328,288,40109,2,0,B|352:224|408:192,2,120,0|8|0
272,208,41168,2,0,B|152:208,1,120,8|4
120,96,41874,6,0,B|184:80|248:96,2,120,8|0|8
184,168,42932,2,0,B|248:184|312:168,2,120,0|8|0
248,96,43991,2,0,B|280:80|312:96,2,60,8|0|4
152,112,44697,2,0,B|96:144|80:216,1,120,8|4
64,112,45403,2,0,B|96:160|152:192,1,120,8|4
248,200,46109,2,0,B|280:184|312:184,2,60,8|0|4
192,280,46815,1,8
288,280,47168,6,0,B|352:296|424:280,1,120,4|8
368,192,47874,2,0,B|408:144|416:80,1,120,0|8
320,80,48579,2,0,B|272:40|208:31,1,120,0|8
152,112,49285,1,0
192,136,49462,1,0
240,128,49638,1,8
256,192,49991,12,4,52109
120,128,52815,5,2
120,128,53168,2,0,B|176:112|240:128,1,120,0|2
312,184,53874,1,8
312,184,54050,2,0,B|264:224|192:256,1,120
128,192,54756,1,2
152,288,55109,5,0
120,320,55285,1,0
160,352,55462,1,0
192,320,55638,2,0,B|256:312|296:256,1,120,2|8
360,192,56344,2,0,B|344:152|312:136,2,60
444,148,57050,1,2
368,88,57403,1,8
280,48,57756,2,0,B|256:32|224:48,2,60,0|0|8
200,104,58462,6,0,B|144:88|80:104,1,120,2|0
144,176,59168,1,2
144,176,59344,2,0,B|128:200|96:208,2,60
184,264,60050,1,0
264,192,60403,2,0,B|296:200|320:224,2,60,2|0|0
352,144,61109,1,0
352,144,61285,5,2
264,104,61638,2,0,B|208:80|144:80,1,120,8|0
176,176,62344,1,8
248,240,62697,2,0,B|200:288|128:304,1,120,2|0
80,224,63403,2,0,B|56:192|16:184,2,60,2|0|8
120,88,64109,6,0,B|184:80|248:88,1,120,2|8
184,168,64815,1,0
280,144,65168,2,0,B|304:128|344:128,2,60,8|0|0
256,240,65874,1,2
344,208,66227,1,0
376,248,66403,1,0
368,296,66579,1,8
272,320,66932,5,2
272,320,67285,1,8
176,304,67638,2,0,B|120:296|56:296,2,120,2|8|0
152,208,68697,1,8
248,216,69050,1,2
288,128,69403,6,0,B|352:120|424:128,2,120,0|2|8
192,104,70462,1,0
192,104,70638,1,2
112,160,70991,2,0,B|176:176|240:176,1,120
320,224,71697,1,2
320,224,71874,2,0,B|264:240|184:248,1,120,0|8
104,256,72580,2,0,B|96:184|40:144,2,120,0|8|0
192,288,73638,1,8
256,192,73815,12,0,76815
120,88,88109,6,0,B|192:80|256:80,1,120,0|8
280,104,88638,1,0
360,152,88991,2,0,B|408:192|424:264,1,120,2|0
384,288,89521,2,0,B|336:248|320:176,1,120,2|8
232,160,90227,1,0
144,128,90580,1,2
64,184,90932,2,0,B|48:240|64:312,2,120,2|8|0
160,200,91991,1,2
208,216,92168,1,0
256,200,92344,2,0,B|320:184|392:192,2,120,2|8|0
304,112,93403,5,8
216,80,93756,2,0,B|192:64|144:48,3,60,2|0|8|4
128,144,94638,1,0
128,144,94815,1,8
168,232,95168,2,0,B|232:224|296:224,2,120,2|8|4
216,312,96227,5,8
168,312,96403,1,0
124,292,96580,2,0,B|68:260|36:196,1,120,2|8
80,120,97285,2,0,B|136:152|168:216,1,120,2|8
256,192,97991,2,0,B|320:160|376:144,2,120,2|8|0
280,288,99050,2,0,B|312:304|352:304,2,60,8|0|2
336,208,99756,5,2
336,208,99932,1,0
408,152,100285,2,0,B|344:112|272:112,1,120,2|0
248,128,100815,1,2
160,160,101168,2,0,B|136:196|172:252|148:288,1,120,8|0
248,300,101874,2,0,B|312:284|384:292,1,120,8|0
400,200,102580,5,8
400,200,102756,2,0,B|360:144|400:80,1,120,0|2
304,72,103462,1,0
304,72,103638,1,2
216,120,103991,2,0,B|256:176|216:240,1,120,8|0
136,184,104697,6,0,B|8:184,1,120,8|4
80,256,105403,1,8
80,256,105580,2,0,B|200:256,1,120
200,256,106109,1,8
296,280,106462,1,4
392,264,106815,2,0,B|396:232|380:204,1,60,8|0
296,88,107521,5,8
328,48,107697,1,0
376,40,107874,1,2
376,136,108227,2,0,B|440:160|480:208,2,120,8|0|8
344,176,109109,1,0
296,192,109285,2,0,B|232:168|192:120,2,120,0|8|0
232,264,110344,2,0,B|216:296|232:336,2,60,8|0|2
104,120,111403,6,0,B|144:64|200:32,1,120,2|0
208,136,112109,2,0,B|256:176|320:184,1,120,2|0
352,152,112638,2,0,B|368:216|312:288,1,120,2|0
280,288,113168,1,2
184,272,113521,6,0,B|128:256|56:264,1,120,4|8
56,216,114050,1,0
96,184,114227,2,0,B|160:176|216:200,1,120,4|8
232,152,114756,1,0
272,136,114932,2,0,B|336:136,1,60,2|0
328,184,115285,2,0,B|400:184,1,60,8|0
408,232,115638,2,0,B|272:232,1,120,4|8
176,312,116344,6,0,B|128:256|176:200,1,120,2|8
264,184,117050,2,0,B|258:110|184:104,1,120,2|8
96,120,117756,1,0
64,208,118109,1,8
256,192,118285,12,0,120580
232,128,121285,6,0,B|176:104|112:128,1,120,2|0
176,200,122344,6,0,B|231:223|292:201,1,120,0|2
376,144,123050,1,0
376,144,123227,1,2
440,216,123580,2,0,B|424:272|360:304,1,120
264,288,124285,2,0,B|224:312|200:320,2,60,0|8|0
296,256,124815,1,2
216,208,125168,6,0,B|256:152|328:164,1,120,8|2
416,192,125874,2,0,B|416:120|368:72,1,120,8|0
284,64,126580,1,0
248,60,126756,1,2
172,116,127109,1,0
168,152,127285,1,2
108,224,127638,6,0,B|112:256|104:288,2,60,2|0|8
204,240,128344,2,0,B|260:216|340:208,1,120,2|8
408,144,129050,1,0
368,120,129227,1,0
320,120,129403,1,8
224,128,129756,2,0,B|168:96|128:48,1,120,2|8
80,136,130462,5,2
80,136,130815,1,8
112,224,131168,2,0,B|80:248|48:264,2,60,2|0|8
248,272,131874,2,0,B|242:311|231:345,2,60,2|0|8
384,224,132580,2,0,B|408:256|424:288,2,60,2|0|8
408,120,133285,5,2
408,120,133638,1,8
304,80,133991,2,0,B|240:64|160:72,2,120,2|8|0
248,168,135050,1,8
200,184,135227,1,0
152,160,135403,2,0,B|96:166|32:150,2,120,2|8|0
124,252,136462,2,0,B|103:258|75:286,2,60,8|0|2
216,280,137168,2,0,B|280:264|344:240,1,120,8|0
428,248,137874,2,0,B|452:280|460:312,2,60,8|0|2
428,248,138580,1,8
416,152,138932,5,0
416,152,139285,1,0
320,96,139638,2,0,B|288:96|256:112,3,60
160,152,140521,1,0
224,240,140874,5,0
224,240,141050,2,0,B|288:224|352:232,2,120,2|8|0
160,328,142109,1,0
128,308,142285,1,2
84,224,142638,1,0
84,188,142815,1,2
256,192,143168,12,4,145991
100,88,157285,6,0,B|160:68|232:88,2,120,6|0|2
164,160,158344,2,0,B|144:220|164:292,2,120,0|2|0
240,216,159403,2,0,B|272:228|308:216,2,60,2|0|2
300,140,160109,6,0,B|364:160|376:224,2,120,2|0|2
288,44,161168,2,0,B|223:56|203:120,2,120,0|2|0
372,92,162227,1,2
420,104,162403,1,0
452,140,162580,1,2
448,236,162932,6,0,B|400:276|340:304,1,120,0|8
300,296,163462,1,0
264,328,163638,2,0,B|201:322|139:299,1,120,0|8
116,265,164168,1,0
68,260,164344,2,0,B|28:212|0:152,1,120,0|8
92,124,165050,6,0,B|88:92|72:64,2,60,0|0|8
176,76,165756,2,0,B|296:40|368:152|296:280|160:224,1,360,2|8
224,160,167168,6,0,B|288:160|348:140,1,120,2|8
388,128,167697,1,2
356,92,167874,2,0,B|356:156|376:216,1,120,0|8
324,292,168580,21,2
324,292,168932,1,2
236,256,169285,2,0,B|176:268|96:268,1,120,0|8
172,188,169991,2,0,B|232:176|312:176,1,120,0|8
388,164,170697,2,0,B|388:124|372:96,2,60,0|0|8
388,260,171403,6,0,B|388:300|372:328,2,60,2|0|8
448,184,172109,2,0,B|388:152|328:188,1,120,2|8
256,240,172815,2,0,B|208:288,1,60,2|0
168,280,173168,2,0,B|120:232,1,60,8|0
128,192,173521,2,0,B|176:144,1,60,2|0
216,152,173874,2,0,B|264:200,1,60,8|0
304,192,174227,6,0,B|368:192,2,60,2|0|8
376,128,174932,2,0,B|312:112|256:88,1,120,2|8
168,80,175638,1,2
128,104,175815,1,0
120,152,175991,1,8
216,152,176344,2,0,B|232:216|176:264,2,120,2|8|0
304,192,177403,6,0,B|432:192,1,120,8|2
392,280,178109,1,8
296,288,178462,2,0,B|236:304|176:288,1,120,0|8
176,192,179168,2,0,B|236:176|296:192,1,120,0|8
384,160,179874,6,0,B|404:136|448:120,2,60,0|0|8
296,128,180580,2,0,B|288:120|288:120|288:128|288:128|280:120|280:120|280:128|280:128|272:120|272:120|272:128|272:128|264:120|264:120|264:128|264:128|256:120|256:120|256:128|256:128|248:120|248:120|248:128|248:128|240:120|240:120|240:128|240:128|232:120,1,120,0|8
152,136,181285,2,0,B|128:160|128:200,2,60,2|0|8
208,216,181991,1,2
256,232,182168,1,0
304,216,182344,1,8
400,200,182697,6,0,B|440:248|440:312,2,120,2|8|0
480,152,183756,1,8
448,64,184109,2,0,B|384:56|328:80,1,120,2|8
256,144,184815,1,2
240,112,184991,1,0
216,88,185168,1,8
184,72,185344,1,0
152,64,185521,1,2
152,160,185874,6,0,B|128:216|64:240,2,120,8|2|0
168,256,186932,1,2
264,272,187285,1,2
200,344,187638,2,0,B|256:368|320:344,1,120,0|8
400,296,188344,2,0,B|424:240|408:208,2,90,2|0|0
352,280,189050,1,2
304,200,189403,1,2
392,176,189756,6,0,B|440:128|448:72,1,120,4|8
416,40,190285,1,0
376,64,190462,2,0,B|328:112|320:168,1,120,2|8
224,184,191168,6,0,B|168:160|104:152,1,120,0|8
136,248,191874,1,2
224,288,192227,1,8
224,288,192403,2,0,B|288:288|336:248,1,120
432,264,193109,2,0,B|416:200|368:160,2,120,2|0|0
416,308,193991,1,8
320,328,194344,6,0,B|184:328,1,120,2|8
128,256,195050,1,0
128,256,195227,2,0,B|128:128,1,120,2|0
176,144,195756,1,0
208,184,195932,2,0,B|208:248,1,60,0|8
256,264,196285,2,0,B|256:200,1,60,0|8
352,216,196815,6,0,B|328:160|280:120,2,120,2|8|0
392,128,197874,2,0,B|432:176|448:240,1,120,0|8
384,304,198580,1,0
336,320,198756,1,0
288,320,198932,1,8
192,296,199285,2,0,B|240:256|304:240,2,120,2|8|0
112,248,200344,2,0,B|56:216|64:144,1,120,2|8
136,80,201050,2,0,B|192:112|184:184,1,120,2|8
280,152,201756,2,0,B|224:120|232:48,1,120,2|8
328,80,202462,5,2
328,80,202815,1,2
360,168,203168,2,0,B|384:192|392:224,3,60,2|0|8|0
344,304,204050,1,0
264,256,204403,1,0
216,176,204756,2,0,B|192:152|184:120,3,60,0|8|0|2
104,72,205638,6,0,B|80:128|120:192,1,120,2|0
64,264,206344,1,0
112,256,206521,1,0
160,272,206697,2,0,B|216:304|280:304,1,120,8|0
368,296,207403,6,0,B|424:256,1,60,8|0
392,216,207756,2,0,B|336:256,1,60
304,232,208109,2,0,B|272:176|288:112,1,120,2|8
232,192,208815,2,0,B|288:160|352:176,1,120,2|8
344,128,209344,1,0
280,56,209697,2,0,B|248:56|216:72,3,60,2|8|0|2
136,112,210580,5,0
96,136,210756,1,0
136,160,210932,1,8
80,232,211285,2,0,B|136:264|192:272,1,120,2|0
228,240,211815,1,0
240,192,211991,2,0,B|280:192|304:216,2,60,0|0|8
256,192,212521,12,4,215168
268,112,215874,6,0,B|332:92|388:96,1,120,0|8
328,172,216580,2,0,B|264:192|208:188,1,120,0|8
120,160,217285,5,2
208,128,217638,1,0
204,296,217991,6,0,B|140:316|84:312,1,120,0|8
144,236,218697,2,0,B|208:216|264:220,1,120,0|8
336,280,219403,2,0,B|389:241|389:177,1,120,4|8
296,176,220109,2,0,B|242:214|242:278,1,120,4|8
160,232,220815,6,0,B|104:208,2,60,2|0|8
208,152,221521,2,0,B|264:128|328:120,1,120,2|8
400,176,222227,2,0,B|344:200|280:208,1,120,2|8
288,304,222932,1,2
384,288,223285,1,8
456,224,223638,6,0,B|456:160|432:104,1,120,2|8
336,112,224344,2,0,B|290:66|234:44,1,120,2|8
192,128,225050,2,0,B|128:128|72:152,1,120,2|8
120,232,225756,2,0,B|74:277|52:333,1,120,2|8
256,192,226462,12,2,228932
