osu file format v9

[General]
AudioFilename: change&chance.mp3
AudioLeadIn: 0
PreviewTime: 62450
Countdown: 0
SampleSet: Soft
StackLeniency: 0.7
Mode: 0
LetterboxInBreaks: 1

[Editor]
DistanceSpacing: 0.8
BeatDivisor: 4
GridSize: 8

[Metadata]
Title:Change&Chance!
Artist:Sakakibara Yui
Creator:kiririn_
Version:Normal
Source:Noble Works
Tags:yuzusoft xellop l i a

[Difficulty]
HPDrainRate:1
CircleSize:3
OverallDifficulty:2
ApproachRate:4
SliderMultiplier:1
SliderTickRate:1

[Events]
//Background and Video events
0,0,"3.jpg"
Video,0,"op_movie.avi"
//Break Periods
2,45823,46625
//Storyboard Layer 0 (Background)
//Storyboard Layer 1 (Fail)
//Storyboard Layer 2 (Pass)
//Storyboard Layer 3 (Foreground)
//Storyboard Sound Samples
//Background Colour Transformations
3,100,163,162,255

[TimingPoints]
720,387.096774193548,4,2,1,50,1,0
13010,-100,4,2,1,71,0,0
13784,-100,4,2,1,50,0,0
14558,-100,4,2,1,30,0,0
15332,-100,4,2,1,21,0,0
19976,-100,4,2,0,70,0,0
61784,-100,4,2,1,70,0,0
62655,-100,4,2,0,80,0,1
86655,-100,4,2,1,100,0,0

[Colours]
Combo1 : 36,51,92
Combo2 : 223,130,34
Combo3 : 99,157,171
Combo4 : 184,96,121

[HitObjects]
80,112,2268,2,0,B|184:72|288:120,1,200,4|0
144,200,3816,2,0,B|234:242|338:202,1,200,4|0
496,192,5365,1,0
368,288,6139,1,0
240,192,6913,1,4
448,80,7687,6,0,B|400:56|344:80,1,100,0|2
272,144,8461,2,0,B|320:168|392:144,2,100,0|2|0
200,72,9623,1,2
136,144,10010,6,0,B|72:168|24:136,2,100,0|2|0
200,216,11171,1,2
200,216,11558,2,0,B|256:240|312:208,2,100,0|2|0
256,304,12720,1,2
256,208,13107,5,2
80,112,13881,1,2
256,16,14655,1,2
432,112,15429,1,2
256,208,16203,1,4
80,272,16978,6,0,B|168:312|240:288,1,150,4|0
272,280,17752,1,8
432,112,18526,2,0,B|352:80|272:96,1,150,4|0
240,104,19300,1,8
256,304,20074,2,0,B|288:232|224:232|264:136,1,150
256,112,20849,1,4
160,72,21236,6,0,B|128:112|128:176,1,100,2|0
200,232,22010,1,2
224,328,22397,2,0,B|272:320|320:272,1,100,0|2
384,216,23171,2,0,B|336:176|280:160,2,100,0|2|0
224,328,24719,5,2
80,192,25494,1,0
176,176,25881,1,0
272,192,26268,2,0,B|312:200|336:184,4,50,0|0|0|0|4
224,104,27429,6,0,B|160:64|120:120,1,100,2|0
64,176,28203,1,2
152,224,28590,1,0
240,176,28978,2,0,B|304:216|344:160,1,100,2|0
416,120,29752,1,2
424,216,30139,2,0,B|400:280|328:264,1,100,0|2
248,272,30913,2,4,B|224:288|184:264,3,50
256,192,31687,12,0,32849
96,80,33236,6,0,B|88:144|128:184,1,100,4|2
184,224,34010,1,0
232,160,34397,2,0,B|288:144|336:160,1,100,2|0
305,234,35171,2,0,B|345:250|369:218,2,50,2|0|0
304,234,35945,1,2
232,280,36332,6,0,B|184:304|128:280,1,100,0|2
72,232,37107,1,0
128,176,37494,2,0,B|192:152|232:184,1,100,2|0
256,248,38268,2,0,B|280:256|304:248,2,50
312,184,39042,6,0,B|344:120|304:72,1,100,2|0
256,32,39816,1,2
200,88,40203,2,0,B|171:119|203:183,1,100,0|2
208,264,40978,2,0,B|176:280|144:256,2,50
168,192,41752,2,0,B|224:160|280:200,1,100,0|2
320,136,42526,6,0,B|360:168|344:296|312:328,1,200
232,336,43687,1,2
152,328,44074,2,4,B|122:299|106:171|146:139,1,200
200,80,45236,1,6
200,80,45623,1,4
72,88,47945,6,0,B|184:88,1,100,0|0
216,160,48719,1,2
136,184,49107,2,0,B|156:264|280:264|294:177,1,200,0|0
352,144,50268,1,2
432,120,50655,2,0,B|412:40|288:40|274:127,1,200,0|0
216,160,51816,2,0,B|184:191|104:191|75:166,1,150,2|0
40,144,52590,1,0
312,288,53365,2,0,B|344:320|424:320|464:288,1,150,2|0
488,280,54139,1,0
488,200,54526,6,0,B|328:200,1,150
296,200,55300,1,4
320,128,55687,2,0,B|112:128,1,200,0|4
88,200,56849,5,2
120,216,57042,1,0
160,200,57236,1,0
240,200,57623,2,0,B|296:224|352:192,1,100,2|0
376,128,58397,2,0,B|320:104|264:136,1,100,2|0
200,128,59171,1,2
256,192,59365,12,4,61881
112,112,62655,6,8,B|136:128|184:128|208:112,2,100,4|2|0
64,184,63816,1,2
64,184,64010,2,0,B|168:224|272:176,1,200
296,160,64978,1,0
360,216,65365,1,2
424,160,65752,5,4
360,104,66139,1,2
312,40,66526,1,2
312,40,66719,2,0,B|208:24|112:40,1,200
72,48,67687,1,2
64,128,68074,2,0,B|72:192|120:216,1,100,0|2
194,234,68849,6,0,B|242:258|303:230,2,100,4|2|2
152,304,70010,1,2
152,304,70203,2,0,B|236:347|360:296,1,200
384,280,71171,2,0,B|424:240|424:184,1,100,2|2
368,136,71945,5,4
288,120,72332,1,2
208,136,72720,1,2
240,208,73107,1,2
240,208,73300,2,0,B|136:224|40:208,1,200
0,200,74268,1,2
64,152,74655,1,2
128,104,75042,6,0,B|232:72|328:104,1,200,4|0
392,152,76203,5,2
328,200,76590,2,0,B|235:230|131:198,1,200,4|0
64,248,77752,5,2
128,304,78139,2,0,B|231:335|324:305,1,200,4|0
384,248,79300,6,0,B|424:208|432:152,1,100,2|0
392,88,80074,1,2
320,56,80461,6,0,B|216:32|112:64,1,200,2|4
72,128,81623,1,2
104,200,82010,2,0,B|176:216|216:192,1,100,0|2
232,128,82784,1,0
272,192,83171,2,0,B|304:208|336:184,1,50,2|0
320,272,83752,2,0,B|352:288|384:256,1,50,0|2
432,224,84332,6,2,B|464:104|424:24,1,200
360,80,85494,1,0
320,152,85881,2,4,B|288:168|264:144,3,50
