osu file format v9

[General]
AudioFilename: change&chance.mp3
AudioLeadIn: 0
PreviewTime: 62450
Countdown: 0
SampleSet: Soft
StackLeniency: 0.7
Mode: 0
LetterboxInBreaks: 1

[Editor]
DistanceSpacing: 1.2
BeatDivisor: 4
GridSize: 8

[Metadata]
Title:Change&Chance!
Artist:Sakakibara Yui
Creator:kiririn_
Version:Insane
Source:Noble Works
Tags:yuzusoft xellop l i a

[Difficulty]
HPDrainRate:8
CircleSize:4
OverallDifficulty:8
ApproachRate:8
SliderMultiplier:1.8
SliderTickRate:1

[Events]
//Background and Video events
0,0,"3.jpg"
Video,0,"op_movie.avi"
//Break Periods
//Storyboard Layer 0 (Background)
//Storyboard Layer 1 (Fail)
//Storyboard Layer 2 (Pass)
//Storyboard Layer 3 (Foreground)
//Storyboard Sound Samples
//Background Colour Transformations
3,100,163,162,255

[TimingPoints]
720,387.096774193548,4,2,1,50,1,0
2171,-200,4,2,1,50,0,0
6816,-133.333333333333,4,2,1,50,0,0
11461,-133.333333333333,4,2,1,60,0,0
12623,-133.333333333333,4,2,1,60,0,0
13397,-133.333333333333,4,2,1,60,0,0
13784,-133.333333333333,4,2,1,50,0,0
14171,-133.333333333333,4,2,1,40,0,0
14558,-133.333333333333,4,2,1,30,0,0
14945,-133.333333333333,4,2,1,20,0,0
15332,-133.333333333333,4,2,1,10,0,0
16107,-133.333333333333,4,2,1,31,0,0
16881,-100,4,2,1,40,0,0
17655,-133.333333333333,4,2,0,50,0,0
18429,-100,4,2,1,70,0,0
19203,-133.333333333333,4,2,0,70,0,0
19978,-100,4,2,0,90,0,0
25445,-100,4,1,0,60,0,0
25542,-100,4,2,0,60,0,0
25832,-100,4,1,0,60,0,0
25929,-100,4,2,0,60,0,0
26219,-100,4,1,0,60,0,0
26994,-100,4,2,0,90,0,0
30816,-100,4,1,0,70,0,0
31397,-133.333333333333,4,1,0,100,0,0
31590,-133.333333333333,4,2,0,100,0,0
31784,-100,4,2,1,100,0,0
32413,-133.333333333333,4,2,1,100,0,0
32849,-100,4,2,1,100,0,0
43978,-100,4,2,0,70,0,0
44800,-100,4,1,0,80,0,0
45768,-100,4,2,0,100,0,0
47316,-100,4,1,0,70,0,0
48042,-133.333333333333,4,2,1,100,0,0
61010,-133.333333333333,4,2,2,100,0,0
61784,-200,4,2,1,100,0,0
62655,-100,4,2,1,80,0,1
74944,-100,4,2,0,70,0,1
86655,-100,4,2,1,100,0,0

[Colours]
Combo1 : 36,51,92
Combo2 : 223,130,34
Combo3 : 99,157,171
Combo4 : 184,96,121

[HitObjects]
80,320,2268,2,0,B|136:328|184:328|216:320,1,135,6|0
173,257,3042,2,0,B|224:256|264:240|304:216,1,135,0|0
235,188,3816,2,0,B|187:201|137:197|96:184,1,135,2|0
146,128,4590,2,0,B|84:123|47:111|16:88,1,135,0|0
83,60,5365,6,0,B|139:68|187:68|216:56,1,135,2|0
429,60,6139,2,0,B|373:68|325:68|296:56,1,135,0|0
256,120,6913,1,4
80,160,7687,5,2
104,168,7784,1,0
128,160,7881,1,0
152,168,7978,1,2
176,160,8074,2,0,B|208:176|248:160,2,67.4999979883433,0|0|4
256,272,8849,1,2
400,192,9236,1,0
360,128,9429,1,0
320,64,9623,5,2
360,128,9816,1,0
400,192,10010,2,0,B|360:208|304:208|264:192,2,134.999995976687,4|0|0
268,194,10978,5,0
264,272,11171,1,2
240,344,11365,1,0
264,272,11558,2,0,B|344:280|400:264,2,134.999995976687,4|0|0
400,192,12719,6,0,B|360:200|328:192,2,67.4999979883433,0|0|4
256,48,13494,1,0
112,192,13881,1,0
256,336,14268,1,0
184,192,14655,5,4
256,120,15042,1,0
328,192,15429,1,0
256,264,15816,1,0
256,192,16203,5,4
120,120,16978,6,0,B|96:120|72:104,4,45,2|0|0|0|2
224,136,17558,1,0
312,192,17752,2,0,B|384:208|448:192,1,134.999995976687,4|0
128,288,18526,6,0,B|104:296|80:288,4,45,2|0|0|0|2
224,232,19107,1,0
160,144,19300,2,0,B|88:120|24:144,1,134.999995976687,4|0
232,176,20074,5,2
240,192,20171,1,0
256,200,20268,1,2
272,192,20365,1,0
280,176,20461,1,2
256,88,20655,5,0
256,312,20849,1,4
144,248,21042,6,0,B|96:256|56:240,2,90,0|2|0
248,224,21623,1,0
232,208,21719,1,0
216,200,21816,2,0,B|176:184|128:192,1,90,2|2
24,160,22203,6,0,B|64:136|112:136,1,90,0|2
128,128,22494,1,0
144,112,22590,2,0,B|192:128|232:120,1,90,2|2
320,48,22978,1,2
408,112,23171,6,0,B|424:160|408:200,1,90,2|2
408,224,23461,2,0,B|384:272|344:288,1,90,2|2
336,304,23752,2,0,B|296:328|248:320,1,90,2|2
224,312,24042,1,0
200,304,24139,1,2
184,288,24236,1,0
176,264,24332,1,2
104,192,24526,6,0,B|80:232,1,45,2|0
160,160,24816,2,0,B|184:120,1,45,0|2
88,120,25107,2,0,B|56:120|40:104,3,45,2|0|2|0
80,64,25494,6,0,B|120:88,1,45
232,144,25784,2,0,B|192:120,2,45
328,192,26171,2,0,B|368:216,1,45
504,256,26461,5,0
400,272,26655,1,0
272,248,26849,1,0
144,176,27042,5,4
216,96,27236,2,0,B|256:80|304:96,1,90,0|2
320,104,27526,1,0
336,120,27623,1,0
352,136,27719,1,0
368,152,27816,2,0,B|424:168|456:152,2,90,0|0|2
280,216,28397,6,0,B|312:224|328:216,2,45,2|0|2
192,160,28784,1,0
128,72,28978,1,2
24,112,29171,2,0,B|24:168|48:200,1,90,2|2
72,224,29461,2,0,B|104:272|137:282,1,90,0|0
138,283,29752,1,2
176,176,29945,5,2
200,200,30042,1,0
232,224,30139,1,2
264,240,30236,1,0
296,248,30332,1,2
328,248,30429,1,0
360,232,30526,2,0,B|408:232|440:192,1,90,2|2
328,248,30913,5,0
400,168,31107,1,0
264,240,31300,1,0
384,104,31494,6,0,B|360:136|328:144,1,67.4999979883433,0|2
304,152,31784,1,0
272,160,31881,1,2
240,160,31978,1,0
208,152,32074,1,2
176,128,32171,1,0
152,104,32268,1,2
120,80,32365,1,0
88,64,32461,2,0,B|48:48|32:24,2,67.4999979883433,2|0|2
80,96,32945,5,2
72,128,33042,1,2
64,160,33139,1,2
64,192,33236,1,2
104,312,33429,6,0,B|88:328|64:328,2,45,0|0|2
184,232,33816,2,0,B|144:256|96:256,2,90,0|0|2
280,176,34397,1,2
184,232,34590,1,0
200,128,34784,6,0,B|208:176|232:216,1,90,2|2
240,248,35074,2,0,B|272:288|312:304,1,90
344,280,35365,2,0,B|392:304|432:296,1,90,2|2
448,280,35655,1,0
456,256,35752,1,2
464,232,35849,1,0
464,208,35945,6,0,B|464:160|432:120,2,90,2|2|0
360,184,36526,1,0
272,128,36719,2,0,B|288:112|312:104,2,45,2|0|2
360,184,37107,2,0,B|328:216|272:216,2,90,0|0|2
360,184,37687,1,0
272,128,37881,2,0,B|216:88|144:80,2,135,2|0|0
184,192,38655,1,2
168,200,38752,1,0
152,192,38849,1,2
104,248,39042,5,2
128,272,39139,1,0
160,288,39236,1,2
192,272,39332,1,0
216,248,39429,2,0,B|256:272|304:264,1,90,2|0
408,240,39816,2,0,B|432:240|456:232,2,45,2|0|0
336,160,40203,5,0
240,216,40397,1,0
336,160,40590,1,2
232,144,40784,2,0,B|176:152|144:120,1,90,0|2
120,72,41074,2,0,B|168:56|208:80,1,90,0|0
256,96,41365,1,2
256,96,41558,1,0
256,96,41752,2,0,B|224:168|176:208,1,135
144,248,42139,1,2
248,280,42332,5,0
352,248,42526,1,0
448,192,42719,1,2
440,160,42816,1,0
432,128,42913,2,0,B|416:80|392:48,1,90,2|0
320,160,43300,1,2
296,128,43397,1,0
280,96,43494,2,0,B|256:56|248:8,2,90,0|2|0
72,80,44074,6,0,B|112:136|184:160,1,135,4|0
136,184,44461,2,0,B|192:232|256:248,1,135,4|0
304,264,44849,1,0
384,144,45042,1,0
304,24,45236,1,0
384,144,45429,1,0
304,264,45623,1,0
128,112,45816,5,2
160,136,45913,1,0
192,160,46010,1,2
160,288,46203,5,2
192,264,46300,1,0
224,240,46397,1,2
368,216,46590,5,2
336,200,46687,1,0
304,184,46784,1,2
304,56,46978,5,2
288,88,47074,1,0
272,120,47171,1,2
256,248,47365,5,0
120,56,47558,1,0
392,56,47752,1,0
256,224,48139,5,0
256,144,48332,2,0,B|256:176,1,33.7499989941716,2|0
256,296,48719,1,0
314,356,48913,2,0,B|336:336|352:280|312:232,1,134.999995976687
256,296,49494,5,2
203,355,49687,2,0,B|181:335|165:279|205:231,1,134.999995976687
256,296,50268,1,0
205,232,50461,1,0
152,176,50655,1,0
104,112,50849,1,0
40,56,51042,2,0,B|104:8|169:57,1,134.999995976687,2|0
104,112,51623,5,0
41,168,51816,2,0,B|99:209|168:168,1,134.999995976687,2|0
104,112,52397,1,0
184,88,52590,1,2
168,168,52784,1,0
104,112,52978,1,0
184,88,53171,6,0,B|256:64|320:88,1,134.999995976687
288,160,53752,1,0
344,216,53945,1,0
264,240,54139,1,2
288,160,54332,1,0
344,216,54526,6,0,B|352:256|336:280,1,67.4999979883433,2|0
344,216,54913,2,0,B|392:272|368:344,1,134.999995976687,0|2
256,200,55687,1,0
152,72,56074,6,0,B|144:112|160:144,1,67.4999979883433,2|0
152,72,56461,2,0,B|104:120|128:200,1,134.999995976687,0|2
184,248,57042,2,0,B|208:280|248:272,1,67.4999979883433,2|2
312,224,57429,1,2
312,224,57526,1,0
312,224,57623,1,2
336,144,57816,2,0,B|376:144|398:171,1,67.4999979883433,0|2
336,144,58203,1,0
256,48,58397,5,2
256,48,58590,1,2
256,72,58687,1,0
256,96,58784,1,2
256,240,58978,5,0
256,96,59171,1,2
256,192,59365,12,4,60913
128,208,61300,1,2
256,64,61494,1,2
392,208,61687,1,2
256,336,61881,6,0,B|256:248,1,90,4|0
176,40,62461,1,0
336,40,62655,5,14
440,64,62849,2,0,B|440:88|416:104,1,45,10|0
304,112,63139,2,0,B|304:136|320:152,2,45,10|0|0
248,104,63429,2,0,B|200:88|144:112,1,90,10|0
128,96,63719,1,0
112,128,63816,2,0,B|136:176|184:176,1,90,10|0
216,192,64107,1,0
248,184,64203,1,10
280,200,64300,1,0
312,184,64397,2,0,B|328:168|352:168,1,45
344,208,64590,6,0,B|392:224|424:256,2,90,10|0|10
312,304,65171,1,10
192,264,65365,1,10
80,152,65558,1,10
208,48,65752,6,0,B|232:64|256:56,1,45,14|0
352,88,66042,2,0,B|336:104|304:104,1,45,0|10
208,128,66332,1,10
176,104,66429,1,0
208,128,66526,1,10
280,48,66719,2,0,B|296:96|288:136,1,90,10|0
312,168,67010,1,0
288,200,67107,2,0,B|296:248|328:280,2,90,10|0|10
256,96,67687,6,0,B|232:104|224:128,1,45,10|0
176,304,67978,2,0,B|168:320|144:336,1,45,10|10
64,240,68268,1,10
72,208,68365,1,0
96,184,68461,1,10
168,96,68655,1,10
256,40,68849,6,0,B|288:40|304:48,1,45,14|0
256,152,69139,2,0,B|232:152|208:160,1,45,0|10
256,264,69429,1,0
336,240,69623,2,0,B|312:256|288:256,1,45,10|0
224,272,69913,2,0,B|200:280|176:280,1,45,0|10
104,272,70203,1,10
32,192,70397,1,10
56,168,70494,2,0,B|96:144|144:152,1,90
176,168,70784,6,0,B|216:184|264:184,1,90,10|0
288,168,71074,1,0
320,168,71171,2,0,B|360:184|408:176,1,90,10|10
440,160,71461,1,0
472,144,71558,1,10
472,104,71655,1,0
448,72,71752,1,10
256,48,71945,5,10
232,80,72042,1,0
128,88,72236,1,0
144,120,72332,1,10
216,200,72526,2,0,B|240:192|256:176,3,45,10|0|10|0
296,216,72913,2,0,B|264:256|221:265,2,90,0|10|0
320,168,73397,1,0
352,208,73494,2,0,B|400:216|441:202,1,90,0|10
464,184,73784,1,0
488,160,73881,6,0,B|464:120|414:111,1,90,10|10
312,72,74268,2,0,B|272:48|224:48,1,90,10|10
128,96,74655,2,0,B|80:80|40:96,1,90,10|10
80,192,75042,6,0,B|96:240|128:272,1,90,4|0
160,280,75332,1,0
192,272,75429,1,2
224,280,75526,1,0
256,264,75623,2,0,B|280:224|312:192,1,90,2|2
392,120,76010,1,2
360,104,76107,1,0
328,120,76203,6,0,B|280:128|240:112,1,90,2|2
216,88,76494,1,0
192,112,76590,2,0,B|152:144|144:187,1,90,4|0
72,192,76978,1,2
88,224,77074,1,0
120,240,77171,1,2
152,240,77268,1,0
184,224,77365,2,0,B|232:208|272:224,1,90,2|2
288,288,77752,6,0,B|344:272|352:224|328:184,1,90,2|2
296,168,78139,2,0,B|336:144|373:157|382:172,1,90,4|0
424,224,78526,1,2
456,216,78623,1,0
488,208,78720,1,2
472,176,78816,1,0
448,144,78913,2,0,B|416:104|376:88,1,90,2|2
264,56,79300,5,0
248,88,79397,1,0
264,120,79494,1,2
248,152,79590,1,0
264,184,79687,6,0,B|224:208|176:208,1,90,4|0
224,272,80074,2,0,B|159:286|136:264,1,90,4|0
144,336,80461,5,2
112,320,80558,1,0
88,296,80655,1,2
72,264,80752,1,0
88,232,80849,1,2
120,216,80945,1,0
152,200,81042,1,2
168,168,81139,1,0
184,136,81236,6,4,B|224:104|272:120,1,90,4|0
256,48,81623,2,0,B|312:48|336:80,1,90,2|0
408,64,82010,1,0
408,104,82107,1,0
392,136,82203,1,2
360,152,82300,1,0
328,144,82397,1,2
232,192,82590,5,2
232,192,82784,2,0,B|184:176|144:192,1,90,4|0
123,126,83171,1,2
155,118,83268,1,0
187,110,83365,1,2
219,118,83461,1,0
251,126,83558,1,2
248,128,83752,1,2
336,96,83945,6,0,B|368:56|408:40,2,90,2|0|4
336,96,84526,2,0,B|360:144|352:184,1,90,0|2
296,272,84913,1,0
296,272,85107,2,0,B|248:288|208:264,1,90,2|2
176,272,85397,1,0
144,248,85494,1,2
112,256,85590,1,0
88,232,85687,2,0,B|56:192|64:144,1,90,0|4
200,56,86074,5,4
336,144,86268,1,4
472,56,86461,1,4
