osu file format v9

[General]
AudioFilename: Beautiful day_.mp3
AudioLeadIn: 2500
PreviewTime: 55732
Countdown: 0
SampleSet: Soft
StackLeniency: 0.7
Mode: 0
LetterboxInBreaks: 0

[Editor]
Bookmarks: 55732
DistanceSpacing: 0.9
BeatDivisor: 4
GridSize: 4

[Metadata]
Title:Beautiful day (TV Size)
Artist:Sakakibara Yui
Creator:Melophobia
Version:Normal
Source:Otome wa Boku ni Koishiteru
Tags:ending otoboku kitsuneko

[Difficulty]
HPDrainRate:4
CircleSize:3
OverallDifficulty:4
ApproachRate:4
SliderMultiplier:1.2
SliderTickRate:2

[Events]
//Background and Video events
0,0,"BGGGGGGGG.jpg"
Video,0,"oto-boku+ED+Beautiful+day.avi"
//Break Periods
//Storyboard Layer 0 (Background)
//Storyboard Layer 1 (Fail)
//Storyboard Layer 2 (Pass)
//Storyboard Layer 3 (Foreground)
//Storyboard Sound Samples
//Background Colour Transformations
3,100,163,162,255

[TimingPoints]
80,434.782608695652,4,2,1,50,1,0
2253,-100,4,2,2,40,0,0
2362,-100,4,2,1,50,0,0
5732,-100,4,2,2,40,0,0
5840,-100,4,2,1,50,0,0
9210,-100,4,2,2,40,0,0
9319,-100,4,2,1,50,0,0
10949,-100,4,2,2,40,0,0
11058,-100,4,2,1,50,0,0
12688,-100,4,2,1,55,0,0
13123,-100,4,2,1,60,0,0
13558,-100,4,2,1,65,0,0
13993,-100,4,2,1,70,0,1
14101,-100,4,2,1,70,0,0
16166,-100,4,2,2,60,0,0
16275,-100,4,2,1,70,0,0
23123,-100,4,2,2,60,0,0
23232,-100,4,2,1,70,0,0
24427,-100,4,1,1,60,0,0
24862,-100,4,2,1,70,0,0
25297,-100,4,1,1,60,0,0
25732,-100,4,2,1,70,0,0
26493,-100,4,1,1,60,0,0
26710,-100,4,2,1,70,0,0
26927,-100,4,1,1,60,0,0
27906,-100,4,2,1,60,0,0
30079,-100,4,2,2,50,0,0
30188,-100,4,2,1,60,0,0
33123,-100,4,1,1,60,0,0
34862,-100,4,2,1,60,0,0
37036,-100,4,2,2,50,0,0
37145,-100,4,2,1,60,0,0
43993,-100,4,2,2,50,0,0
44101,-100,4,2,1,60,0,0
47471,-100,4,2,2,50,0,0
47579,-100,4,2,1,60,0,0
48775,-100,4,2,1,50,0,0
50949,-100,4,2,2,40,0,0
51058,-100,4,2,1,50,0,0
52253,-100,4,1,1,50,0,0
52688,-100,4,2,1,60,0,0
53123,-100,4,1,1,50,0,0
53558,-100,4,2,1,60,0,0
53993,-100,4,1,1,50,0,0
55732,-100,4,2,1,70,0,1
57906,-100,4,2,2,60,0,1
58014,-100,4,2,1,70,0,1
64862,-100,4,2,2,60,0,1
64971,-100,4,2,1,70,0,1
66166,-100,4,1,1,60,0,1
66601,-100,4,2,1,70,0,1
67036,-100,4,1,1,60,0,1
67471,-100,4,2,1,70,0,1
67906,-100,4,1,1,60,0,1
71275,-100,4,2,1,70,0,0
71384,-100,4,2,1,70,0,1
73558,-100,4,2,2,60,0,1
73666,-100,4,2,1,70,0,1
77036,-100,4,2,2,60,0,1
77145,-100,4,2,1,70,0,1
80514,-100,4,2,2,60,0,1
80623,-100,4,2,1,70,0,1
81819,-100,4,1,1,60,0,1
82253,-100,4,2,1,70,0,1
82688,-100,4,1,1,60,0,1
83123,-100,4,2,1,70,0,1
83558,-100,4,1,1,60,0,1
85297,-100,4,2,1,50,0,0
86166,-100,4,2,1,40,0,0
87036,-100,4,2,1,30,0,0
87906,-100,4,2,1,20,0,0
88775,-100,4,2,1,5,0,0

[Colours]
Combo1 : 255,128,64
Combo2 : 128,128,255
Combo3 : 128,255,128

[HitObjects]
84,144,80,2,0,B|36:104|36:38,2,120,2|8|2
164,216,1384,1,8
248,148,1819,2,0,B|335:120|422:164,2,180,2|2|8
164,216,3558,6,0,B|164:352,2,120,2|8|2
248,148,4862,1,8
336,208,5297,2,0,B|436:188|479:98,2,180,2|2|8
248,148,7036,6,0,B|248:28,2,120,2|8|2
336,208,8340,1,8
248,272,8775,2,0,B|164:240|160:308|72:272,2,180,2|2|8
352,304,10514,6,0,B|376:212|328:120,2,180,2|2|8
248,272,12253,2,0,B|128:272,2,120,2|8|2
312,184,13558,1,8
416,156,13993,6,0,B|460:204|456:272,1,120,4|8
412,364,14862,1,2
328,296,15297,1,8
224,320,15732,2,0,B|40:320,2,180,2|2|8
328,352,17471,5,2
400,272,17906,2,0,B|401:245|377:217,1,60,8|2
272,192,18558,2,0,B|248:164|249:137,1,60,0|8
328,64,19210,2,0,B|456:64,2,120,2|8|2
220,48,20514,1,8
124,100,20949,6,0,B|92:152|108:232,1,120,4|8
152,312,21819,1,2
256,344,22253,1,8
324,260,22688,2,0,B|412:224|500:260,2,180,2|2|8
228,308,24427,6,0,B|224:340|200:364,2,60,0|0|2
160,224,25297,2,0,B|164:192|188:168,2,60,0|0|2
56,244,26166,2,0,B|56:364,2,120,0|0|0
92,140,27471,1,0
192,96,27906,5,4
300,116,28340,2,0,B|420:116,2,120,8|2|8
256,216,29645,2,0,B|68:216,2,180,2|2|8
348,272,31384,5,2
428,200,31819,1,8
384,104,32253,2,0,B|340:60|272:52,1,120,2|8
168,52,33123,5,0
72,104,33558,1,0
168,156,33993,1,0
72,208,34427,1,0
168,260,34862,6,0,B|288:260,2,120,4|8|2
72,208,36166,1,8
80,100,36601,2,0,B|144:32|256:48,1,180,2|2
352,64,37688,2,0,B|388:72|408:100,1,60,2|8
356,192,38340,6,0,B|294:169|238:193,2,120,2|8|2
380,296,39645,2,0,B|324:320|260:296,1,120,8|2
156,304,40514,2,0,B|128:292|111:265,1,60,8|2
156,168,41166,2,0,B|144:140|148:92,1,60,2|8
240,56,41819,6,0,B|296:32|356:56,2,120,4|8|2
224,164,43123,1,8
204,268,43558,2,0,B|117:303|28:268,2,180,2|2|8
300,208,45297,5,2
404,232,45732,2,0,B|448:272|455:337,2,120,8|2|8
404,124,47036,2,0,B|332:56|224:64,1,180,2|2
132,68,48123,2,0,B|104:88|100:140,1,60,2|8
64,220,48775,6,0,B|88:280|149:299,1,120,4|8
256,292,49645,2,0,B|320:312,2,60,2|0|8
200,200,50514,2,0,B|208:104|312:56,1,180,2|2
408,68,51601,2,0,B|440:64|465:81,1,60,2|8
444,188,52253,6,0,B|472:212|480:252,2,60,0|0|2
380,276,53123,2,0,B|380:352,2,60,0|0|2
300,204,53993,2,0,B|164:204,2,120,0|0|0
372,124,55297,1,0
460,188,55732,6,0,B|508:232|508:304,1,120,4|8
416,352,56601,1,2
320,300,57036,1,8
216,324,57471,2,0,B|132:296|124:344|36:324,2,180,2|2|8
324,340,59210,5,2
432,352,59645,2,0,B|456:332|460:292,1,60,8|2
416,200,60297,2,0,B|400:172|364:156,1,60,0|8
296,240,60949,2,0,B|164:239,2,120,2|8|2
396,284,62253,1,8
468,204,62688,6,0,B|468:140|416:84,1,120,4|8
324,56,63558,1,2
240,124,63992,1,8
132,108,64427,2,0,B|60:160|52:276,2,180,2|2|8
240,112,66166,6,0,B|256:80|240:44,2,60,0|0|2
184,204,67036,2,0,B|168:236|184:272,2,60,0|0|2
292,208,67905,2,0,B|416:208,2,120
220,288,69210,1,0
116,260,69645,6,0,B|76:204|80:124,1,120
152,68,70514,1,0
248,116,70949,1,0
332,48,71384,6,0,B|452:48,2,120,4|8|2
248,116,72688,1,8
292,216,73123,2,0,B|224:280|108:272,2,180,2|2|8
372,144,74862,5,2
468,192,75297,2,0,B|492:216|492:264,1,60,8|2
412,320,75949,2,0,B|388:296|388:248,1,60,0|8
292,216,76601,2,0,B|108:216,2,180,2|2|8
364,132,78340,6,0,B|320:84|240:88,1,120,4|8
160,136,79210,1,2
80,64,79644,1,8
56,168,80079,2,0,B|32:232|80:284|56:348,2,180,2|2|8
160,136,81818,6,0,B|180:108|228:100,2,60,0|0|2
260,176,82688,2,0,B|336:176,2,60,0|0|2
212,272,83557,2,0,B|76:272,2,120
316,308,84862,1,0
256,192,85297,12,0,88775
