osu file format v10

[General]
AudioFilename: AquaVoice.mp3
AudioLeadIn: 0
PreviewTime: 72397
Countdown: 0
SampleSet: Soft
StackLeniency: 0.7
Mode: 0
LetterboxInBreaks: 0

[Editor]
DistanceSpacing: 1
BeatDivisor: 2
GridSize: 4

[Metadata]
Title:Aqua Voice (Short Ver.)
TitleUnicode:Aqua Voice (Short Ver.)
Artist:Sakakibara Yui
ArtistUnicode:Sakakibara Yui
Creator:Mythol
Version:Normal
Source:Asanagi no Aquanauts
Tags:eroge opening cRyo[iceeicee] alacat Fizz visual novel
BeatmapID:178047
BeatmapSetID:53370

[Difficulty]
HPDrainRate:5
CircleSize:3
OverallDifficulty:4
ApproachRate:4
SliderMultiplier:1
SliderTickRate:1

[Events]
//Background and Video events
0,0,"BG.jpg"
Video,-229,"aqua.avi"
//Break Periods
//Storyboard Layer 0 (Background)
//Storyboard Layer 1 (Fail)
//Storyboard Layer 2 (Pass)
//Storyboard Layer 3 (Foreground)
//Storyboard Sound Samples
//Background Colour Transformations
3,100,0,0,0

[TimingPoints]
1196,800,4,1,1,35,1,0
13783,344.827586206897,4,2,1,55,1,0
27576,344.827586206897,4,2,1,55,1,0
51024,344.827586206897,4,2,1,55,1,0
73092,-100,4,2,1,65,0,1
97920,-100,4,2,1,45,0,1
100506,-100,4,2,1,45,0,0

[Colours]
Combo1 : 255,98,255
Combo2 : 13,255,255
Combo3 : 255,13,134
Combo4 : 140,26,255

[HitObjects]
256,192,10596,12,4,13783,0:0:0
328,224,14300,6,0,B|280:200|220:219,1,99.9999999999999,4|0,0:0|0:0,0:0:0
168,140,14989,1,6,0:0:0
84,196,15334,2,0,B|28:192|0:136,1,99.9999999999999,2|4,0:0|0:0,0:0:0
88,92,16024,2,0,B|128:36,1,50,0|8,0:0|0:0,0:0:0
168,140,16541,6,0,B|216:116|271:142,1,99.9999999999999,6|8,0:0|0:0,0:0:0
312,160,17058,2,0,B|371:177|411:123,1,99.9999999999999,6|0,0:0|0:0,0:0:0
444,40,17748,2,0,B|383:21|342:67|342:67|286:55,1,150,4|8,0:0|0:0,0:0:0
240,136,18610,2,0,B|191:245,1,99.9999999999999,0|8,0:0|0:0,0:0:0
216,328,19300,6,0,B|160:344|120:297,1,99.9999999999999,4|8,0:0|0:0,0:0:0
88,268,19817,2,0,B|40:240|-16:268,2,99.9999999999999,6|0|6,0:0|0:0|0:0,0:0:0
184,236,20851,1,2,0:0:0
263,297,21196,2,4,B|299:254|276:196|276:196|317:151,1,150,4|8,0:0|0:0,0:0:0
384,102,22058,6,0,B|287:50,1,99.9999999999999,4|8,0:0|0:0,0:0:0
210,107,22748,2,0,B|196:163,2,50,0|0|8,0:0|0:0|0:0,0:0:0
113,135,23438,2,0,B|84:235,1,99.9999999999999,2|8,0:0|0:0,0:0:0
88,280,23955,2,0,B|92:340|152:368|220:336,1,150,2|8,0:0|0:0,0:0:0
284,288,24817,6,0,B|336:232|424:320|476:288,2,200,4|2|8,0:0|0:0|0:0,0:0:0
256,192,26369,12,4,27576,0:0:0
362,113,28265,1,0,0:0:0
301,192,28610,1,8,0:0:0
377,256,28955,2,0,B|437:276|489:228|474:169,2,150,2|0|8,0:0|0:0|0:0,0:0:0
301,192,30334,6,0,B|184:192,1,99.9999999999999,2|8,0:0|0:0,0:0:0
100,192,31024,2,0,B|14:192,2,50,2|0|8,0:0|0:0|0:0,0:0:0
165,116,31714,2,0,B|205:81|267:99,1,99.9999999999999,2|8,0:0|0:0,0:0:0
303,119,32231,2,0,B|360:141|415:95|412:43,1,150,2|8,0:0|0:0,0:0:0
316,21,33093,5,4,0:0:0
223,59,33438,2,0,B|161:59,2,50,8|0|0,0:0|0:0|0:0,0:0:0
303,119,34127,2,0,B|328:174|302:225,1,99.9999999999999,8|0,0:0|0:0,0:0:0
216,260,34817,1,8,0:0:0
244,355,35162,1,0,0:0:0
343,359,35507,1,8,0:0:0
391,271,35851,6,0,B|378:209|433:164|498:193,2,150,2|8|8,0:0|0:0|0:0,0:0:0
316,336,37231,2,0,B|208:336,1,99.9999999999999,4|8,0:0|0:0,0:0:0
168,248,37920,2,0,B|276:248,1,99.9999999999999,4|8,0:0|0:0,0:0:0
344,184,38610,5,4,0:0:0
428,240,38955,2,0,B|428:308,2,50,8|0|0,0:0|0:0|0:0,0:0:0
480,152,39645,2,0,B|504:100|476:40,1,99.9999999999999,8|0,0:0|0:0,0:0:0
388,16,40334,1,8,0:0:0
308,80,40679,2,0,B|256:100|208:76,1,99.9999999999999,0|8,0:0|0:0,0:0:0
128,24,41369,6,0,B|72:16|28:72|56:140,1,150,6|8,0:0|0:0,0:0:0
128,188,42231,1,2,0:0:0
60,260,42576,2,0,B|228:280,1,150,4|8,0:0|0:0,0:0:0
292,332,43438,2,0,B|300:384,2,50,2|0|8,0:0|0:0|0:0,0:0:0
360,256,44127,6,0,B|380:204|444:188|500:228,2,150,2|2|8,0:0|0:0|0:0,0:0:0
292,332,45507,2,0,B|272:384|208:400|152:360,2,150,2|2|8,0:0|0:0|0:0,0:0:0
208,276,46886,5,2,0:0:0
171,181,47231,1,8,0:0:0
265,145,47576,1,2,0:0:0
300,238,47920,2,0,B|356:260|400:220,2,99.9999999999999,8|0|8,0:0|0:0|0:0,0:0:0
265,145,48955,2,0,B|268:72,2,50,2|0|8,0:0|0:0|0:0,0:0:0
200,220,49645,6,0,B|152:244|96:220,1,99.9999999999999,2|8,0:0|0:0,0:0:0
60,196,50162,2,0,B|8:132|48:40,1,150,2|8,0:0|0:0,0:0:0
136,20,51024,6,0,B|240:20,1,99.9999999999999,4|8,0:0|0:0,0:0:0
284,108,51714,2,0,B|180:108,1,99.9999999999999,0|8,0:0|0:0,0:0:0
96,152,52403,1,2,0:0:0
156,232,52748,2,0,B|156:296,2,50,8|0|0,0:0|0:0|0:0,0:0:0
212,148,53438,1,8,0:0:0
272,228,53783,6,0,B|316:264|392:232,2,99.9999999999999,2|8|0,0:0|0:0|0:0,0:0:0
212,148,54817,1,8,0:0:0
156,232,55162,2,0,B|112:268|36:236,2,99.9999999999999,2|8|0,0:0|0:0|0:0,0:0:0
96,152,56196,6,0,B|96:100,2,50,8|0|2,0:0|0:0|0:0,0:0:0
62,245,56886,1,8,0:0:0
124,324,57231,2,0,B|176:348|224:324,1,99.9999999999999,0|8,0:0|0:0,0:0:0
304,268,57920,2,0,B|360:248|416:284|412:352,2,150,2|2|8,0:0|0:0|0:0,0:0:0
204,252,59300,6,0,B|136:172,1,99.9999999999999,2|8,0:0|0:0,0:0:0
188,88,59989,2,0,B|256:168,1,99.9999999999999,0|8,0:0|0:0,0:0:0
328,232,60679,2,0,B|376:252|432:228,1,99.9999999999999,6|8,0:0|0:0,0:0:0
460,196,61196,2,0,B|492:124|456:52,1,150,6|8,0:0|0:0,0:0:0
368,8,62058,5,4,0:0:0
288,68,62403,1,8,0:0:0
192,40,62748,2,0,B|140:20|84:40,1,99.9999999999999,0|8,0:0|0:0,0:0:0
56,68,63265,2,0,B|20:116|56:176|56:176|44:240,1,150,4|8,0:0|0:0,0:0:0
72,308,64127,1,2,0:0:0
160,356,64472,1,10,0:0:0
152,256,64817,6,0,B|140:228|176:184|152:148,2,99.9999999999999,2|8|0,0:0|0:0|0:0,0:0:0
244,300,65851,1,8,0:0:0
244,300,66024,2,0,B|296:276|336:304|336:304|408:268,1,150,6|8,0:0|0:0,0:0:0
452,208,66886,2,0,B|508:224|516:292,2,99.9999999999999,0|0|8,0:0|0:0|0:0,0:0:0
308,164,68093,6,0,B|220:132|156:204,2,150,8|10|8,0:0|0:0|0:0,0:0:0
368,300,69645,2,0,B|368:364,2,50,0|0|8,0:0|0:0|0:0,0:0:0
332,264,70162,2,0,B|252:232|184:292,1,150,2|8,0:0|0:0,0:0:0
96,320,71024,2,0,B|36:312|20:252,2,99.9999999999999,0|8|2,0:0|0:0|0:0,0:0:0
191,285,72058,1,8,0:0:0
404,64,73093,5,4,0:0:0
324,124,73438,1,8,0:0:0
324,124,73610,2,0,B|252:84|168:128,1,150,2|8,0:0|0:0,0:0:0
104,188,74472,1,2,0:0:0
96,288,74817,2,0,B|48:312|0:292,2,99.9999999999999,8|0|8,0:0|0:0|0:0,0:0:0
188,244,75851,6,0,B|240:224|292:240,1,99.9999999999999,2|8,0:0|0:0,0:0:0
384,212,76541,1,0,0:0:0
384,212,76714,2,0,B|420:168|404:104,2,100,2|2|2,0:0|0:0|0:0,0:0:0
312,144,77748,2,0,B|236:104|156:148,1,150,0|8,0:0|0:0,0:0:0
112,224,78610,6,0,B|48:240|-4:200|4:128,2,150,6|2|8,0:0|0:0|0:0,0:0:0
192,284,79989,2,0,P|244:276|292:284,2,100,2|0|0,0:0|0:0|0:0,0:0:0
136,200,81024,1,8,0:0:0
180,112,81369,6,0,B|224:84|280:140|324:112,2,150,4|2|8,0:0|0:0|0:0,0:0:0
212,208,82748,2,0,B|224:280|288:280|300:208,2,150,2|2|8,0:0|0:0|0:0,0:0:0
252,116,84127,5,4,0:0:0
348,152,84472,1,8,0:0:0
348,152,84645,2,0,B|424:108|508:160,1,150,2|8,0:0|0:0,0:0:0
472,248,85507,1,2,0:0:0
388,304,85851,1,8,0:0:0
388,304,86024,2,0,B|312:348|228:296,1,150,0|8,0:0|0:0,0:0:0
196,220,86886,6,0,B|124:184|48:224,1,150,4|4,0:0|0:0,0:0:0
160,120,87920,2,0,B|232:156|308:116,1,150,4|4,0:0|0:0,0:0:0
440,52,88955,1,2,0:0:0
504,128,89300,1,2,0:0:0
412,164,89645,6,0,B|364:224|396:324|480:332,1,200,4|0,0:0|0:0,0:0:0
484,232,90679,1,8,0:0:0
484,232,90851,2,0,B|416:288|328:228,1,150,2|8,0:0|0:0,0:0:0
268,172,91714,2,0,B|224:144|164:164,1,99.9999999999999,2|8,0:0|0:0,0:0:0
76,192,92403,6,0,B|28:164|36:100,2,99.9999999999999,4|8|0,0:0|0:0|0:0,0:0:0
148,264,93438,1,8,0:0:0
148,264,93610,2,0,B|224:228|296:268,1,150,2|8,0:0|0:0,0:0:0
376,320,94472,2,0,B|432:332|472:296,1,99.9999999999999,2|8,0:0|0:0,0:0:0
500,204,95162,5,2,0:0:0
436,128,95507,2,0,B|436:28,2,99.9999999999999,8|0|8,0:0|0:0|0:0,0:0:0
404,168,96369,2,0,B|336:204|256:168,1,150,4|8,0:0|0:0,0:0:0
192,96,97231,1,2,0:0:0
120,168,97576,2,0,B|88:236,1,50,8|4,0:0|0:0,0:0:0
256,192,97920,12,4,100507,0:0:0
