osu file format v10

[General]
AudioFilename: AquaVoice.mp3
AudioLeadIn: 0
PreviewTime: 72397
Countdown: 0
SampleSet: Soft
StackLeniency: 0.7
Mode: 0
LetterboxInBreaks: 0

[Editor]
DistanceSpacing: 1
BeatDivisor: 2
GridSize: 4

[Metadata]
Title:Aqua Voice (Short Ver.)
TitleUnicode:Aqua Voice (Short Ver.)
Artist:Sakakibara Yui
ArtistUnicode:Sakakibara Yui
Creator:Mythol
Version:Easy
Source:Asanagi no Aquanauts
Tags:eroge opening cRyo[iceeicee] alacat Fizz visual novel
BeatmapID:178176
BeatmapSetID:53370

[Difficulty]
HPDrainRate:3
CircleSize:3
OverallDifficulty:3
ApproachRate:3
SliderMultiplier:0.8
SliderTickRate:1

[Events]
//Background and Video events
0,0,"BG.jpg"
Video,-229,"aqua.avi"
//Break Periods
//Storyboard Layer 0 (Background)
//Storyboard Layer 1 (Fail)
//Storyboard Layer 2 (Pass)
//Storyboard Layer 3 (Foreground)
//Storyboard Sound Samples
//Background Colour Transformations
3,100,0,0,0

[TimingPoints]
1196,800,4,1,1,25,1,0
13783,344.827586206897,4,2,1,55,1,0
27576,344.827586206897,4,2,1,55,1,0
51024,344.827586206897,4,2,1,55,1,0
73092,-100,4,2,1,65,0,1
97920,-100,4,2,1,45,0,1
100506,-100,4,2,1,45,0,0

[Colours]
Combo1 : 255,98,255
Combo2 : 13,255,255
Combo3 : 255,13,134
Combo4 : 140,26,255

[HitObjects]
304,288,13783,6,0,B|244:248|160:280,1,120,4|2,0:0|0:0,0:0:0
112,292,14645,1,0,0:0:0
40,256,14989,2,0,P|16:224|24:168,1,80,2|0,0:0|0:0,0:0:0
72,128,15679,2,0,B|112:80|188:100,1,120,2|8,0:0|0:0,0:0:0
256,136,16541,6,0,B|328:144|384:76,1,120,4|2,0:0|0:0,0:0:0
212,52,17748,2,0,B|164:72|148:120|168:172,1,120,2|8,0:0|0:0,0:0:0
228,196,18610,2,0,B|228:284,1,79.9999999999999
172,332,19300,6,0,P|112:316|40:336,1,120,4|2,0:0|0:0,0:0:0
4,176,20507,2,0,P|84:172|152:120,1,160,2|4,0:0|0:0,0:0:0
256,180,21714,1,8,0:0:0
304,116,22058,6,0,B|380:68|464:120,1,160,4|2,0:0|0:0,0:0:0
376,252,23438,2,0,B|376:372,2,120,2|2|8,0:0|0:0|0:0,0:0:0
256,192,24817,12,4,26196,0:0:0
256,192,27576,5,4,0:0:0
128,292,28265,2,0,B|44:260|48:156,1,160,2|0,0:0|0:0,0:0:0
144,36,29645,1,2,0:0:0
272,132,30334,6,0,B|360:144|420:68,1,160,2|0,0:0|0:0,0:0:0
476,224,31714,2,0,B|476:360,2,120,2|2|8,0:0|0:0|0:0,0:0:0
476,143,33093,5,4,0:0:0
344,236,33783,1,2,0:0:0
204,156,34472,2,0,B|128:108|40:156,1,160,2|0,0:0|0:0,0:0:0
72,228,35507,1,8,0:0:0
124,292,35851,6,0,B|128:336|80:376|20:352,2,120,2|2|8,0:0|0:0|0:0,0:0:0
156,220,37231,1,4,0:0:0
292,308,37920,1,4,0:0:0
424,220,38610,6,0,B|464:144|420:52,1,160,4|0,0:0|0:0,0:0:0
276,124,39989,2,0,B|200:128|156:56,2,120,2|2|8,0:0|0:0|0:0,0:0:0
352,100,41369,5,4,0:0:0
308,212,41886,2,0,B|308:312,2,79.9999999999999,4|8|4,0:0|0:0|0:0,0:0:0
204,156,43093,2,0,B|132:112|44:152,1,160,8|8,0:0|0:0,0:0:0
8,216,44127,6,0,B|56:264|40:336|40:336|96:372|172:328,1,240,4|8,0:0|0:0,0:0:0
212,292,45507,2,0,B|272:264|340:296,2,120,2|2|8,0:0|0:0|0:0,0:0:0
148,244,46886,5,2,0:0:0
256,128,47576,1,2,0:0:0
364,244,48265,2,0,P|416:208|416:116,1,160,2|2,0:0|0:0,0:0:0
256,128,49644,2,0,P|256:256,1,120,8|8,0:0|0:0,0:0:0
56,224,51024,6,0,B|56:64,1,160,4|8,0:0|0:0,0:0:0
196,140,52403,1,8,0:0:0
56,224,53093,1,8,0:0:0
180,324,53783,6,0,B|256:376|332:324,1,160,8|8,0:0|0:0,0:0:0
428,200,55162,2,0,B|352:148|276:200,1,160,8|8,0:0|0:0,0:0:0
132,264,56541,6,0,B|84:276|40:252,2,79.9999999999999,8|8|8,0:0|0:0|0:0,0:0:0
212,252,57576,1,8,0:0:0
268,196,57920,2,0,B|320:116|272:32,1,160,8|8,0:0|0:0,0:0:0
136,120,59300,6,0,P|80:244|224:284,2,320,0|4|4,0:0|0:0|0:0,0:0:0
296,148,62748,6,0,B|364:148|420:96,2,120,0|10|8,0:0|0:0|0:0,0:0:0
232,100,64127,2,0,B|192:80|132:100,1,79.9999999999999,2|8,0:0|0:0,0:0:0
84,136,64817,6,0,B|16:204|64:316,1,160,2|0,0:0|0:0,0:0:0
156,344,66024,2,0,B|196:368|236:324|292:348,1,120,4|8,0:0|0:0,0:0:0
348,312,66886,6,0,B|396:308|432:340,2,80,2|8|12,0:0|0:0|0:0,0:0:0
264,228,68093,2,0,B|224:168|260:88,2,120,8|8|8,0:0|0:0|0:0,0:0:0
364,160,69645,1,8,0:0:0
256,192,70162,12,8,71714,0:0:0
204,196,73093,6,0,B|132:180|76:264,2,120,4|2|8,0:0|0:0|0:0,0:0:0
276,228,74472,2,0,B|348:244|404:160,2,120,2|2|8,0:0|0:0|0:0,0:0:0
256,152,75851,6,0,P|200:100|104:96,1,160,2|0,0:0|0:0,0:0:0
40,100,76886,1,8,0:0:0
24,180,77231,2,0,B|0:244|48:324,2,120,2|2|8,0:0|0:0|0:0,0:0:0
84,128,78610,6,0,B|132:92|188:164|236:128,1,160,4|2,0:0|0:0,0:0:0
368,36,79989,2,0,B|320:72|264:0|216:36,1,160,2|2,0:0|0:0,0:0:0
136,56,81024,1,8,0:0:0
100,128,81369,6,0,B|56:196|56:196|104:288|184:268|184:268|224:352,2,320,6|6|4,0:0|0:0|0:0,0:0:0
240,52,84817,6,0,B|280:28|344:48,1,79.9999999999999,0|8,0:0|0:0,0:0:0
384,84,85507,2,0,B|464:108|508:16,2,120,2|2|8,0:0|0:0|0:0,0:0:0
320,36,86886,5,4,0:0:0
216,96,87403,2,0,B|180:156|216:228,2,120,4|4|4,0:0|0:0|0:0,0:0:0
320,156,88955,2,0,B|364:136|420:160,1,79.9999999999999,2|2,0:0|0:0,0:0:0
460,200,89645,6,0,B|484:276|484:276|428:352,1,160,6|0,0:0|0:0,0:0:0
284,292,91024,2,0,B|208:268|208:268|132:324,1,160,2|0,0:0|0:0,0:0:0
40,196,92403,6,0,B|104:152|104:152|152:176|212:148,1,160,2|0,0:0|0:0,0:0:0
296,44,93783,2,0,B|232:88|232:88|184:64|124:92,1,160,2|0,0:0|0:0,0:0:0
76,220,95162,5,4,0:0:0
128,280,95507,1,8,0:0:0
204,256,95851,2,0,B|264:228|332:256,2,120,0|4|2,0:0|0:0|0:0,0:0:0
152,196,97231,2,0,B|124:136|152:68,1,120,2|4,0:0|0:0,0:0:0
256,192,97920,12,4,100507,0:0:0
