osu file format v9

[General]
AudioFilename: Sheep of Vanitas OP.mp3
AudioLeadIn: 0
PreviewTime: 62561
Countdown: 0
SampleSet: Soft
StackLeniency: 0.7
Mode: 0
LetterboxInBreaks: 1

[Editor]
DistanceSpacing: 1.2
BeatDivisor: 4
GridSize: 16

[Metadata]
Title:ANGELIC DESTINY (Short Ver.)
Artist:Sakakibara Yui
Creator:Doraton
Version:Normal
Source:Vanitas no Hitsuji
Tags:eroge hentai game japanese visual novel

[Difficulty]
HPDrainRate:4
CircleSize:4
OverallDifficulty:5
ApproachRate:5
SliderMultiplier:1
SliderTickRate:1

[Events]
//Background and Video events
Video,0,"Vanitas Op.avi"
0,0,"VanitasBG.jpg"
//Break Periods
2,21499,31099
//Storyboard Layer 0 (Background)
//Storyboard Layer 1 (Fail)
//Storyboard Layer 2 (Pass)
//Storyboard Layer 3 (Foreground)
//Storyboard Sound Samples
//Background Colour Transformations
3,100,163,162,255

[TimingPoints]
1899,400,4,2,1,100,1,0
62699,-100,4,1,1,66,0,1
90299,-100,4,2,1,11,0,0

[Colours]
Combo1 : 255,62,62
Combo2 : 160,233,63
Combo3 : 128,64,0
Combo4 : 128,128,255

[HitObjects]
80,80,6699,1,2
192,80,7099,1,0
304,80,7499,1,2
304,192,7899,2,0,B|304:304,1,100,0|4
192,288,8699,2,0,B|192:176,1,100,0|2
192,64,9499,5,4
304,64,9899,1,0
416,64,10299,2,0,B|416:176,1,100,2|8
416,164,10899,1,4
416,336,11499,2,0,B|304:336,3,100,2|0|2|8
224,256,13099,5,2
224,144,13499,1,0
224,32,13899,2,0,B|320:32,4,75,2|0|2|0|0
224,32,15299,1,4
48,32,15899,5,2
48,144,16299,2,0,B|48:256,1,100,0|2
160,256,17099,2,0,B|272:256,1,100,0|2
256,144,17899,1,2
256,32,18299,1,0
320,32,18499,2,0,B|480:32,1,150,2|4
448,144,19499,5,2
336,176,19899,1,0
224,192,20299,1,2
112,176,20699,1,2
112,176,20899,2,0,B|112:64,1,100,2|4
256,192,32299,12,0,35499
96,80,35899,5,2
208,80,36299,1,0
320,80,36699,1,2
320,192,37099,1,0
320,304,37499,1,0
320,304,37699,2,0,B|160:304,1,150,2|8
170,304,38699,2,2,B|160:192,1,100
128,96,39499,5,2
240,96,39899,1,2
352,96,40299,1,8
352,208,40699,2,2,B|352:320,2,100
352,96,41899,1,8
240,96,42299,1,2
128,96,42699,1,2
128,208,43099,6,0,B|240:208,3,100,2|8|2|8
352,224,44699,2,2,B|352:112,1,100
240,128,45499,1,2
128,128,45899,1,8
128,240,46299,1,8
240,240,46699,2,0,B|352:240,3,100,8|2|2|8
336,128,48299,6,2,B|224:128,2,100,2|2|8
448,128,49499,2,2,B|448:240,2,100,2|2|8
320,128,50699,2,2,B|320:240,2,100,2|2|8
208,112,51899,1,2
96,112,52299,1,4
96,224,52699,5,2
208,224,53099,1,4
208,336,53499,5,2
96,336,53899,1,4
96,224,54299,6,4,B|96:112,1,100,4|2
208,112,55099,1,2
320,112,55499,1,2
320,224,55899,2,2,B|320:336,2,100,2|2|4
432,224,57099,1,2
416,112,57499,1,0
288,112,57899,6,0,B|176:112,1,100,2|0
64,112,58699,1,0
64,224,59099,1,0
64,224,59499,1,4
176,224,59899,1,2
288,224,60299,1,0
288,224,60699,1,4
400,224,61099,6,0,B|400:112,3,100,0|2|2|4
288,176,62699,1,4
176,176,63099,6,0,B|176:64,2,100,0|0|2
176,288,64299,1,4
176,288,64699,2,0,B|176:176,1,100,0|2
64,208,65499,1,0
64,96,65899,1,2
176,96,66299,1,2
288,96,66699,6,0,B|288:208,2,100,0|4|2
400,96,67899,1,0
400,208,68299,1,4
400,320,68699,2,0,B|288:320,1,100,2|0
176,320,69499,2,0,B|96:240,3,100,2|0|2|0
112,128,71099,2,0,B|224:80,3,100,2|0|2|0
320,96,72699,1,8
320,96,73099,1,8
320,208,73499,5,0
432,208,73899,1,8
432,208,74299,2,0,B|432:96,1,100,8|2
320,80,75099,1,0
208,80,75499,1,2
208,192,75899,5,0
320,192,76299,1,2
320,304,76699,5,0
208,304,77099,1,2
96,304,77499,2,0,B|96:192,3,100,0|2|0|2
96,80,79099,1,0
96,80,79499,1,4
208,80,79899,1,0
208,80,80299,1,4
320,80,80699,6,0,B|320:192,1,100,0|8
336,304,81499,1,0
336,304,81899,1,4
224,304,82299,1,0
224,304,82699,1,4
224,192,83099,2,0,B|336:192,1,100,0|2
352,80,83899,1,0
224,80,84299,1,2
112,80,84699,6,0,B|112:192,2,100,0|2|0
224,80,85899,2,0,B|336:80,3,100,0|2|0|2
336,192,87499,1,0
336,192,87899,1,4
336,304,88299,1,0
336,304,88699,1,4
224,304,89099,1,0
224,304,89499,1,4
224,192,89899,5,4
288,192,90099,1,0
