osu file format v9

[General]
AudioFilename: Sheep of Vanitas OP.mp3
AudioLeadIn: 0
PreviewTime: 62561
Countdown: 0
SampleSet: Soft
StackLeniency: 0.7
Mode: 0
LetterboxInBreaks: 1

[Editor]
DistanceSpacing: 1.1
BeatDivisor: 2
GridSize: 16

[Metadata]
Title:ANGELIC DESTINY (Short Ver.)
Artist:Sakakibara Yui
Creator:Doraton
Version:Easy
Source:Vanitas no Hitsuji
Tags:eroge hentai game japanese visual novel

[Difficulty]
HPDrainRate:1
CircleSize:3
OverallDifficulty:1
ApproachRate:2
SliderMultiplier:1
SliderTickRate:1

[Events]
//Background and Video events
Video,0,"Vanitas Op.avi"
0,0,"VanitasBG.jpg"
//Break Periods
2,21299,33939
//Storyboard Layer 0 (Background)
//Storyboard Layer 1 (Fail)
//Storyboard Layer 2 (Pass)
//Storyboard Layer 3 (Foreground)
//Storyboard Sound Samples
//Background Colour Transformations
3,100,163,162,255

[TimingPoints]
1899,400,4,2,1,100,1,0
59499,-100,4,2,1,23,0,0
62699,-100,4,1,1,66,0,1
82099,-66.6666666666667,4,1,1,68,0,1
83499,-100,4,1,1,66,0,1
90299,-100,4,2,1,11,0,0

[Colours]
Combo1 : 255,62,62
Combo2 : 160,233,63
Combo3 : 128,64,0
Combo4 : 128,128,255

[HitObjects]
224,288,6699,1,0
224,176,7099,1,2
224,64,7499,1,2
336,64,7899,2,0,B|480:64,2,100,0|2|10
224,64,9099,1,2
112,64,9499,2,0,B|-32:64,2,100,0|2|10
336,64,11099,5,2
432,96,11499,1,0
448,208,11899,1,2
336,208,12299,2,0,B|208:208,1,100,0|8
192,112,13099,5,2
112,176,13499,1,0
32,240,13899,1,2
96,320,14299,2,0,B|208:320,1,100,2|10
304,320,15099,2,2,B|424:320,1,100,2|10
400,208,15899,5,0
400,96,16299,1,0
288,96,16699,2,0,B|176:96,2,100,2|0|10
336,192,17899,1,0
240,256,18299,1,0
160,160,18699,6,0,B|288:160,1,100,2|8
336,80,19499,2,0,B|336:192,1,100,2|0
272,272,20299,1,0
160,272,20699,1,0
96,192,21099,1,8
80,88,35499,6,0,B|200:88,2,100,0|2|8
80,176,37099,2,0,B|80:304,2,100,0|2|8
192,176,38699,2,0,B|328:176,2,100,0|2|8
160,64,39899,5,2
272,64,40299,1,0
384,64,40699,1,2
496,64,41099,1,8
480,176,41499,5,2
368,176,41899,1,0
256,176,42299,1,2
144,176,42699,1,8
64,112,43099,2,0,B|64:-16,2,100,0|2|8
64,224,44299,2,0,B|64:344,2,100,0|2|8
176,224,45499,5,2
288,224,45899,1,2
400,240,46299,1,0
496,192,46699,2,0,B|488:152|480:136|464:104|448:88|432:72|416:56|400:40|384:32,1,200,2|10
288,64,47899,5,2
176,64,48299,1,10
176,176,48699,5,0
288,176,49099,1,8
288,288,49499,6,0,B|184:288,4,100,0|8|0|8|0
288,176,51499,5,8
176,176,51899,1,2
176,64,52299,5,2
288,64,52699,1,8
400,64,53099,5,0
400,176,53499,1,0
400,288,53899,6,8,B|80:288,1,300,8|8
80,176,55499,5,8
96,64,55899,1,0
208,64,56299,1,0
320,64,56699,6,2,B|432:64,2,100,2|10|2
304,176,57899,1,0
192,176,58299,2,2,B|192:288,2,100,2|8|2
256,192,59899,12,4,62699
224,96,63499,6,0,B|432:96,2,200,0|4|0
128,96,65499,5,0
128,184,65899,1,0
128,272,66299,1,0
224,272,66699,1,0
320,272,67099,1,0
416,272,67499,6,0,B|440:216|432:168|416:128|400:104|376:96|360:88,1,200,0|8
280,80,68699,1,2
184,80,69099,1,0
88,80,69499,1,2
80,192,69899,2,0,B|208:192,3,100,0|2|0|2
176,288,71499,5,0
288,288,71899,1,2
288,176,72299,6,0,B|288:120|328:88|368:72|392:64|432:56,1,200,0|2
432,144,73499,2,0,B|432:288,1,100,0|8
432,320,74299,2,0,B|296:320,1,100,2|8
320,240,75099,6,0,B|160:240|176:240,1,100
144,320,75899,2,0,B|144:208,1,100
144,128,76699,6,0,B|264:128,1,100,8|2
240,48,77499,2,0,B|120:48,1,100,8|2
48,48,78299,2,0,B|48:176,3,100,8|2|2|8
48,240,79899,5,2
144,240,80299,1,2
240,240,80699,1,8
336,240,81099,6,0,B|328:176|336:144|352:128|376:112|392:104|408:104|448:96,1,200,4|4
384,32,82299,2,4,B|360:32|320:40|296:48|272:64|224:96|200:128|184:160|176:200|176:232|176:264|240:360,1,449.999986588955,4|4
48,320,84299,6,0,B|48:216,5,100,0|4|0|4|0|4
128,160,86699,6,0,B|208:72,5,100,0|4|0|4|0|4
288,80,89099,2,0,B|400:80,2,100,0|4|0
256,192,90299,12,8,93099
