osu file format v14

[General]
AudioFilename: Sakai Mikio Identity (TV-size).mp3
AudioLeadIn: 0
PreviewTime: 49809
Countdown: 0
SampleSet: None
StackLeniency: 0.7
Mode: 1
LetterboxInBreaks: 1
WidescreenStoryboard: 1

[Editor]
DistanceSpacing: 0.7
BeatDivisor: 4
GridSize: 4
TimelineZoom: 1

[Metadata]
Title:Identity (TV-size)
TitleUnicode:Identity (TV-size)
Artist:Sakai Mikio
ArtistUnicode:Sakai Mikio
Creator:taka1235
Version:Taiko
Source:落第騎士の英雄譚
Tags:rakudai kishi cavalry opening
BeatmapID:876842
BeatmapSetID:374073

[Difficulty]
HPDrainRate:7
CircleSize:5
OverallDifficulty:8
ApproachRate:8
SliderMultiplier:1.6
SliderTickRate:1

[Events]
//Background and Video events
Video,0,"Rakudai Kishi no Cavalry - OP.avi"
0,0,"new_rakudai.jpg",0,0
//Break Periods
//Storyboard Layer 0 (Background)
//Storyboard Layer 1 (Fail)
//Storyboard Layer 2 (Pass)
//Storyboard Layer 3 (Foreground)
//Storyboard Sound Samples

[TimingPoints]
455,483.870967741935,4,1,0,50,1,0
2390,-100,4,2,0,60,0,0
3842,-100,4,3,0,60,0,0
4325,-100,4,1,1,50,0,0
50777,-100,4,1,1,75,0,1
85132,-100,4,1,1,65,0,0
89366,-100,4,1,1,5,0,0

[Colours]
Combo1 : 255,255,74
Combo2 : 255,0,0
Combo3 : 255,111,183

[HitObjects]
112,112,455,5,12,0:0:0:0:
112,112,575,1,0,0:0:0:0:
168,100,817,1,8,0:0:0:0:
168,100,938,1,0,0:0:0:0:
168,100,1059,1,8,0:0:0:0:
168,100,1180,1,0,0:0:0:0:
168,100,1301,1,8,0:0:0:0:
168,100,1422,1,0,0:0:0:0:
168,100,1543,1,8,0:0:0:0:
168,100,1664,1,0,0:0:0:0:
168,100,1785,1,8,0:0:0:0:
168,100,1906,1,0,0:0:0:0:
168,100,2027,1,8,0:0:0:0:
168,100,2148,1,8,0:0:0:0:
168,100,2269,1,8,0:0:0:0:
80,80,4325,5,8,0:0:0:0:
136,76,4567,1,0,0:0:0:0:
136,76,4688,1,8,0:0:0:0:
192,76,4930,1,0,0:0:0:0:
192,76,5051,1,8,0:0:0:0:
248,76,5293,1,0,0:0:0:0:
248,76,5414,1,8,0:0:0:0:
304,76,5656,1,0,0:0:0:0:
304,76,5777,1,8,0:0:0:0:
360,76,6019,1,0,0:0:0:0:
416,76,6261,5,8,0:0:0:0:
416,132,6503,1,0,0:0:0:0:
416,160,6624,1,0,0:0:0:0:
416,188,6745,1,8,0:0:0:0:
416,244,6987,1,0,0:0:0:0:
416,300,7229,1,8,0:0:0:0:
360,304,7471,1,0,0:0:0:0:
304,304,7713,1,8,0:0:0:0:
304,276,7834,1,0,0:0:0:0:
304,248,7954,1,8,0:0:0:0:
304,192,8196,1,8,0:0:0:0:
248,192,8438,1,0,0:0:0:0:
248,192,8559,1,8,0:0:0:0:
192,192,8801,1,0,0:0:0:0:
192,192,8922,1,8,0:0:0:0:
136,192,9164,1,0,0:0:0:0:
80,192,9406,1,8,0:0:0:0:
80,248,9648,1,0,0:0:0:0:
80,248,9769,1,0,0:0:0:0:
80,276,9890,1,8,0:0:0:0:
80,332,10132,1,0,0:0:0:0:
136,332,10374,1,8,0:0:0:0:
164,332,10495,1,0,0:0:0:0:
220,332,10737,1,0,0:0:0:0:
220,332,10858,1,8,0:0:0:0:
276,332,11100,1,0,0:0:0:0:
304,332,11221,1,0,0:0:0:0:
332,332,11342,1,8,0:0:0:0:
388,332,11584,1,0,0:0:0:0:
388,304,11704,1,8,0:0:0:0:
388,276,11825,1,8,0:0:0:0:
388,248,11946,1,0,0:0:0:0:
388,220,12067,5,8,0:0:0:0:
444,216,12309,1,0,0:0:0:0:
472,216,12430,1,8,0:0:0:0:
472,160,12672,1,0,0:0:0:0:
472,132,12793,1,8,0:0:0:0:
472,76,13035,1,0,0:0:0:0:
420,52,13277,1,8,0:0:0:0:
368,36,13519,1,0,0:0:0:0:
324,72,13761,1,8,0:0:0:0:
316,128,14003,1,0,0:0:0:0:
276,164,14245,1,8,0:0:0:0:
276,164,14366,1,0,0:0:0:0:
220,172,14608,1,0,0:0:0:0:
220,172,14729,1,8,0:0:0:0:
196,188,14850,1,0,0:0:0:0:
168,192,14971,1,8,0:0:0:0:
116,176,15213,1,0,0:0:0:0:
76,136,15454,1,8,0:0:0:0:
68,80,15696,1,0,0:0:0:0:
104,36,15938,1,0,0:0:0:0:
160,48,16180,1,8,0:0:0:0:
188,52,16301,1,0,0:0:0:0:
216,56,16422,1,0,0:0:0:0:
244,60,16543,1,0,0:0:0:0:
272,64,16664,1,8,0:0:0:0:
288,116,16906,5,0,0:0:0:0:
268,196,17148,1,8,0:0:0:0:
268,196,17269,1,0,0:0:0:0:
296,204,17390,1,0,0:0:0:0:
316,224,17511,1,0,0:0:0:0:
320,252,17632,1,8,0:0:0:0:
356,292,17874,5,0,0:0:0:0:
380,304,17995,1,0,0:0:0:0:
408,308,18116,1,8,0:0:0:0:
448,268,18358,1,0,0:0:0:0:
460,244,18479,1,0,0:0:0:0:
468,216,18600,1,8,0:0:0:0:
440,168,18842,5,12,0:0:0:0:
412,120,19204,1,12,0:0:0:0:
372,84,19567,1,12,0:0:0:0:
316,84,19809,5,0,0:0:0:0:
284,132,20051,1,0,0:0:0:0:
284,132,20172,1,8,0:0:0:0:
284,188,20414,1,0,0:0:0:0:
284,188,20535,1,8,0:0:0:0:
244,228,20777,5,0,0:0:0:0:
224,244,20898,1,0,0:0:0:0:
208,264,21019,1,8,0:0:0:0:
184,276,21140,1,0,0:0:0:0:
156,280,21261,1,8,0:0:0:0:
100,272,21503,1,0,0:0:0:0:
64,232,21745,1,8,0:0:0:0:
44,180,21987,1,0,0:0:0:0:
68,128,22229,1,8,0:0:0:0:
116,100,22471,1,0,0:0:0:0:
168,120,22713,1,12,0:0:0:0:
252,124,23075,1,4,0:0:0:0:
328,88,23438,1,4,0:0:0:0:
344,36,23680,5,0,0:0:0:0:
400,44,23922,1,0,0:0:0:0:
428,48,24043,1,8,0:0:0:0:
428,104,24285,1,0,0:0:0:0:
420,132,24406,1,8,0:0:0:0:
384,172,24648,1,0,0:0:0:0:
416,220,24890,1,8,0:0:0:0:
388,268,25132,1,0,0:0:0:0:
304,284,25374,1,8,0:0:0:0:
252,308,25616,1,0,0:0:0:0:
200,288,25858,1,0,0:0:0:0:
200,288,25979,1,8,0:0:0:0:
180,236,26221,1,0,0:0:0:0:
180,236,26342,1,8,0:0:0:0:
208,188,26584,1,0,0:0:0:0:
216,160,26704,1,0,0:0:0:0:
220,132,26825,1,8,0:0:0:0:
204,112,26946,1,0,0:0:0:0:
180,100,27067,1,12,0:0:0:0:
180,100,27188,1,12,0:0:0:0:
104,64,27551,1,0,0:0:0:0:
72,112,27793,1,8,0:0:0:0:
44,160,28035,1,8,0:0:0:0:
60,212,28277,1,0,0:0:0:0:
96,256,28519,1,8,0:0:0:0:
96,256,28640,1,8,0:0:0:0:
136,292,28882,1,8,0:0:0:0:
184,320,29003,1,0,0:0:0:0:
240,308,29245,1,0,0:0:0:0:
288,280,29487,5,8,0:0:0:0:
312,228,29729,1,0,0:0:0:0:
312,228,29850,1,8,0:0:0:0:
368,228,30092,1,0,0:0:0:0:
368,228,30213,1,8,0:0:0:0:
404,268,30454,1,0,0:0:0:0:
456,252,30696,1,8,0:0:0:0:
448,196,30938,1,0,0:0:0:0:
460,140,31180,1,8,0:0:0:0:
416,108,31422,5,0,0:0:0:0:
360,112,31664,1,0,0:0:0:0:
332,108,31785,1,8,0:0:0:0:
284,140,32027,1,0,0:0:0:0:
284,140,32148,1,8,0:0:0:0:
264,192,32390,1,0,0:0:0:0:
264,220,32511,1,8,0:0:0:0:
272,248,32632,1,8,0:0:0:0:
292,268,32753,1,0,0:0:0:0:
312,288,32874,1,8,0:0:0:0:
272,328,33116,1,0,0:0:0:0:
272,328,33237,1,8,0:0:0:0:
192,356,33600,1,0,0:0:0:0:
164,356,33721,1,0,0:0:0:0:
136,356,33842,1,8,0:0:0:0:
108,356,33963,1,0,0:0:0:0:
80,356,34084,1,8,0:0:0:0:
52,356,34204,1,0,0:0:0:0:
28,340,34325,1,8,0:0:0:0:
24,312,34446,1,0,0:0:0:0:
24,284,34567,1,8,0:0:0:0:
24,256,34688,1,0,0:0:0:0:
28,228,34809,1,8,0:0:0:0:
32,200,34930,1,0,0:0:0:0:
36,172,35051,1,8,0:0:0:0:
44,144,35172,1,0,0:0:0:0:
52,116,35293,1,4,0:0:0:0:
108,120,35656,1,4,0:0:0:0:
164,120,36019,1,4,0:0:0:0:
192,168,36261,1,8,0:0:0:0:
244,184,36503,1,8,0:0:0:0:
300,184,36745,1,8,0:0:0:0:
340,148,36987,1,0,0:0:0:0:
340,148,37108,1,0,0:0:0:0:
360,128,37229,1,4,0:0:0:0:
412,144,37592,1,4,0:0:0:0:
440,192,37954,1,4,0:0:0:0:
408,240,38196,1,8,0:0:0:0:
372,284,38438,1,8,0:0:0:0:
320,304,38680,1,0,0:0:0:0:
276,272,38922,1,8,0:0:0:0:
220,256,39164,1,4,0:0:0:0:
136,272,39527,1,4,0:0:0:0:
56,244,39890,1,4,0:0:0:0:
32,192,40132,1,0,0:0:0:0:
40,164,40253,1,0,0:0:0:0:
48,136,40374,1,8,0:0:0:0:
60,112,40495,1,0,0:0:0:0:
68,84,40616,1,8,0:0:0:0:
124,72,40858,1,0,0:0:0:0:
172,104,41100,1,4,0:0:0:0:
212,144,41463,1,4,0:0:0:0:
260,172,41825,1,4,0:0:0:0:
284,224,42067,1,8,0:0:0:0:
312,272,42309,1,8,0:0:0:0:
364,256,42551,1,0,0:0:0:0:
364,256,42672,1,8,0:0:0:0:
404,184,43035,1,0,0:0:0:0:
352,160,43277,1,8,0:0:0:0:
400,128,43519,1,0,0:0:0:0:
380,76,43761,1,8,0:0:0:0:
328,60,44003,1,0,0:0:0:0:
304,72,44124,1,0,0:0:0:0:
304,72,44245,1,8,0:0:0:0:
260,104,44487,1,0,0:0:0:0:
204,96,44729,1,8,0:0:0:0:
168,140,44971,1,0,0:0:0:0:
160,196,45213,1,8,0:0:0:0:
208,228,45454,1,0,0:0:0:0:
160,260,45696,1,8,0:0:0:0:
120,300,45938,1,0,0:0:0:0:
92,308,46059,1,0,0:0:0:0:
64,304,46180,1,8,0:0:0:0:
44,252,46422,1,0,0:0:0:0:
36,224,46543,1,0,0:0:0:0:
32,168,46664,1,8,0:0:0:0:
64,120,46785,1,0,0:0:0:0:
92,124,46906,1,4,0:0:0:0:
172,144,47269,1,4,0:0:0:0:
256,128,47632,1,4,0:0:0:0:
292,204,47995,1,4,0:0:0:0:
332,280,48358,1,12,0:0:0:0:
332,280,48600,1,12,0:0:0:0:
56,68,50777,5,12,0:0:0:0:
100,100,51019,1,0,0:0:0:0:
100,100,51140,1,8,0:0:0:0:
112,156,51382,1,0,0:0:0:0:
104,184,51503,1,8,0:0:0:0:
64,224,51745,1,0,0:0:0:0:
68,280,51987,1,0,0:0:0:0:
96,276,52108,1,8,0:0:0:0:
144,304,52350,1,8,0:0:0:0:
200,312,52592,1,8,0:0:0:0:
216,336,52713,5,12,0:0:0:0:
300,328,53075,1,12,0:0:0:0:
380,304,53438,1,0,0:0:0:0:
356,252,53680,1,12,0:0:0:0:
360,168,54043,1,12,0:0:0:0:
420,112,54406,1,0,0:0:0:0:
448,64,54648,1,0,0:0:0:0:
364,48,54890,1,0,0:0:0:0:
364,48,55011,1,8,0:0:0:0:
316,76,55253,1,0,0:0:0:0:
292,88,55374,1,8,0:0:0:0:
252,128,55616,1,0,0:0:0:0:
224,176,55858,1,0,0:0:0:0:
224,176,55979,1,8,0:0:0:0:
192,224,56221,1,0,0:0:0:0:
192,252,56342,1,8,0:0:0:0:
160,300,56584,1,0,0:0:0:0:
136,312,56704,1,0,0:0:0:0:
108,320,56825,1,8,0:0:0:0:
80,324,56946,1,0,0:0:0:0:
52,276,57188,1,0,0:0:0:0:
40,252,57309,1,8,0:0:0:0:
72,208,57551,1,0,0:0:0:0:
100,204,57672,1,0,0:0:0:0:
128,200,57793,1,8,0:0:0:0:
152,188,57914,1,0,0:0:0:0:
172,168,58035,1,0,0:0:0:0:
188,144,58156,1,8,0:0:0:0:
200,120,58277,1,0,0:0:0:0:
204,92,58398,1,0,0:0:0:0:
204,64,58519,1,12,0:0:0:0:
148,68,58761,1,0,0:0:0:0:
148,68,58882,1,8,0:0:0:0:
80,116,59124,1,0,0:0:0:0:
80,116,59245,1,8,0:0:0:0:
60,168,59487,1,0,0:0:0:0:
80,220,59729,1,0,0:0:0:0:
80,220,59850,1,8,0:0:0:0:
120,256,60092,1,0,0:0:0:0:
120,256,60213,1,8,0:0:0:0:
140,276,60334,1,0,0:0:0:0:
156,296,60454,1,4,0:0:0:0:
208,312,60696,1,12,0:0:0:0:
264,308,60938,1,4,0:0:0:0:
292,260,61180,1,12,0:0:0:0:
284,204,61422,1,4,0:0:0:0:
336,184,61664,1,12,0:0:0:0:
384,212,61906,1,0,0:0:0:0:
412,212,62027,1,0,0:0:0:0:
440,200,62148,1,0,0:0:0:0:
444,144,62390,1,12,0:0:0:0:
396,112,62632,1,0,0:0:0:0:
368,116,62753,1,12,0:0:0:0:
316,96,62995,1,0,0:0:0:0:
292,80,63116,1,12,0:0:0:0:
244,108,63358,1,0,0:0:0:0:
232,132,63479,1,12,0:0:0:0:
200,176,63721,1,0,0:0:0:0:
196,204,63842,1,12,0:0:0:0:
208,260,64084,1,12,0:0:0:0:
184,312,64325,1,4,0:0:0:0:
104,344,64688,1,4,0:0:0:0:
52,276,65051,1,4,0:0:0:0:
28,228,65293,1,0,0:0:0:0:
60,180,65535,1,0,0:0:0:0:
88,172,65656,1,8,0:0:0:0:
116,168,65777,1,0,0:0:0:0:
144,164,65898,1,8,0:0:0:0:
172,164,66019,1,0,0:0:0:0:
200,168,66140,1,8,0:0:0:0:
224,180,66261,1,12,0:0:0:0:
256,224,66503,1,0,0:0:0:0:
272,244,66624,1,8,0:0:0:0:
320,272,66866,1,0,0:0:0:0:
348,280,66987,1,8,0:0:0:0:
396,308,67229,1,8,0:0:0:0:
424,320,67350,1,0,0:0:0:0:
444,300,67471,1,8,0:0:0:0:
460,248,67592,1,0,0:0:0:0:
424,204,67834,1,0,0:0:0:0:
432,176,67954,1,8,0:0:0:0:
384,148,68196,1,0,0:0:0:0:
344,108,68438,1,8,0:0:0:0:
320,92,68559,1,0,0:0:0:0:
292,140,68801,1,0,0:0:0:0:
284,168,68922,1,8,0:0:0:0:
244,204,69164,1,0,0:0:0:0:
244,204,69285,1,0,0:0:0:0:
236,232,69406,1,8,0:0:0:0:
244,260,69527,1,0,0:0:0:0:
192,284,69769,1,0,0:0:0:0:
164,284,69890,1,8,0:0:0:0:
116,308,70132,1,0,0:0:0:0:
64,292,70374,1,0,0:0:0:0:
52,268,70495,1,8,0:0:0:0:
44,240,70616,1,0,0:0:0:0:
56,184,70858,1,0,0:0:0:0:
112,176,71100,1,0,0:0:0:0:
140,172,71221,1,0,0:0:0:0:
168,164,71342,1,8,0:0:0:0:
192,148,71463,1,0,0:0:0:0:
216,136,71584,1,0,0:0:0:0:
264,112,71825,1,8,0:0:0:0:
308,144,72067,1,0,0:0:0:0:
324,168,72188,1,0,0:0:0:0:
348,220,72309,1,8,0:0:0:0:
344,248,72430,1,0,0:0:0:0:
384,288,72672,1,0,0:0:0:0:
440,300,72914,1,0,0:0:0:0:
456,276,73035,1,0,0:0:0:0:
464,248,73156,1,0,0:0:0:0:
464,220,73277,1,8,0:0:0:0:
464,192,73398,1,0,0:0:0:0:
464,164,73519,1,0,0:0:0:0:
464,136,73640,1,0,0:0:0:0:
452,112,73761,1,8,0:0:0:0:
432,96,73882,1,0,0:0:0:0:
404,104,74003,1,0,0:0:0:0:
356,132,74245,1,8,0:0:0:0:
312,168,74487,1,8,0:0:0:0:
260,188,74729,1,0,0:0:0:0:
232,236,74971,1,8,0:0:0:0:
232,236,75092,1,8,0:0:0:0:
224,292,75334,1,8,0:0:0:0:
180,324,75454,1,0,0:0:0:0:
124,332,75696,1,8,0:0:0:0:
68,316,75938,1,4,0:0:0:0:
52,264,76180,1,12,0:0:0:0:
64,208,76422,1,4,0:0:0:0:
108,172,76664,1,12,0:0:0:0:
160,152,76906,1,4,0:0:0:0:
216,144,77148,1,12,0:0:0:0:
268,168,77390,1,12,0:0:0:0:
296,216,77632,1,8,0:0:0:0:
308,240,77753,1,8,0:0:0:0:
312,268,77874,1,4,0:0:0:0:
356,340,78237,1,4,0:0:0:0:
432,308,78600,1,4,0:0:0:0:
448,224,78963,1,4,0:0:0:0:
412,148,79325,1,4,0:0:0:0:
356,140,79567,1,8,0:0:0:0:
336,88,79809,5,12,0:0:0:0:
260,124,80172,1,12,0:0:0:0:
200,184,80535,1,12,0:0:0:0:
208,240,80777,1,12,0:0:0:0:
252,276,81019,1,0,0:0:0:0:
304,292,81261,1,12,0:0:0:0:
360,304,81503,1,0,0:0:0:0:
416,288,81745,1,12,0:0:0:0:
452,244,81987,1,0,0:0:0:0:
432,224,82108,1,8,0:0:0:0:
392,188,82350,5,0,0:0:0:0:
360,144,82471,1,8,0:0:0:0:
304,156,82713,1,0,0:0:0:0:
280,172,82834,1,0,0:0:0:0:
256,184,82954,1,8,0:0:0:0:
228,196,83075,1,0,0:0:0:0:
200,196,83196,1,0,0:0:0:0:
172,188,83317,1,0,0:0:0:0:
148,172,83438,1,8,0:0:0:0:
128,152,83559,1,0,0:0:0:0:
168,76,83801,1,8,0:0:0:0:
220,92,84043,1,8,0:0:0:0:
248,100,84164,1,0,0:0:0:0:
304,112,84406,1,0,0:0:0:0:
332,112,84527,1,8,0:0:0:0:
408,232,85132,1,4,0:0:0:0:
340,320,85616,1,8,0:0:0:0:
312,316,85737,1,8,0:0:0:0:
256,304,85979,1,8,0:0:0:0:
200,292,86221,1,8,0:0:0:0:
144,280,86463,1,0,0:0:0:0:
120,268,86584,1,8,0:0:0:0:
108,244,86704,1,8,0:0:0:0:
104,188,86946,1,8,0:0:0:0:
148,152,87188,1,0,0:0:0:0:
176,148,87309,1,8,0:0:0:0:
232,140,87430,1,8,0:0:0:0:
256,192,87551,12,0,89487,0:0:0:0:
