osu file format v14

[General]
AudioFilename: Sakai Mikio Identity (TV-size).mp3
AudioLeadIn: 0
PreviewTime: 49809
Countdown: 0
SampleSet: Normal
StackLeniency: 0.7
Mode: 0
LetterboxInBreaks: 1
WidescreenStoryboard: 0

[Editor]
DistanceSpacing: 2
BeatDivisor: 4
GridSize: 4
TimelineZoom: 1

[Metadata]
Title:Identity (TV-size)
TitleUnicode:Identity (TV-size)
Artist:Sakai Mikio
ArtistUnicode:Sakai Mikio
Creator:taka1235
Version:Insane
Source:落第騎士の英雄譚
Tags:rakudai kishi cavalry opening
BeatmapID:819488
BeatmapSetID:374073

[Difficulty]
HPDrainRate:7
CircleSize:5
OverallDifficulty:8
ApproachRate:8
SliderMultiplier:1.6
SliderTickRate:1

[Events]
//Background and Video events
Video,0,"Rakudai Kishi no Cavalry - OP.avi"
0,0,"new_rakudai.jpg",0,0
//Break Periods
//Storyboard Layer 0 (Background)
//Storyboard Layer 1 (Fail)
//Storyboard Layer 2 (Pass)
//Storyboard Layer 3 (Foreground)
//Storyboard Sound Samples

[TimingPoints]
455,483.870967741935,4,1,0,50,1,0
2390,-100,4,2,0,60,0,0
3842,-100,4,3,0,60,0,0
4325,-100,4,1,1,50,0,0
50777,-100,4,1,1,75,0,1
85132,-100,4,1,1,65,0,0
89366,-100,4,1,1,5,0,0

[Colours]
Combo1 : 255,255,74
Combo2 : 255,0,0
Combo3 : 255,111,183

[HitObjects]
360,248,455,5,6,0:0:0:0:
360,248,575,2,0,L|256:256,2,80,2|2|2,0:0|0:0|0:0,0:0:0:0:
432,280,1180,1,0,0:0:0:0:
488,224,1301,1,0,0:0:0:0:
472,144,1422,2,0,L|480:88,1,40,2|0,0:0|0:0,0:0:0:0:
440,40,1664,1,0,0:0:0:0:
376,72,1785,1,2,0:0:0:0:
392,144,1906,1,0,0:0:0:0:
320,136,2027,1,2,0:0:0:0:
248,136,2148,2,0,L|192:160,1,40,0|2,0:0|0:0,0:0:0:0:
144,128,2390,6,0,L|112:96,4,40,0|0|2|0|0,0:0|0:0|0:0|0:0|0:0,0:0:0:0:
152,200,2995,1,0,0:0:0:0:
96,248,3116,2,0,L|104:312,1,40,2|0,0:0|0:0,0:0:0:0:
32,312,3358,1,0,0:0:0:0:
80,368,3479,1,0,0:0:0:0:
152,360,3600,2,0,L|216:368,1,40,2|0,0:0|0:0,0:0:0:0:
248,320,3842,5,0,0:0:0:0:
496,256,4084,1,0,0:0:0:0:
496,256,4325,6,0,L|416:248,1,80
248,320,4688,2,0,L|344:312,1,80
496,256,5051,6,0,L|416:248,1,80
360,272,5414,1,0,0:0:0:0:
304,296,5535,1,0,0:0:0:0:
248,320,5656,1,0,0:0:0:0:
400,352,5777,1,0,0:0:0:0:
192,256,6019,1,0,0:0:0:0:
400,352,6261,6,0,P|408:296|408:232,1,120
368,176,6745,1,0,0:0:0:0:
192,256,6987,1,0,0:0:0:0:
368,176,7229,1,0,0:0:0:0:
400,352,7471,1,0,0:0:0:0:
192,256,7713,1,0,0:0:0:0:
192,256,7834,1,0,0:0:0:0:
192,256,7955,1,0,0:0:0:0:
48,112,8196,6,0,L|144:104,1,80
184,56,8559,1,0,0:0:0:0:
368,176,8801,1,0,0:0:0:0:
304,216,8922,2,0,P|256:232|272:344,1,160
464,344,9648,2,0,L|368:352,1,80
304,216,10132,6,0,L|408:224,1,80
456,192,10495,1,0,0:0:0:0:
368,56,10737,1,0,0:0:0:0:
368,56,10858,1,0,0:0:0:0:
208,96,11100,5,0,0:0:0:0:
456,192,11342,1,0,0:0:0:0:
256,344,11584,1,0,0:0:0:0:
184,328,11705,1,0,0:0:0:0:
112,304,11825,2,0,L|56:320,1,40
16,264,12067,6,0,P|16:224|8:176,1,80
40,112,12430,1,0,0:0:0:0:
176,48,12672,1,0,0:0:0:0:
200,120,12793,1,0,0:0:0:0:
360,160,13035,2,0,L|448:152,1,80
488,320,13519,5,0,0:0:0:0:
288,368,13761,1,0,0:0:0:0:
136,232,14003,2,0,P|192:144|288:208,1,240
216,232,14850,1,0,0:0:0:0:
192,304,14971,5,0,0:0:0:0:
48,360,15213,1,0,0:0:0:0:
192,304,15454,2,0,L|184:208,1,80
16,88,15938,6,0,P|56:72|96:72,1,80
160,112,16301,1,0,0:0:0:0:
248,248,16543,1,0,0:0:0:0:
224,320,16664,1,2,0:0:0:0:
464,328,16906,6,0,L|376:336,1,80,2|0,0:0|0:0,0:0:0:0:
336,248,17269,2,0,P|328:184|328:104,1,120,2|2,0:0|0:0,0:0:0:0:
408,64,17753,1,2,0:0:0:0:
416,64,18116,6,2,L|328:56,1,80,2|0,0:0|0:0,0:0:0:0:
168,144,18479,2,2,L|264:136,1,80,2|0,0:0|0:0,0:0:0:0:
320,176,18842,1,2,0:0:0:0:
312,256,18963,1,0,0:0:0:0:
240,288,19084,1,0,0:0:0:0:
168,256,19204,1,2,0:0:0:0:
96,288,19325,2,0,L|88:336,1,40
168,256,19567,2,0,L|160:304,1,40,2|0,0:0|0:0,0:0:0:0:
160,360,19809,6,0,L|56:368,1,80,4|0,0:0|0:0,0:0:0:0:
240,288,20172,2,0,L|328:280,1,80
160,360,20535,6,0,L|56:368,1,80
136,288,20898,2,0,L|192:284,1,40
232,320,21140,1,0,0:0:0:0:
296,348,21261,1,0,0:0:0:0:
136,288,21503,1,0,0:0:0:0:
384,336,21745,5,0,0:0:0:0:
472,200,21987,1,0,0:0:0:0:
384,336,22229,2,2,P|416:256|352:224,1,160
224,304,22954,1,0,0:0:0:0:
256,228,23075,2,2,P|252:160|248:96,1,120
400,32,23680,5,0,0:0:0:0:
240,16,23922,1,0,0:0:0:0:
240,16,24043,1,0,0:0:0:0:
120,120,24285,1,0,0:0:0:0:
184,168,24406,2,0,P|240:160|272:272,1,160
72,336,25132,2,0,L|168:344,1,80
40,200,25616,6,2,P|16:144|16:56,2,120
176,104,26584,2,0,L|232:112,1,40
280,152,26825,1,0,0:0:0:0:
352,120,26946,1,0,0:0:0:0:
432,144,27067,1,2,0:0:0:0:
432,144,27188,1,2,0:0:0:0:
320,360,27551,6,0,P|312:312|312:272,1,80,0|2,0:0|0:0,0:0:0:0:
368,224,27914,1,0,0:0:0:0:
448,240,28035,1,2,0:0:0:0:
480,312,28156,2,0,L|424:328,1,40
288,176,28519,5,2,0:0:0:0:
216,200,28640,1,2,0:0:0:0:
128,336,28882,1,2,0:0:0:0:
80,272,29003,2,0,L|0:264,1,80
56,112,29487,5,2,0:0:0:0:
192,24,29729,1,0,0:0:0:0:
272,48,29850,1,2,0:0:0:0:
336,192,30092,2,0,L|328:256,1,40,0|2,0:0|0:0,0:0:0:0:
448,344,30454,5,0,0:0:0:0:
504,160,30696,1,0,0:0:0:0:
368,16,30938,1,2,0:0:0:0:
192,24,31180,1,0,0:0:0:0:
104,192,31422,6,0,L|200:184,1,80
256,216,31785,1,0,0:0:0:0:
152,344,32027,1,0,0:0:0:0:
88,296,32148,1,0,0:0:0:0:
24,144,32390,5,0,0:0:0:0:
72,80,32511,2,0,L|120:88,1,40
192,104,32753,1,0,0:0:0:0:
248,48,32874,1,0,0:0:0:0:
392,120,33116,1,0,0:0:0:0:
392,120,33237,1,0,0:0:0:0:
392,120,33600,6,0,L|400:176,1,40
304,240,33842,2,0,L|312:168,1,40
272,128,34084,1,0,0:0:0:0:
192,104,34204,1,0,0:0:0:0:
120,144,34325,6,0,L|64:152,1,40
24,208,34567,1,0,0:0:0:0:
48,288,34688,1,0,0:0:0:0:
120,320,34809,6,0,L|168:328,1,40
240,312,35051,1,0,0:0:0:0:
304,352,35172,1,0,0:0:0:0:
360,296,35293,5,4,0:0:0:0:
496,128,35656,1,4,0:0:0:0:
304,40,36019,1,4,0:0:0:0:
168,88,36261,2,0,L|72:80,2,80
280,176,36987,2,0,L|288:240,1,40
296,288,37229,5,4,0:0:0:0:
88,352,37592,1,4,0:0:0:0:
32,144,37954,1,4,0:0:0:0:
160,80,38196,2,0,L|256:88,2,80
32,144,38922,1,0,0:0:0:0:
136,240,39164,5,4,0:0:0:0:
328,344,39527,1,4,0:0:0:0:
472,184,39890,1,4,0:0:0:0:
368,64,40132,2,0,L|376:8,2,40
368,64,40495,1,0,0:0:0:0:
368,64,40616,1,0,0:0:0:0:
208,56,40858,1,0,0:0:0:0:
280,200,41100,5,4,0:0:0:0:
120,344,41463,1,4,0:0:0:0:
64,136,41825,1,4,0:0:0:0:
208,56,42067,6,0,L|304:48,1,80
456,136,42551,1,0,0:0:0:0:
456,136,42672,1,0,0:0:0:0:
360,352,43035,6,0,P|360:312|336:264,1,80
280,232,43398,1,0,0:0:0:0:
136,304,43640,2,0,L|72:296,1,40
24,152,44003,5,0,0:0:0:0:
24,152,44245,1,0,0:0:0:0:
144,48,44487,1,0,0:0:0:0:
144,48,44729,1,0,0:0:0:0:
288,112,44971,6,0,P|296:152|304:216,1,80
264,264,45334,1,0,0:0:0:0:
408,336,45575,2,0,L|464:328,1,40
504,136,45938,6,0,P|456:108|380:112,1,120
320,56,46422,2,0,L|208:64,1,80
216,148,46785,1,0,0:0:0:0:
288,220,46906,6,0,L|392:228,1,80,10|0,0:0|0:0,0:0:0:0:
216,148,47269,6,0,L|128:156,1,80,10|0,0:0|0:0,0:0:0:0:
312,140,47632,6,0,L|328:60,1,80,10|0,0:0|0:0,0:0:0:0:
200,252,47995,6,0,L|216:340,1,80,10|0,0:0|0:0,0:0:0:0:
260,196,48358,5,10,0:0:0:0:
260,196,48479,1,0,0:0:0:0:
260,196,48600,1,10,0:0:0:0:
48,168,50777,6,0,P|128:80|208:152,1,240,6|2,0:0|0:0,0:0:0:0:
192,216,51624,1,0,0:0:0:0:
240,272,51745,2,2,L|320:264,1,80
384,296,52108,1,0,0:0:0:0:
488,144,52350,2,2,L|432:136,1,40,2|0,0:0|0:0,0:0:0:0:
408,80,52592,1,2,0:0:0:0:
336,104,52713,5,2,0:0:0:0:
208,32,52954,1,0,0:0:0:0:
152,80,53075,1,2,0:0:0:0:
96,208,53317,1,0,0:0:0:0:
32,184,53438,1,2,0:0:0:0:
96,344,53680,5,2,0:0:0:0:
256,240,53922,2,0,L|320:248,1,40,0|2,0:0|0:0,0:0:0:0:
456,336,54285,2,0,L|400:344,1,40,0|2,0:0|0:0,0:0:0:0:
352,296,54527,1,0,0:0:0:0:
280,328,54648,5,6,0:0:0:0:
176,184,54890,1,0,0:0:0:0:
204,108,55011,1,2,0:0:0:0:
356,52,55253,2,0,L|420:72,1,40,0|2,0:0|0:0,0:0:0:0:
452,244,55616,6,2,L|368:256,1,80
312,312,55979,2,2,P|296:272|296:212,1,80
320,160,56342,1,0,0:0:0:0:
384,112,56463,1,0,0:0:0:0:
448,68,56584,6,2,L|324:56,1,120
256,28,57067,2,0,L|220:56,1,40
152,20,57309,1,0,0:0:0:0:
228,160,57551,5,0,0:0:0:0:
120,280,57793,1,0,0:0:0:0:
176,340,57914,1,0,0:0:0:0:
376,280,58156,1,0,0:0:0:0:
440,32,58398,1,0,0:0:0:0:
380,84,58519,6,0,P|340:72|268:64,1,80,6|0,0:0|0:0,0:0:0:0:
232,104,58882,1,2,0:0:0:0:
104,196,59124,2,0,L|96:140,1,40,0|2,0:0|0:0,0:0:0:0:
224,256,59487,6,0,P|240:296|240:344,1,80,2|0,0:0|0:0,0:0:0:0:
168,368,59850,1,2,0:0:0:0:
44,172,60092,2,0,L|52:228,1,40,0|2,0:0|0:0,0:0:0:0:
116,264,60334,1,0,0:0:0:0:
168,196,60454,5,4,0:0:0:0:
432,148,60696,1,2,0:0:0:0:
120,136,60938,5,4,0:0:0:0:
456,208,61180,1,2,0:0:0:0:
160,88,61422,5,4,0:0:0:0:
424,256,61664,2,0,L|368:272,1,40,2|0,0:0|0:0,0:0:0:0:
344,336,61906,1,0,0:0:0:0:
264,328,62027,1,0,0:0:0:0:
232,256,62148,1,0,0:0:0:0:
160,224,62269,1,0,0:0:0:0:
80,232,62390,5,8,0:0:0:0:
192,80,62632,2,0,L|176:32,1,40,0|8,0:0|0:0,0:0:0:0:
264,328,62995,6,0,L|256:384,1,40,0|8,0:0|0:0,0:0:0:0:
416,112,63358,6,0,L|472:72,1,40,0|8,0:0|0:0,0:0:0:0:
480,344,63721,1,0,0:0:0:0:
408,312,63842,1,8,0:0:0:0:
176,360,64084,1,8,0:0:0:0:
56,256,64325,5,6,0:0:0:0:
244,104,64567,1,0,0:0:0:0:
168,80,64688,1,6,0:0:0:0:
368,188,64930,1,0,0:0:0:0:
440,156,65051,1,6,0:0:0:0:
168,80,65293,6,0,L|276:84,1,80
304,140,65656,1,0,0:0:0:0:
368,188,65777,1,0,0:0:0:0:
440,156,65898,2,0,L|456:216,2,40
480,64,66261,6,0,P|392:8|344:112,1,240,6|0,0:0|0:0,0:0:0:0:
392,168,67108,1,0,0:0:0:0:
344,232,67229,2,0,L|248:224,1,80,2|0,0:0|0:0,0:0:0:0:
192,264,67592,2,0,L|200:368,1,80,2|0,0:0|0:0,0:0:0:0:
272,372,67954,1,2,0:0:0:0:
344,344,68075,1,0,0:0:0:0:
416,312,68196,6,0,L|512:304,1,80,2|0,0:0|0:0,0:0:0:0:
392,168,68559,2,2,L|304:152,1,80,2|0,0:0|0:0,0:0:0:0:
232,224,68922,2,0,L|240:280,1,40,2|0,0:0|0:0,0:0:0:0:
112,336,69164,6,0,L|192:344,1,80,2|0,0:0|0:0,0:0:0:0:
232,224,69527,2,0,P|224:168|208:128,1,80,2|0,0:0|0:0,0:0:0:0:
152,96,69890,1,2,0:0:0:0:
80,64,70011,1,0,0:0:0:0:
144,16,70132,6,2,L|240:24,1,80,2|0,0:0|0:0,0:0:0:0:
112,112,70495,2,2,L|8:128,1,80,2|0,0:0|0:0,0:0:0:0:
96,216,70858,2,0,P|104:248|120:264,1,40,2|0,0:0|0:0,0:0:0:0:
216,344,71100,6,2,P|224:304|224:264,1,80,2|0,0:0|0:0,0:0:0:0:
344,224,71463,2,0,L|456:232,1,80,2|0,0:0|0:0,0:0:0:0:
472,296,71825,1,2,0:0:0:0:
408,344,71946,1,0,0:0:0:0:
328,320,72067,6,2,L|240:328,1,80,2|0,0:0|0:0,0:0:0:0:
176,280,72430,2,2,L|96:272,2,80
216,208,73035,6,0,L|256:200,1,40
144,152,73277,2,0,L|192:192,1,40
160,56,73519,2,0,L|152:104,1,40
272,24,73761,2,0,L|208:32,1,40
360,72,74003,6,0,P|432:96|368:216,1,240,6|2,0:0|0:0,0:0:0:0:
304,192,74850,1,2,0:0:0:0:
228,212,74971,2,2,L|236:260,1,40
204,328,75213,1,0,0:0:0:0:
136,288,75334,2,2,P|80:276|20:272,1,80,2|0,0:0|0:0,0:0:0:0:
24,200,75696,1,2,0:0:0:0:
56,128,75817,1,0,0:0:0:0:
112,184,75938,5,4,0:0:0:0:
432,296,76180,1,2,0:0:0:0:
96,232,76422,5,4,0:0:0:0:
464,224,76664,1,2,0:0:0:0:
128,312,76906,5,4,0:0:0:0:
432,112,77148,1,2,0:0:0:0:
248,360,77390,5,2,0:0:0:0:
336,40,77632,2,0,L|280:56,1,40,2|0,0:0|0:0,0:0:0:0:
224,24,77874,5,12,0:0:0:0:
48,128,78116,1,0,0:0:0:0:
80,208,78237,1,12,0:0:0:0:
80,208,78479,1,0,0:0:0:0:
208,168,78600,1,12,0:0:0:0:
208,168,78842,1,0,0:0:0:0:
288,328,78963,1,12,0:0:0:0:
288,328,79204,1,0,0:0:0:0:
448,104,79325,1,12,0:0:0:0:
448,104,79567,1,0,0:0:0:0:
176,24,79809,6,2,L|264:32,1,80,6|0,0:0|0:0,0:0:0:0:
328,72,80172,1,2,0:0:0:0:
352,152,80293,1,0,0:0:0:0:
288,200,80414,1,0,0:0:0:0:
208,176,80535,1,2,0:0:0:0:
152,232,80656,1,0,0:0:0:0:
168,312,80777,5,6,0:0:0:0:
352,360,81019,1,0,0:0:0:0:
488,192,81261,1,6,0:0:0:0:
328,24,81503,1,0,0:0:0:0:
152,88,81745,6,2,L|24:96,2,120,6|2|2,0:0|0:0|0:0,0:0:0:0:
248,256,82713,1,2,0:0:0:0:
328,272,82834,1,0,0:0:0:0:
312,352,82954,1,0,0:0:0:0:
232,344,83075,2,2,P|224:296|224:256,1,80,2|0,0:0|0:0,0:0:0:0:
320,144,83438,2,2,L|424:152,1,80,2|0,0:0|0:0,0:0:0:0:
496,288,83801,6,2,L|400:296,1,80,10|0,0:0|0:0,0:0:0:0:
190,244,84164,2,2,L|222:340,1,80,10|0,0:0|0:0,0:0:0:0:
320,144,84527,1,14,0:0:0:0:
320,144,85132,5,2,0:0:0:0:
240,128,85253,1,0,0:0:0:0:
160,112,85374,1,2,0:0:0:0:
80,96,85495,1,0,0:0:0:0:
104,168,85616,5,2,0:0:0:0:
104,168,85737,2,2,L|24:176,2,80
152,232,86342,2,0,L|192:248,1,40,0|2,0:0|0:0,0:0:0:0:
216,320,86584,1,2,0:0:0:0:
288,296,86704,2,2,L|368:304,1,80
440,344,87067,1,0,0:0:0:0:
472,272,87188,1,2,0:0:0:0:
416,216,87309,1,0,0:0:0:0:
480,168,87430,1,2,0:0:0:0:
384,80,87551,5,6,0:0:0:0:
256,192,87672,12,0,89487,0:0:0:0:
