osu file format v14

[General]
AudioFilename: Sakai Mikio Identity (TV-size).mp3
AudioLeadIn: 0
PreviewTime: 49809
Countdown: 0
SampleSet: Normal
StackLeniency: 0.7
Mode: 0
LetterboxInBreaks: 1
WidescreenStoryboard: 1

[Editor]
DistanceSpacing: 0.8
BeatDivisor: 4
GridSize: 4
TimelineZoom: 1

[Metadata]
Title:Identity (TV-size)
TitleUnicode:Identity (TV-size)
Artist:Sakai Mikio
ArtistUnicode:Sakai Mikio
Creator:taka1235
Version:Easy
Source:落第騎士の英雄譚
Tags:rakudai kishi cavalry opening
BeatmapID:821962
BeatmapSetID:374073

[Difficulty]
HPDrainRate:1
CircleSize:2
OverallDifficulty:1
ApproachRate:1
SliderMultiplier:1.2
SliderTickRate:1

[Events]
//Background and Video events
Video,0,"Rakudai Kishi no Cavalry - OP.avi"
0,0,"new_rakudai.jpg",0,0
//Break Periods
//Storyboard Layer 0 (Background)
//Storyboard Layer 1 (Fail)
//Storyboard Layer 2 (Pass)
//Storyboard Layer 3 (Foreground)
//Storyboard Sound Samples

[TimingPoints]
455,483.870967741935,4,1,0,50,1,0
2390,-100,4,2,0,60,0,0
3842,-100,4,3,0,60,0,0
4325,-100,4,1,0,50,0,0
50777,-100,4,1,0,75,0,1
85132,-100,4,1,0,65,0,0
89366,-100,4,1,0,5,0,0

[Colours]
Combo1 : 255,255,74
Combo2 : 255,0,0
Combo3 : 255,111,183

[HitObjects]
64,80,455,5,6,0:0:0:0:
216,208,1422,1,6,0:0:0:0:
296,152,1906,1,6,0:0:0:0:
392,144,2390,1,0,0:0:0:0:
64,304,4325,6,0,P|120:320|160:368,2,120
88,208,5777,1,0,0:0:0:0:
184,192,6261,2,0,L|328:184,2,120
312,336,8196,6,0,P|280:296|192:280,2,120
408,344,9648,1,0,0:0:0:0:
376,256,10132,2,0,L|504:264,2,120
480,96,12067,5,0,0:0:0:0:
392,48,12551,2,0,P|352:72|376:144,1,120
224,272,14003,2,0,P|272:336|368:288,2,180
144,232,15938,6,0,L|136:96,1,120
168,80,16664,2,2,L|240:96,1,60
304,32,17390,1,2,0:0:0:0:
392,72,17874,6,0,P|440:96|432:176,1,120
432,256,18842,1,0,0:0:0:0:
344,296,19325,1,0,0:0:0:0:
248,256,19809,6,0,L|104:264,1,120,4|0,0:0|0:0,0:0:0:0:
64,192,20777,2,0,L|200:200,1,120
208,152,21503,1,0,0:0:0:0:
200,104,21745,5,0,0:0:0:0:
280,48,22229,1,2,0:0:0:0:
376,72,22713,2,2,P|416:88|440:144,2,90
352,112,23680,6,0,L|360:240,1,120
456,256,24648,2,0,P|464:312|424:360,1,120
336,328,25616,5,0,0:0:0:0:
264,264,26100,1,0,0:0:0:0:
296,176,26584,1,2,0:0:0:0:
392,184,27067,1,2,0:0:0:0:
424,272,27551,6,0,L|504:280,2,60,0|2|2,0:0|0:0|0:0,0:0:0:0:
348,328,28519,1,2,0:0:0:0:
272,272,29003,1,2,0:0:0:0:
296,176,29487,2,4,P|216:112|88:152,1,240
56,236,30938,1,0,0:0:0:0:
112,312,31422,6,0,L|248:304,1,120
320,344,32390,1,0,0:0:0:0:
416,352,32874,2,0,L|424:288,1,60
224,344,35293,6,4,P|168:288|64:328,2,180
304,288,37229,2,4,L|416:296,2,90
240,216,38438,2,0,L|232:144,1,60
304,88,39164,6,4,P|392:80|456:144,2,180
216,56,41100,2,4,L|120:48,2,90
224,152,42309,2,0,L|232:216,1,60
312,272,43035,5,0,0:0:0:0:
392,320,43519,2,0,P|440:304|480:240,2,120
312,272,44971,1,0,0:0:0:0:
240,336,45454,1,0,0:0:0:0:
152,304,45938,2,0,L|24:296,1,120
256,192,46906,12,0,48842,0:0:0:0:
136,192,50777,6,0,B|248:216|264:168|392:192,2,240,4|0|4,0:0|0:0|0:0,0:0:0:0:
256,336,53680,1,0,0:0:0:0:
376,192,54648,6,0,B|264:168|248:216|120:192,2,240,4|0|4,0:0|0:0|0:0,0:0:0:0:
208,96,57551,2,0,P|256:64|304:104,1,120
336,192,58519,6,0,P|256:264|168:168,2,240,4|0|4,0:0|0:0|0:0,0:0:0:0:
336,96,60938,1,4,0:0:0:0:
256,152,61422,1,4,0:0:0:0:
336,328,62390,6,2,P|256:360|168:320,2,180
256,272,64325,2,2,L|168:216,2,90
256,224,65293,2,0,P|280:168|248:104,1,120
200,40,66261,6,0,B|128:48|168:160|40:216,2,240,4|0|4,0:0|0:0|0:0,0:0:0:0:
320,192,69164,2,0,P|376:160|376:88,1,120
312,40,70132,6,0,B|384:48|344:160|472:216,2,240,4|0|4,0:0|0:0|0:0,0:0:0:0:
128,96,73035,2,0,P|72:112|32:176,1,120
136,192,74003,6,6,B|232:208|288:168|384:192,2,240
64,256,76422,1,4,0:0:0:0:
104,344,76906,1,4,0:0:0:0:
296,336,77874,6,4,L|488:336,2,180
200,336,79809,2,2,L|160:336|104:336,2,90
176,304,80777,2,2,P|144:248|184:208,1,120
256,256,81745,2,2,B|368:280|368:208|368:208|464:152|336:152|392:80|392:80|256:176|184:-8|88:48|96:160,1,660
144,272,85616,6,0,P|256:312|384:256,1,240
416,192,87067,1,0,0:0:0:0:
256,192,87551,12,0,89487,0:0:0:0:
