osu file format v14

[General]
AudioFilename: Rakudai Kishi no Cavalry OP Sakai Mikio - Identity.mp3
AudioLeadIn: 0
PreviewTime: 49462
Countdown: 0
SampleSet: Soft
StackLeniency: 0.7
Mode: 0
LetterboxInBreaks: 1
WidescreenStoryboard: 1

[Editor]
Bookmarks: 33132,81519
DistanceSpacing: 1.8
BeatDivisor: 4
GridSize: 4
TimelineZoom: 1.4

[Metadata]
Title:Identity (TV size)
TitleUnicode:アイデンティティ (TV size)
Artist:Sakai Mikio
ArtistUnicode:酒井ミキオ
Creator:FaiVillager
Version:Approaching Future
Source:落第騎士の英雄譚
Tags:Rakudai Kishi no Cavalry op
BeatmapID:878393
BeatmapSetID:403627

[Difficulty]
HPDrainRate:6
CircleSize:4
OverallDifficulty:8.8
ApproachRate:10
SliderMultiplier:3.2
SliderTickRate:1

[Events]
//Background and Video events
Video,-460,"1.avi"
0,0,"2.jpg",0,0
//Break Periods
//Storyboard Layer 0 (Background)
//Storyboard Layer 1 (Fail)
//Storyboard Layer 2 (Pass)
//Storyboard Layer 3 (Foreground)
//Storyboard Sound Samples

[TimingPoints]
229,483.870967741935,4,2,1,50,1,0
229,-133.333333333333,4,2,1,50,0,0
2164,-133.333333333333,4,2,1,20,0,0
4099,-100,4,2,2,20,0,0
4220,-100,4,2,1,60,0,0
19583,-100,4,2,2,40,0,0
19704,-100,4,2,1,60,0,0
35067,-100,4,2,1,40,0,0
48616,-100,4,2,1,20,0,0
49583,-100,4,2,1,40,0,0
50067,-100,4,2,1,70,0,0
50551,-80,4,2,2,70,0,1
50793,-80,4,2,1,70,0,1
65067,-80,4,2,1,70,0,0
66035,-80,4,2,2,70,0,1
66156,-80,4,2,1,70,0,1
81519,-100,4,2,2,60,0,0
81640,-100,4,2,1,60,0,0
84664,-100,4,2,1,50,0,0
87688,-100,4,2,1,40,0,0
87809,-100,4,2,1,30,0,0
88293,-100,4,2,1,20,0,0
88777,-100,4,2,1,10,0,0
89019,-100,4,2,1,5,0,0

[Colours]
Combo1 : 102,102,102
Combo2 : 255,0,0
Combo3 : 255,119,176
Combo4 : 251,19,140
Combo5 : 196,0,0
Combo6 : 183,183,183

[HitObjects]
143,284,229,53,8,0:0:0:0:
54,167,349,2,0,P|129:137|191:147,2,120.000004577637
331,231,1075,5,0,0:0:0:0:
343,85,1196,1,0,0:0:0:0:
461,167,1317,1,0,0:0:0:0:
331,231,1438,2,0,P|293:227|254:241,1,60.0000022888184
48,300,1801,5,0,0:0:0:0:
33,192,1922,1,0,0:0:0:0:
107,113,2043,1,0,0:0:0:0:
216,116,2164,54,0,P|244:116|275:110,2,60.0000022888184
434,51,2527,2,0,P|447:88|450:116,2,60.0000022888184
373,176,2890,5,0,0:0:0:0:
373,176,2950,1,0,0:0:0:0:
373,176,3011,1,0,0:0:0:0:
373,176,3071,1,0,0:0:0:0:
373,176,3132,2,0,L|345:236,1,60.0000022888184
224,253,3374,2,0,L|174:294,1,60.0000022888184
33,192,3616,5,8,0:0:0:0:
102,47,3737,1,0,0:0:0:0:
76,183,3858,1,8,0:0:0:0:
59,56,3979,1,0,0:0:0:0:
116,173,4099,54,0,L|201:155,1,80,4|0,0:0|0:0,0:0:0:0:
355,44,4341,1,0,0:0:0:0:
355,44,4462,2,0,P|394:88|405:125,1,80
405,267,4704,1,0,0:0:0:0:
305,334,4825,2,0,P|257:325|212:291,1,80
121,200,5067,1,0,0:0:0:0:
29,277,5188,2,0,L|43:188,1,80
59,56,5430,1,0,0:0:0:0:
163,115,5551,2,0,P|201:122|252:117,1,80
374,38,5793,2,0,P|421:39|457:51,1,80
338,204,6035,6,0,P|280:257|268:364,1,160
90,321,6398,1,0,0:0:0:0:
187,194,6519,2,0,P|121:133|24:127,1,160
301,103,7003,6,0,L|398:89,1,80
501,209,7245,2,0,L|410:205,1,80
299,320,7487,1,0,0:0:0:0:
307,193,7608,1,0,0:0:0:0:
394,293,7728,1,0,0:0:0:0:
225,260,7849,1,0,0:0:0:0:
166,350,7970,54,0,P|138:323|120:275,1,80
226,122,8212,1,0,0:0:0:0:
226,122,8333,2,0,L|146:157,1,80
38,70,8575,1,0,0:0:0:0:
150,27,8696,2,0,P|198:21|243:25,2,80
66,235,9180,6,0,P|70:286|99:329,1,80
299,300,9422,2,0,P|271:271|225:253,1,80
423,346,9664,2,0,L|448:262,1,80
488,113,9906,6,0,P|421:69|326:79,1,160
294,207,10269,1,0,0:0:0:0:
245,53,10390,2,0,P|224:24|185:0,2,80
223,355,10874,54,0,L|195:278,1,80
48,156,11116,2,0,L|66:62,1,80
138,199,11358,1,0,0:0:0:0:
237,53,11478,1,0,0:0:0:0:
237,53,11599,1,0,0:0:0:0:
253,151,11720,1,0,0:0:0:0:
332,89,11841,6,0,P|352:159|301:238,1,160
237,53,12204,2,0,L|324:52,1,80
484,149,12446,1,0,0:0:0:0:
400,235,12567,2,0,P|388:318|425:387,1,160
256,302,12930,1,0,0:0:0:0:
136,287,13051,2,0,P|80:295|37:316,1,80
297,202,13293,6,0,L|313:112,1,80
121,107,13535,2,0,L|112:8,1,80
213,44,13716,53,0,0:0:0:0:
213,44,13777,2,0,P|357:10|427:170,1,320
344,357,14503,5,0,0:0:0:0:
297,202,14624,1,0,0:0:0:0:
409,306,14745,2,0,P|310:283|266:335,1,160
93,238,15108,1,0,0:0:0:0:
165,143,15228,2,0,L|333:106,1,160
487,316,15712,6,0,P|427:305|377:310,1,80
180,316,15954,2,0,P|143:285|123:255,1,80
168,57,16196,1,0,0:0:0:0:
219,217,16317,1,0,0:0:0:0:
251,95,16438,2,0,P|282:131|296:168,1,80
226,331,16680,54,0,P|304:368|389:346,1,160
512,227,17043,2,0,P|434:190|349:212,1,160
311,299,17406,5,0,0:0:0:0:
203,147,17527,1,0,0:0:0:0:
294,141,17648,1,0,0:0:0:0:
94,370,17890,6,0,L|47:211,1,160
123,56,18253,1,0,0:0:0:0:
203,147,18374,2,0,L|239:68,1,80
392,87,18616,53,0,0:0:0:0:
397,101,18676,1,0,0:0:0:0:
402,116,18737,1,0,0:0:0:0:
407,130,18797,1,0,0:0:0:0:
412,145,18858,1,0,0:0:0:0:
417,159,18918,1,0,0:0:0:0:
422,174,18978,1,0,0:0:0:0:
427,189,19039,1,0,0:0:0:0:
454,209,19099,5,8,0:0:0:0:
320,154,19220,1,0,0:0:0:0:
185,206,19341,1,4,0:0:0:0:
143,343,19462,1,0,0:0:0:0:
268,242,19583,6,0,P|263:163|169:121,1,160,4|0,0:0|0:0,0:0:0:0:
199,293,19946,2,0,L|363:259,1,160
491,159,20309,2,0,P|502:99|492:63,1,80,0|0,0:0|0:0,0:0:0:0:
308,29,20551,1,0,0:0:0:0:
208,95,20672,2,0,L|97:95,1,80,0|0,0:0|0:0,0:0:0:0:
41,275,20914,1,0,0:0:0:0:
142,211,21035,2,0,P|184:193|221:195,1,80,0|0,0:0|0:0,0:0:0:0:
386,297,21277,2,0,P|417:275|441:231,1,80,0|0,0:0|0:0,0:0:0:0:
441,30,21519,54,0,L|269:50,1,160
215,229,21882,1,0,0:0:0:0:
127,119,22003,2,0,L|307:148,1,160
386,297,22487,6,0,P|364:340|337:370,1,80
277,222,22728,2,0,P|274:188|292:129,1,80
419,42,22970,1,0,0:0:0:0:
376,168,23091,1,0,0:0:0:0:
490,97,23212,1,0,0:0:0:0:
330,36,23333,1,0,0:0:0:0:
226,106,23454,6,0,P|194:104|144:86,1,80
16,237,23696,1,0,0:0:0:0:
128,194,23817,2,0,P|174:192|219:202,1,80
403,297,24059,1,0,0:0:0:0:
291,340,24180,2,0,P|231:340|137:286,1,160
26,132,24543,53,0,0:0:0:0:
26,132,24664,2,0,L|116:94,1,80
281,81,24906,2,0,P|278:129|241:174,1,80
54,262,25148,2,0,L|96:184,1,80
223,11,25390,6,0,L|396:48,1,160
497,189,25753,2,0,P|417:176|336:240,1,160
500,353,26116,2,0,L|410:340,1,80
250,360,26358,5,0,0:0:0:0:
220,203,26478,1,0,0:0:0:0:
220,203,26599,1,0,0:0:0:0:
132,295,26720,1,0,0:0:0:0:
102,138,26841,53,0,0:0:0:0:
102,138,26961,1,0,0:0:0:0:
220,203,27083,1,0,0:0:0:0:
190,46,27204,1,0,0:0:0:0:
63,56,27325,6,0,P|12:127|50:211,1,160
3,364,27688,2,0,L|148:288,1,160
286,289,28051,1,0,0:0:0:0:
392,343,28172,1,0,0:0:0:0:
497,286,28293,2,0,P|507:253|506:204,1,80
327,118,28535,2,0,P|282:86|241:79,1,80
99,211,28777,2,0,L|150:307,1,80
298,368,29019,2,0,L|348:280,1,80
505,170,29261,6,0,B|478:126|478:126|427:120|427:120|394:57|308:29|227:59,1,320
70,141,29866,1,0,0:0:0:0:
161,218,29987,2,0,P|205:221|254:205,1,80
48,112,30228,54,0,L|32:208,1,80
97,366,30470,2,0,L|96:274,1,80
148,55,30712,2,0,L|168:136,1,80
191,369,30954,2,0,L|196:260,1,80
315,175,31196,6,0,L|324:3,1,160
417,221,31559,2,0,P|370:268|263:272,1,160
407,124,31922,2,0,P|452:130|490:155,1,80
316,179,32164,5,0,0:0:0:0:
113,114,32285,1,0,0:0:0:0:
45,177,32527,53,0,0:0:0:0:
297,149,32648,1,0,0:0:0:0:
337,210,32890,5,0,0:0:0:0:
78,146,33011,1,0,0:0:0:0:
155,320,33374,5,0,0:0:0:0:
180,138,33495,1,0,0:0:0:0:
102,242,33616,1,0,0:0:0:0:
252,310,33737,1,0,0:0:0:0:
164,178,33858,2,0,P|129:160|77:158,1,80
155,320,34099,53,0,0:0:0:0:
272,342,34220,1,0,0:0:0:0:
386,304,34341,1,0,0:0:0:0:
456,206,34462,1,0,0:0:0:0:
487,115,34583,5,0,0:0:0:0:
440,107,34704,1,0,0:0:0:0:
395,124,34825,1,0,0:0:0:0:
368,163,34946,1,0,0:0:0:0:
456,206,35067,6,0,L|292:193,1,160
224,286,35430,2,0,P|180:241|77:229,1,160
225,131,35793,2,0,L|300:79,1,80
437,160,36035,53,0,0:0:0:0:
458,202,36156,1,0,0:0:0:0:
452,249,36277,1,0,0:0:0:0:
420,285,36398,1,0,0:0:0:0:
372,216,36519,2,0,P|326:225|292:246,1,80
243,373,36761,5,0,0:0:0:0:
174,306,36882,1,0,0:0:0:0:
78,299,37003,2,0,P|57:237|86:141,1,160
24,46,37366,2,0,L|192:21,1,160
271,98,37728,2,0,P|314:107|366:100,1,80
479,39,37970,1,0,0:0:0:0:
479,39,38031,1,0,0:0:0:0:
479,39,38091,2,0,L|451:124,1,80
492,346,38454,6,0,P|450:329|395:325,1,80
250,384,38696,2,0,P|202:383|155:367,1,80
25,222,38938,54,0,L|190:175,1,160
241,78,39301,2,0,P|317:104|422:83,1,160
498,162,39664,2,0,L|437:235,1,80
324,299,39906,5,0,0:0:0:0:
324,299,39966,1,0,0:0:0:0:
324,299,40027,1,0,0:0:0:0:
234,333,40148,1,0,0:0:0:0:
143,301,40269,1,0,0:0:0:0:
110,210,40390,2,0,P|114:167|134:126,1,80
295,60,40632,5,0,0:0:0:0:
295,60,40753,1,0,0:0:0:0:
295,60,40874,2,0,L|129:40,1,160
49,122,41237,2,0,P|96:219|67:310,1,160
21,362,41599,2,0,L|103:338,1,80
232,244,41841,2,0,P|263:244|316:257,1,80
443,372,42083,2,0,P|462:340|467:289,1,80
468,126,42325,53,4,0:0:0:0:
230,144,42446,1,0,0:0:0:0:
230,144,42809,6,0,P|164:196|148:281,1,160
340,291,43172,1,0,0:0:0:0:
442,229,43293,2,0,P|454:164|441:106,1,80
181,82,43535,2,0,P|205:123|238:149,1,80
347,102,43777,5,0,0:0:0:0:
284,205,43898,1,0,0:0:0:0:
374,177,44019,1,0,0:0:0:0:
340,291,44140,1,0,0:0:0:0:
412,215,44261,53,0,0:0:0:0:
284,205,44382,1,0,0:0:0:0:
207,307,44503,1,0,0:0:0:0:
79,318,44624,1,0,0:0:0:0:
133,202,44745,6,0,P|134:137|71:49,1,160
232,136,45108,2,0,P|291:139|400:87,1,160
314,243,45470,2,0,P|303:277|303:338,1,80
432,298,45712,5,0,0:0:0:0:
443,178,45833,1,0,0:0:0:0:
348,103,45954,1,0,0:0:0:0:
232,136,46075,1,0,0:0:0:0:
129,74,46196,2,0,L|114:183,1,80
11,301,46438,2,0,L|23:384,1,80
153,372,46680,53,8,0:0:0:0:
429,236,46801,1,8,0:0:0:0:
391,161,47043,5,8,0:0:0:0:
236,359,47164,1,8,0:0:0:0:
318,345,47406,5,8,0:0:0:0:
353,90,47527,1,8,0:0:0:0:
319,22,47769,53,0,0:0:0:0:
398,329,47890,2,0,L|374:237,1,80
219,63,48132,6,0,P|186:109|177:154,1,80
460,197,48374,2,0,P|415:166|378:159,1,80
121,253,48616,5,0,0:0:0:0:
164,272,48737,1,0,0:0:0:0:
211,269,48858,1,0,0:0:0:0:
251,244,48978,1,0,0:0:0:0:
229,156,49099,53,0,0:0:0:0:
276,157,49220,1,0,0:0:0:0:
317,180,49341,1,0,0:0:0:0:
340,222,49462,1,0,0:0:0:0:
379,312,49583,6,0,L|439:148,1,160
491,76,49946,1,0,0:0:0:0:
401,29,50067,5,0,0:0:0:0:
365,10,50127,1,0,0:0:0:0:
327,0,50187,1,0,0:0:0:0:
287,0,50248,1,0,0:0:0:0:
248,7,50308,1,0,0:0:0:0:
211,24,50369,1,0,0:0:0:0:
180,48,50429,1,0,0:0:0:0:
155,80,50490,1,0,0:0:0:0:
95,125,50551,6,0,L|303:143,1,200,4|0,0:0|0:0,0:0:0:0:
444,327,50914,1,8,0:0:0:0:
253,234,51035,2,0,P|238:200|237:126,1,100,8|0,0:0|0:0,0:0:0:0:
423,135,51277,1,8,0:0:0:0:
317,342,51398,1,8,0:0:0:0:
111,235,51519,6,8,P|85:126|120:25,1,200
253,234,51882,2,8,P|206:341|120:384,1,200
186,157,52245,5,0,0:0:0:0:
234,145,52305,1,0,0:0:0:0:
283,133,52366,1,0,0:0:0:0:
331,121,52426,1,0,0:0:0:0:
379,110,52487,2,8,P|383:226|484:282,1,200
486,68,52849,2,8,P|408:-1|305:20,1,200
110,65,53212,2,0,L|222:102,1,100
360,205,53454,6,0,P|363:249|347:312,1,100,8|0,0:0|0:0,0:0:0:0:
206,253,53696,1,8,0:0:0:0:
61,303,53817,2,0,P|49:254|51:204,1,100,8|0,0:0|0:0,0:0:0:0:
208,33,54059,1,0,0:0:0:0:
147,178,54180,1,0,0:0:0:0:
326,71,54301,37,8,0:0:0:0:
326,71,54362,1,8,0:0:0:0:
326,71,54422,2,0,P|350:108|362:171,1,100,8|0,0:0|0:0,0:0:0:0:
112,269,54664,2,8,P|147:209|178:186,1,100
345,367,54906,5,8,0:0:0:0:
476,200,55027,1,0,0:0:0:0:
449,343,55148,1,8,0:0:0:0:
255,300,55269,1,8,0:0:0:0:
396,214,55390,6,8,P|317:133|219:131,1,200
85,297,55753,2,8,L|300:237,1,200
394,71,56116,1,0,0:0:0:0:
234,126,56237,1,0,0:0:0:0:
74,69,56358,6,8,P|125:164|105:263,1,200
318,300,56720,1,8,0:0:0:0:
234,126,56841,2,0,P|232:89|262:21,1,100,8|0,0:0|0:0,0:0:0:0:
450,161,57083,2,0,P|452:198|422:266,1,100
212,233,57325,5,8,0:0:0:0:
321,143,57446,1,0,0:0:0:0:
272,297,57567,1,0,0:0:0:0:
234,126,57688,1,0,0:0:0:0:
373,259,57809,5,8,0:0:0:0:
126,254,57930,1,0,0:0:0:0:
382,62,58051,1,8,0:0:0:0:
272,297,58172,1,8,0:0:0:0:
234,126,58293,6,8,P|139:98|21:143,1,200
274,247,58656,2,8,P|353:175|347:64,1,200,0|0,0:0|0:0,0:0:0:0:
150,218,59019,1,8,0:0:0:0:
322,340,59140,1,0,0:0:0:0:
500,226,59261,6,8,L|348:79,1,200
281,126,59563,1,0,0:0:0:0:
281,126,59624,2,8,P|202:138|77:65,1,200
208,34,59987,1,0,0:0:0:0:
204,249,60108,1,0,0:0:0:0:
303,12,60228,6,0,L|281:119,1,100,8|0,0:0|0:0,0:0:0:0:
239,346,60470,1,0,0:0:0:0:
239,346,60591,1,0,0:0:0:0:
201,55,60712,6,0,L|230:166,1,100,8|0,0:0|0:0,0:0:0:0:
281,360,60954,1,0,0:0:0:0:
281,360,61075,1,0,0:0:0:0:
338,175,61196,38,8,P|225:152|148:202,1,200
116,362,61559,1,8,0:0:0:0:
234,248,61680,1,8,0:0:0:0:
28,299,61801,1,0,0:0:0:0:
86,97,61922,1,0,0:0:0:0:
234,248,62043,1,0,0:0:0:0:
399,267,62164,22,0,P|432:219|449:161,1,100,8|0,0:0|0:0,0:0:0:0:
254,74,62406,1,8,0:0:0:0:
156,192,62527,2,0,L|142:87,1,100,8|0,0:0|0:0,0:0:0:0:
279,101,62769,1,8,0:0:0:0:
330,270,62890,2,0,L|359:172,1,100,8|0,0:0|0:0,0:0:0:0:
240,112,63132,1,8,0:0:0:0:
133,319,63253,2,0,L|119:214,1,100,8|0,0:0|0:0,0:0:0:0:
279,101,63495,5,8,0:0:0:0:
419,284,63616,2,0,P|417:341|400:386,1,100,4|0,0:0|0:0,0:0:0:0:
223,209,63858,2,0,P|225:152|242:107,1,100
435,55,64099,54,8,B|388:22|388:22|336:45|336:45|283:7|208:0|134:40,2,300
305,277,65067,37,0,0:0:0:0:
235,88,65188,1,0,0:0:0:0:
385,26,65309,1,0,0:0:0:0:
226,189,65430,1,0,0:0:0:0:
67,36,65551,5,0,0:0:0:0:
72,75,65612,1,0,0:0:0:0:
77,114,65672,1,0,0:0:0:0:
83,153,65733,1,0,0:0:0:0:
89,192,65793,1,0,0:0:0:0:
95,231,65853,1,0,0:0:0:0:
101,270,65914,1,0,0:0:0:0:
108,309,65974,1,0,0:0:0:0:
65,380,66035,38,0,P|172:318|252:317,1,200,4|8,0:0|0:0,0:0:0:0:
442,371,66398,1,8,0:0:0:0:
499,200,66519,2,0,P|501:146|485:91,1,100
312,233,66761,5,8,0:0:0:0:
214,47,66882,1,8,0:0:0:0:
237,293,67003,2,8,P|336:326|404:255,1,200
380,45,67366,2,8,L|307:245,1,200
478,158,67728,37,0,0:0:0:0:
225,137,67849,1,0,0:0:0:0:
403,222,67970,2,8,P|408:296|317:387,1,200
110,317,68333,2,8,L|315:272,1,200
381,45,68696,1,0,0:0:0:0:
217,178,68817,1,0,0:0:0:0:
210,24,68938,6,0,P|156:42|110:95,1,100,8|0,0:0|0:0,0:0:0:0:
5,228,69180,1,8,0:0:0:0:
110,317,69301,2,0,P|163:298|210:246,1,100,8|0,0:0|0:0,0:0:0:0:
305,116,69543,1,8,0:0:0:0:
321,319,69664,1,8,0:0:0:0:
401,158,69785,5,0,0:0:0:0:
401,158,69845,1,0,0:0:0:0:
401,158,69906,2,8,P|384:53|291:14,1,200
68,119,70269,2,8,L|266:198,1,200,0|0,0:0|0:0,0:0:0:0:
431,242,70632,5,8,0:0:0:0:
188,313,70753,1,0,0:0:0:0:
73,235,70874,2,8,P|138:187|279:209,1,200
184,58,71237,2,8,L|395:34,1,200
463,264,71599,37,0,0:0:0:0:
463,264,71720,1,0,0:0:0:0:
463,264,71841,2,0,P|384:298|267:270,1,200,0|8,0:0|0:0,0:0:0:0:
72,294,72204,1,8,0:0:0:0:
144,142,72325,2,0,P|175:115|234:91,1,100,0|8,0:0|0:0,0:0:0:0:
238,348,72567,2,0,P|205:308|195:253,1,100
346,129,72809,53,8,0:0:0:0:
359,274,72930,1,0,0:0:0:0:
434,98,73051,1,8,0:0:0:0:
217,172,73172,1,0,0:0:0:0:
415,189,73293,5,8,0:0:0:0:
280,21,73414,1,0,0:0:0:0:
170,316,73535,1,8,0:0:0:0:
357,89,73656,1,8,0:0:0:0:
191,126,73777,6,8,L|3:56,1,200
114,208,74140,2,8,P|226:232|294:170,1,200
196,38,74503,1,0,0:0:0:0:
274,297,74624,1,0,0:0:0:0:
268,102,74745,2,0,P|238:61|186:35,1,100,8|0,0:0|0:0,0:0:0:0:
114,208,74987,1,8,0:0:0:0:
274,297,75108,2,0,P|330:304|388:280,1,100,8|0,0:0|0:0,0:0:0:0:
505,99,75349,5,0,0:0:0:0:
468,290,75470,1,0,0:0:0:0:
426,151,75591,1,0,0:0:0:0:
436,35,75712,6,0,L|336:102,1,100,8|0,0:0|0:0,0:0:0:0:
73,271,75954,1,0,0:0:0:0:
73,271,76075,1,0,0:0:0:0:
346,37,76196,6,0,L|257:125,1,100,8|0,0:0|0:0,0:0:0:0:
92,293,76438,1,0,0:0:0:0:
92,293,76559,1,0,0:0:0:0:
26,153,76680,38,0,P|131:131|217:192,1,200
104,259,77043,1,0,0:0:0:0:
248,318,77164,1,0,0:0:0:0:
414,158,77285,1,0,0:0:0:0:
193,95,77406,1,0,0:0:0:0:
248,318,77527,1,0,0:0:0:0:
381,250,77648,6,0,P|405:210|413:152,1,100,8|0,0:0|0:0,0:0:0:0:
255,242,77890,1,8,0:0:0:0:
193,95,78011,2,0,L|163:204,1,100,8|0,0:0|0:0,0:0:0:0:
277,274,78253,1,8,0:0:0:0:
336,58,78374,2,0,L|362:167,1,100,8|0,0:0|0:0,0:0:0:0:
92,191,78616,5,0,0:0:0:0:
92,191,78676,1,0,0:0:0:0:
92,191,78737,2,0,L|62:300,1,100,8|0,0:0|0:0,0:0:0:0:
256,384,78978,1,8,0:0:0:0:
420,191,79099,2,0,L|450:300,2,100,8|0|8,0:0|0:0|0:0,0:0:0:0:
256,128,79462,1,8,0:0:0:0:
92,191,79583,6,8,P|136:277|261:282,1,200
363,88,79946,1,8,0:0:0:0:
199,191,80067,1,0,0:0:0:0:
448,153,80188,1,0,0:0:0:0:
254,31,80309,1,0,0:0:0:0:
356,285,80430,1,0,0:0:0:0:
158,129,80551,38,0,B|218:172|308:168|374:112|374:112|305:194,1,300,8|0,0:0|0:0,0:0:0:0:
159,290,81035,6,0,B|205:317|205:317|253:284|253:284|320:317|384:309|433:259,1,300,8|0,0:0|0:0,0:0:0:0:
490,154,81519,6,0,L|323:163,1,160,4|0,0:0|0:0,0:0:0:0:
159,290,81882,1,8,0:0:0:0:
35,158,82003,2,0,P|28:126|35:69,1,80,8|0,0:0|0:0,0:0:0:0:
236,69,82245,2,0,P|243:101|236:158,1,80
37,314,82487,1,8,0:0:0:0:
159,224,82608,2,8,P|252:232|313:276,1,160
387,377,82970,2,0,L|428:300,1,80,8|0,0:0|0:0,0:0:0:0:
501,156,83212,5,0,0:0:0:0:
501,156,83333,1,0,0:0:0:0:
432,56,83454,37,0,0:0:0:0:
214,132,83575,1,0,0:0:0:0:
190,212,83817,5,0,0:0:0:0:
400,31,83938,1,0,0:0:0:0:
370,7,84180,5,4,0:0:0:0:
163,292,84301,1,0,0:0:0:0:
214,132,84422,6,0,L|245:213,2,80
78,77,84785,37,0,0:0:0:0:
78,77,84845,1,0,0:0:0:0:
78,77,84906,2,0,L|109:158,1,80
42,277,85148,2,0,L|73:358,1,80
257,339,85390,5,8,0:0:0:0:
397,373,85511,2,8,P|437:308|445:208,2,160
257,339,86116,1,0,0:0:0:0:
337,83,86358,5,8,0:0:0:0:
177,116,86478,2,8,L|34:24,1,160
84,176,86841,2,0,P|85:217|70:274,1,80
207,361,87083,5,0,0:0:0:0:
271,162,87204,1,0,0:0:0:0:
326,280,87325,37,4,0:0:0:0:
256,192,87446,12,0,89140,0:0:0:0:
