osu file format v6

[General]
AudioFilename: Cheer! ~Makkana Kimochi~.mp3
AudioLeadIn: 0
PreviewTime: 47523
Countdown: 0
SampleSet: Normal
StackLeniency: 0.4
Mode: 0
LetterboxInBreaks: 1

[Editor]
Bookmarks: 5570,16359,30745,40335,47528,57118,66709,73901,83492,99076,108667,118257,125450,135040,144631,156619,166209,175799,185390,194980,202173,214161,223752
DistanceSpacing: 0.699999988079071
BeatDivisor: 3
GridSize: 16

[Metadata]
Title:Cheer! ~Makkana Kimochi~ (Full ver.)
Artist:Sakai Kanako
Creator:DJPop
Version:Normal
Source:REC
Tags:Onda Aka

[Difficulty]
HPDrainRate:3
CircleSize:3
OverallDifficulty:4
SliderMultiplier:0.96
SliderTickRate:1

[Events]
//Background and Video events
0,0,"Cheer! ~Makkana Kimochi~.png"
//Break Periods
2,74101,83371
2,125650,133720
//Storyboard Layer 0 (Background)
//Storyboard Layer 1 (Fail)
//Storyboard Layer 2 (Pass)
//Storyboard Layer 3 (Foreground)
//Storyboard Sound Samples
//Background Colour Transformations
3,100,0,0,0

[TimingPoints]
775,299.7002997003,4,1,1,70,1,0
9366,-100,4,1,2,70,0,0
10864,-100,4,1,1,70,0,0
15160,-100,4,1,1,0,0,0
16359,-100,4,1,1,60,0,0
16459,-100,4,2,1,60,0,0
25799,-100,4,1,2,60,0,0
30545,-100,4,1,1,60,0,0
40535,-100,4,1,2,60,0,0
40834,-100,4,1,1,60,0,0
41134,-100,4,1,2,60,0,0
42033,-100,4,1,1,60,0,0
42333,-100,4,1,2,60,0,0
43232,-100,4,1,1,60,0,0
43532,-100,4,1,2,60,0,0
45130,-100,4,1,1,45,0,0
46029,-100,4,1,1,70,0,0
47528,-100,4,1,1,70,0,1
66109,-100,4,1,1,70,0,0
86089,-100,4,1,1,0,0,0
86289,-100,4,1,1,70,0,0
90884,-100,4,1,1,0,0,0
91084,-100,4,1,1,70,0,0
94481,-100,4,1,2,70,0,0
94780,-100,4,1,1,70,0,0
95080,-100,4,1,2,70,0,0
95979,-100,4,1,1,70,0,0
96279,-100,4,1,2,70,0,0
97178,-100,4,1,1,70,0,0
97478,-100,4,1,2,70,0,0
99076,-100,4,1,1,70,0,1
117658,-100,4,1,1,70,0,0
134741,-100,4,1,1,45,0,0
148826,-100,4,1,1,70,0,0
154221,-100,4,1,1,0,0,0
154820,-100,4,1,1,70,0,0
156619,-100,4,1,1,70,0,1
175798,-100,4,1,1,70,0,0
175799,-100,4,1,1,70,0,1
194381,-100,4,1,1,70,0,0
209366,-100,4,2,1,60,0,0
214011,-100,4,1,1,70,0,0
229845,-100,4,1,1,0,0,0

[Colours]
Combo1 : 255,128,255
Combo2 : 255,0,0
Combo3 : 255,0,255
Combo4 : 255,128,128

[HitObjects]
480,192,5570,5,4
368,112,6169,1,0
256,32,6769,1,0
144,112,7368,1,0
32,192,7967,5,0
144,272,8567,1,0
256,352,9166,1,0
368,272,9766,1,0
480,192,10365,5,4
432,32,10964,1,0
384,192,11564,1,0
336,32,12163,1,0
176,32,12763,5,0
128,192,13362,1,0
80,32,13961,1,0
32,192,14561,1,0
256,208,15160,12,0,16359
256,192,17558,5,0
32,192,18757,5,0
352,352,19955,5,0
160,32,21154,5,0
480,192,22353,5,0
160,352,23552,5,0
352,32,24751,6,0,B|384:176|256:192|128:176|160:32,1,384,0|4
64,128,26549,5,0
64,256,27148,1,0
160,352,27748,1,0
160,224,28347,5,0
256,320,28946,1,0
352,224,29546,1,0
352,352,30145,1,8
424,36,31044,5,10
312,36,31644,1,10
200,36,32243,1,10
88,36,32842,1,10
88,140,33442,5,10
200,140,34041,1,10
312,140,34641,1,10
424,140,35240,1,10
424,244,35839,5,10
312,244,36439,1,10
200,244,37038,1,10
88,244,37638,1,10
88,348,38237,5,10
200,348,38836,1,10
312,348,39436,1,10
424,348,40035,1,10
416,264,40335,6,4,B|352:168|256:144|160:168|96:264,3,384,4|0|0|0
192,352,44531,2,0,B|200:288|256:278|312:288|320:352,1,192,8|0
256,32,46329,5,0
32,352,47528,6,6,C|32:159,1,192,6|2
128,64,48727,1,2
222,158,49326,1,2
320,64,49925,6,2,L|448:64|448:128,1,192
352,224,51124,1,2
448,320,51724,1,2
320,320,52323,6,2,L|240:320|240:352|160:352,1,192,6|2
64,256,53522,1,2
64,128,54121,1,2
160,32,54721,6,2,C|352:32,1,192
448,128,55919,1,2
448,256,56519,1,2
320,256,57118,6,2,B|294:64|28:64,1,384,6|2
32,192,58916,1,2
32,320,59516,6,2,B|225:351|417:320,1,384
448,192,61314,1,2
416,64,61913,6,2,C|224:64,3,192,6|2|2|2
96,64,64311,1,6
96,64,64611,1,6
64,192,65210,1,6
96,320,65809,1,6
480,352,66709,6,0,B|500:32|350:32,1,384,4|0
256,128,68507,1,2
160,32,69106,6,0,B|12:32|32:356,1,384
96,352,70605,1,6
224,352,71204,1,6
288,352,71504,1,4
256,208,71803,12,4,73901
464,336,84691,5,4
336,336,85290,1,0
208,336,85889,2,0,C|48:336,1,160
128,192,87088,5,0
256,192,87688,1,0
384,192,88287,1,0
48,48,89486,5,4
176,48,90085,1,0
304,48,90684,2,0,C|464:48,1,160
384,192,91883,5,0
256,192,92483,1,0
128,192,93082,1,0
432,288,94281,6,0,B|368:352|256:379|144:352|80:288,3,384,4|0|0|0
480,32,99076,6,2,C|288:32,1,192,6|2
160,32,100275,1,2
64,128,100874,1,2
192,128,101474,6,2,C|383:128,1,192
480,224,102673,1,2
352,224,103272,1,2
224,224,103871,6,2,C|32:224,1,192,6|2
128,320,105070,1,2
256,320,105670,1,2
384,320,106269,6,2,L|480:320|480:224,1,192
480,96,107468,1,2
352,96,108067,1,2
224,64,108667,6,2,B|96:96|63:192|96:288|225:320,1,384,6|2
256,192,110465,1,2
288,64,111064,6,2,B|416:96|449:192|416:288|287:320,1,384
256,192,112862,1,2
128,192,113462,6,2,L|96:233|64:151|32:192,3,192,6|2|2|2
96,320,115859,5,6
96,320,116160,1,6
256,320,116759,1,6
416,320,117358,1,6
352,96,118257,6,0,C|160:96,2,192,4|0|0
256,192,120055,1,2
160,288,120655,6,0,C|352:288,2,192
160,288,122153,1,6
256,192,122753,1,6
256,192,123052,1,4
256,208,123352,12,4,125450
256,96,135040,5,4
160,192,135640,1,0
256,288,136239,1,0
352,192,136838,1,0
256,96,137438,6,0,C|256:288,3,192
160,192,139835,5,4
256,96,140435,1,0
352,192,141034,1,0
256,288,141634,1,0
160,192,142233,6,0,C|352:192,3,192
448,288,144631,5,4
320,288,145230,1,0
192,288,145829,1,0
64,288,146429,1,0
64,160,147028,6,0,C|256:160,3,192
352,64,149426,5,4
464,128,150025,1,0
464,256,150625,1,0
352,320,151224,1,0
256,208,151823,12,0,154221
256,192,155420,5,0
32,32,156619,6,0,C|32:224,1,192,4|0
128,320,157817,1,2
195,320,158117,1,2
256,320,158417,1,2
320,320,158717,1,2
384,320,159016,6,0,L|480:320|480:224,1,192
384,128,160215,1,2
320,128,160515,1,2
256,128,160814,1,2
192,128,161114,1,2
128,128,161414,6,0,L|32:128|32:32,1,192,4|0
160,32,162613,1,2
224,32,162912,1,2
288,32,163212,1,2
352,32,163512,1,2
416,32,163811,6,0,C|472:112|428:192|472:272|416:352,1,384
352,352,165310,1,2
288,352,165610,1,2
224,352,165909,1,2
160,352,166209,6,0,C|104:272|148:192|104:112|160:32,1,384,4|0
224,32,167708,1,2
288,32,168007,1,2
352,32,168307,1,2
352,96,168607,6,0,C|352:288,2,192
256,191,170405,1,2
192,192,170705,1,2
128,192,171004,6,0,L|32:192|32:96,3,192,4|0|0|0
160,32,173402,5,6
192,96,173702,1,6
320,96,174301,1,6
352,32,174601,2,0,L|480:32|480:96,1,192
480,224,175799,6,0,B|456:327|350:352,1,192,4|0
256,256,176997,1,2
224,320,177297,1,2
160,352,177597,1,2
96,320,177897,1,2
64,256,178196,6,0,C|64:64,1,192
160,160,179395,1,2
192,96,179695,1,2
256,64,179994,1,2
320,96,180294,1,2
352,160,180594,6,0,L|352:224|480:224,1,192,4|0
480,352,181793,1,2
416,320,182092,1,2
352,352,182392,1,2
288,320,182692,1,2
224,352,182991,6,0,C|32:352,2,192
224,288,184490,1,2
224,224,184790,1,2
224,160,185089,1,2
224,96,185390,6,0,C|32:96,2,192,4|0|0
288,96,186888,1,2
352,64,187187,1,2
416,32,187487,1,2
480,32,187787,6,0,C|480:224,2,192
384,128,189585,1,2
352,192,189885,1,2
320,256,190184,6,0,C|320:352,3,96,4|0|0|0
256,352,191384,2,0,C|256:256,3,96
256,192,192582,5,6
256,128,192882,1,6
160,32,193481,1,6
64,128,194081,1,6
256,352,194980,6,0,C|64:352,2,192,4|0|0
256,192,196778,1,2
256,272,197078,1,2
256,352,197378,6,0,C|448:352,2,192
256,272,198876,1,6
256,192,199176,1,2
256,112,199476,1,6
256,32,199775,1,4
256,208,200075,12,4,202173
384,64,202773,5,0
256,32,203372,1,0
128,64,203971,1,0
96,192,204571,6,0,B|144:272|256:329|368:272|416:191,1,384
415,192,206069,1,4
288,160,206669,5,4
224,160,206968,1,4
224,352,208167,5,4
288,352,208467,1,4
256,96,209666,5,8
352,192,210265,1,8
256,288,210864,1,8
160,192,211464,1,8
256,96,212063,5,8
160,192,212663,1,8
256,288,213262,1,8
352,192,213861,1,8
416,192,214161,5,4
384,320,214761,1,0
256,352,215360,1,0
128,320,215959,1,0
96,192,216559,5,0
128,64,217158,1,0
256,32,217758,1,0
384,64,218357,1,0
416,192,218956,5,4
320,288,219556,1,0
192,288,220155,1,0
96,192,220755,5,0
192,96,221354,1,0
320,96,221953,1,0
416,192,222553,5,0
256,192,223152,1,0
96,192,223752,1,4
256,208,223851,12,4,229845
