osu file format v6

[General]
AudioFilename: Cheer! ~Makkana Kimochi~.mp3
AudioLeadIn: 0
PreviewTime: 47523
Countdown: 0
SampleSet: Normal
StackLeniency: 0.4
Mode: 0
LetterboxInBreaks: 1

[Editor]
Bookmarks: 5570,16359,30745,40335,47528,57118,66709,73901,83492,99076,108667,118257,125450,135040,144631,156619,166209,175799,185390,194980,202173,214161,223752
DistanceSpacing: 0.800000011920929
BeatDivisor: 3
GridSize: 16

[Metadata]
Title:Cheer! ~Makkana Kimochi~ (Full ver.)
Artist:Sakai Kanako
Creator:DJPop
Version:Insane
Source:REC
Tags:Onda Aka

[Difficulty]
HPDrainRate:6
CircleSize:5
OverallDifficulty:7
SliderMultiplier:1.6
SliderTickRate:1

[Events]
//Background and Video events
0,0,"Cheer! ~Makkana Kimochi~.png"
//Break Periods
2,74101,82592
2,125650,134140
//Storyboard Layer 0 (Background)
//Storyboard Layer 1 (Fail)
//Storyboard Layer 2 (Pass)
//Storyboard Layer 3 (Foreground)
//Storyboard Sound Samples
//Background Colour Transformations
3,100,0,0,0

[TimingPoints]
775,299.7002997003,4,1,1,70,1,0
15160,-100,4,1,1,0,0,0
16159,-100,4,1,1,60,0,0
16459,-100,4,2,1,60,0,0
25949,-100,4,1,1,70,0,0
45130,-100,4,1,1,45,0,0
46329,-100,4,1,2,60,0,0
47378,-100,4,1,2,70,0,0
47528,-100,4,1,2,70,0,1
50425,-100,4,1,1,70,0,1
54920,-100,4,1,2,70,0,1
57618,-100,4,1,1,70,0,1
57917,-100,4,1,2,70,0,1
66808,-100,4,1,2,70,0,0
83192,-100,4,1,2,0,0,0
84691,-100,4,1,2,70,0,0
94780,-100,4,1,1,70,0,0
95680,-100,4,1,2,70,0,0
95979,-100,4,1,1,70,0,0
96878,-100,4,1,2,70,0,0
97178,-100,4,1,1,70,0,0
99076,-100,4,1,2,70,0,1
118357,-100,4,1,1,70,0,0
134741,-100,4,1,1,45,0,0
148677,-100,4,1,1,70,0,0
154221,-100,4,1,1,0,0,0
155420,-100,4,1,1,70,0,0
156619,-100,4,1,1,70,0,1
175798,-100,4,1,1,70,0,0
175799,-100,4,1,1,70,0,1
195080,-100,4,1,1,70,0,0
209366,-100,4,2,1,60,0,0
212812,-100,4,1,2,65,0,0
214161,-100,4,1,2,70,0,0
229845,-100,4,1,1,0,0,0

[Colours]
Combo1 : 255,128,255
Combo2 : 255,0,0
Combo3 : 255,0,255
Combo4 : 255,128,128

[HitObjects]
480,192,5570,5,4
480,64,5869,2,0,L|320:64,1,160,8|0
320,192,6469,1,8
320,272,6669,2,0,L|299:288|272:288,1,53.3333333333333,0|0
192,288,6968,5,0
160,256,7068,1,8
96,320,7268,2,0,L|69:320|48:304,1,53.3333333333333,0|0
48,176,7668,1,8
160,128,7967,5,0
288,128,8267,1,8
384,32,8567,1,0
480,128,8866,1,8
480,256,9166,6,0,B|480:360|381:352,1,160,0|8
256,352,9766,2,0,B|160:363|160:254,1,160,0|8
160,128,10365,5,4
32,128,10665,2,0,B|119:192|31:257,4,160,8|0|8|0|8
128,32,12163,6,0,L|288:32,1,160,0|8
400,96,12763,2,0,L|240:96,1,160,0|8
128,160,13362,6,0,L|288:160,1,160,0|8
400,224,13961,2,0,L|240:224,1,160,0|12
160,352,14561,5,8
192,352,14661,1,8
224,352,14761,1,8
255,352,14860,1,8
352,352,15060,1,8
256,208,15160,12,0,16059
256,32,16359,5,4
256,96,16559,1,0
256,128,16659,1,0
256,192,16858,1,0
256,224,16958,2,0,L|256:278,3,53.3333333333333
256,352,17458,1,0
224,352,17558,5,0
160,320,17758,1,0
128,320,17857,1,0
96,256,18057,1,0
64,256,18157,2,0,L|10:256,3,53.3333333333333
32,160,18657,1,0
32,128,18757,5,0
96,96,18956,1,0
96,64,19056,1,0
160,32,19256,1,0
192,32,19356,2,0,L|246:32,3,53.3333333333333
288,96,19855,1,0
256,96,19955,6,0,L|202:96,3,53.3333333333333,0|0|0|0
160,160,20455,1,0
192,160,20555,1,0
224,224,20755,1,0
256,224,20854,1,0
288,288,21054,1,0
320,288,21154,5,0
352,352,21354,1,0
384,352,21454,1,0
448,320,21654,1,0
464,288,21754,1,0
448,256,21853,1,0
464,224,21953,1,0
448,192,22053,1,0
384,160,22253,1,0
352,160,22353,5,0
384,96,22553,1,0
352,96,22653,1,0
384,32,22852,1,0
352,16,22952,1,0
320,32,23052,1,0
288,16,23152,1,0
256,32,23252,1,0
192,64,23452,1,0
160,64,23552,5,0
192,128,23752,1,0
224,128,23851,1,0
256,192,24051,1,0
240,224,24151,1,0
256,256,24251,1,0
240,288,24351,1,0
256,320,24451,1,0
192,336,24651,1,0
160,352,24751,5,2
128,336,24850,1,2
96,352,24950,1,2
64,336,25050,1,2
32,272,25250,1,2
64,272,25350,1,2
128,240,25550,1,2
128,208,25650,1,2
64,176,25849,1,2
64,144,25949,6,0,B|63:3|324:33,1,320,4|0
384,64,26749,1,0
256,96,27048,1,0
384,128,27348,1,0
256,160,27648,1,0
384,192,27947,2,0,L|384:246,1,53.3333333333333
480,320,28347,5,0
352,352,28647,1,0
224,320,28946,1,0
96,352,29246,1,0
64,224,29546,1,0
192,192,29845,1,0
320,224,30145,5,8
352,208,30245,1,8
384,224,30345,1,8
416,208,30445,1,8
480,144,30645,1,8
448,128,30745,5,4
416,64,30944,1,0
384,64,31044,1,8
352,128,31244,1,0
320,128,31344,1,0
288,64,31544,1,0
256,64,31644,1,8
224,128,31843,1,0
192,128,31943,5,0
128,96,32143,1,0
128,128,32243,1,8
64,160,32443,1,0
32,160,32543,1,0
64,224,32743,1,0
64,256,32842,1,8
128,224,33042,1,0
160,224,33142,5,0
128,288,33342,1,0
160,288,33442,1,8
128,352,33642,1,0
160,352,33742,1,0
224,320,33941,1,0
256,320,34041,1,8
224,256,34241,1,0
256,256,34341,5,0
224,192,34541,1,0
256,192,34641,1,8
320,224,34840,1,0
352,224,34940,1,0
320,288,35140,1,0
352,288,35240,1,8
320,352,35440,1,0
352,352,35540,5,4
416,320,35740,1,0
448,320,35839,1,8
480,256,36039,1,0
480,224,36139,1,0
416,192,36339,1,0
416,160,36439,1,8
352,128,36639,1,0
352,160,36739,5,0
288,128,36938,1,0
288,96,37038,1,8
224,64,37238,1,0
224,96,37338,1,0
160,64,37538,1,0
160,32,37638,1,8
96,64,37837,1,0
64,64,37937,5,0
32,128,38137,1,0
64,128,38237,1,8
96,192,38437,1,0
64,192,38537,1,0
32,256,38737,1,0
64,256,38836,1,8
96,320,39036,1,0
96,352,39136,5,0
160,320,39336,1,2
192,320,39436,1,8
256,288,39636,1,0
256,320,39736,1,2
320,352,39935,1,0
352,352,40035,1,10
384,288,40235,1,0
416,288,40335,6,0,B|472:288|480:240|472:192|414:192,1,160,4|8
288,192,40934,1,0
288,128,41134,1,0
288,128,41234,1,8
224,128,41434,1,0
224,128,41534,5,0
224,64,41734,1,0
224,64,41833,1,8
160,64,42033,2,0,B|96:34|96:158|30:128,1,160
32,128,42433,1,8
32,256,42733,5,0
128,352,43032,1,8
224,256,43332,1,0
320,352,43632,1,8
416,256,43931,6,0,L|416:96,1,160,0|12
288,96,44531,1,8
272,128,44631,1,8
240,192,44830,1,8
224,224,44930,1,8
192,240,45030,1,8
160,256,45130,5,0
32,224,45430,1,0
160,192,45730,1,0
32,160,46029,1,0
64,144,46129,1,0
96,128,46229,1,0
128,112,46329,6,0,B|272:32,3,160,0|2|0|2
384,64,47528,6,0,B|440:96|472:128|479:192|472:256|440:288|383:320,2,320,4|0|0
384,192,49026,5,8
256,192,49326,1,0
128,192,49626,1,8
128,320,49925,6,0,C|32:288|78:240|32:192|78:144|32:96|128:64,1,480,0|8
256,64,51124,5,0
288,192,51424,1,8
256,320,51724,1,0
224,192,52023,1,8
256,64,52323,6,0,L|416:64,1,160,4|8
448,192,52922,2,0,L|288:192,1,160,0|8
159,192,53522,5,0
32,224,53821,1,8
160,256,54121,1,0
32,288,54421,1,8
160,320,54721,6,0,C|480:320,2,320
96,208,56219,5,8
160,96,56519,1,0
272,32,56818,1,8
384,96,57118,6,0,B|496:176|496:315|400:377|20:352,1,640,4|0
32,224,58617,5,8
32,96,58916,1,0
128,192,59216,1,8
128,64,59516,6,0,L|448:64,2,320
32,160,61014,5,8
128,256,61314,1,0
224,160,61614,1,8
320,256,61913,6,0,L|480:256,1,160,4|8
480,128,62513,2,0,L|320:128,1,160,0|8
256,256,63112,6,0,L|96:256,1,160,0|8
96,128,63712,2,0,L|256:128,1,160,0|8
320,256,64311,6,0,L|480:256,3,160,4|12|0|12
480,128,65510,2,0,L|320:128,1,160,0|12
208,192,66109,5,8
184,192,66209,1,8
160,192,66309,1,8
136,192,66409,1,8
112,192,66509,1,8
88,192,66609,1,8
64,192,66709,6,0,C|384:192,2,320,4|0|0
32,320,68207,1,8
160,352,68507,1,0
288,320,68806,1,8
416,320,69106,6,0,B|456:304|488:272|496:240|506:192|496:144|488:112|456:80|414:64,2,320
304,256,70605,1,12
416,192,70904,1,0
304,128,71204,1,12
192,192,71504,6,0,L|32:192,2,160,4|8|0
320,192,72403,1,8
368,128,72603,1,8
368,96,72703,1,4
256,32,73002,1,4
144,96,73302,5,8
128,128,73402,1,8
144,160,73502,1,8
128,192,73602,1,8
144,224,73702,1,8
128,256,73801,1,8
144,288,73901,1,4
256,208,83492,12,4,84691
256,192,84990,5,8
256,64,85290,1,0
256,192,85590,1,8
256,320,85889,1,0
256,192,86189,1,8
384,192,86489,1,0
256,192,86788,1,8
128,192,87088,5,0
256,192,87388,1,8
165,101,87688,1,0
256,192,87987,1,8
256,64,88287,1,0
256,192,88587,1,8
346,101,88886,1,0
256,192,89186,1,8
384,192,89486,5,4
384,320,89785,1,8
256,320,90085,1,0
256,192,90385,1,8
128,192,90685,1,0
128,320,90984,1,8
256,320,91284,1,0
256,192,91584,1,8
165,101,91883,5,0
256,192,92183,1,8
346,101,92483,1,0
256,192,92782,1,8
346,282,93082,1,0
256,192,93382,1,8
165,282,93682,1,0
256,192,93981,1,8
256,32,94281,6,0,B|464:0|475:128|464:256|253:224,1,480,4|8
256,96,95480,6,0,B|48:64|37:192|48:320|259:288,1,480,0|8
256,160,96679,6,0,B|464:128|475:256|464:384|253:352,1,480,0|8
256,224,97877,6,0,L|202:224,5,53.3333333333333,8|8|8|8|8|8
202,192,98477,2,0,L|256:192,2,53.3333333333333
202,160,98776,2,0,L|256:160,2,53.3333333333333
202,192,99076,6,0,L|144:192|112:144|112:240|80:192|30:192,2,320,4|0|0
192,320,100575,5,8
320,320,100874,1,0
448,320,101174,1,8
448,192,101474,6,0,L|448:32,3,160,0|8|0|8
320,32,102673,5,0
208,96,102972,1,8
320,160,103272,1,0
208,224,103572,1,8
320,288,103871,6,0,B|293:371|190:352,1,160,4|8
64,352,104471,2,0,B|43:253|130:224,1,160,0|8
128,96,105070,5,0
256,64,105370,1,8
128,32,105670,1,0
128,160,105969,1,8
256,128,106269,6,0,L|368:128|368:32|481:32,2,320
256,256,107768,5,8
383,256,108067,1,0
480,352,108367,1,8
352,352,108667,1,4
224,352,108966,6,0,L|64:352,3,160,8|0|8|0
32,224,110165,5,8
160,192,110465,1,0
32,160,110765,1,8
64,32,111064,6,0,L|383:32,2,320
96,160,112563,5,8
224,160,112862,1,0
352,160,113162,1,8
448,64,113462,6,0,B|488:80|500:128|488:176|446:192,1,160,4|8
448,320,114061,2,0,B|488:304|500:256|488:208|446:192,1,160,0|8
336,256,114661,6,0,B|320:295|272:307|224:295|208:254,1,160,0|8
208,128,115260,2,0,B|224:88|272:76|320:88|336:130,1,160,0|8
224,192,115859,6,0,L|383:192,3,160,4|12|0|12
224,192,117058,2,0,L|63:192,1,160,0|12
64,320,117658,5,8
96,336,117758,1,8
128,352,117857,1,8
160,336,117957,1,8
192,320,118057,1,8
224,336,118157,1,8
256,352,118257,1,4
256,192,118557,5,8
480,192,119156,5,8
256,32,119756,1,8
32,192,120355,1,8
256,352,120954,1,8
384,96,121554,5,8
128,96,122153,1,12
352,224,122753,1,12
256,288,123052,1,4
160,224,123352,1,8
304,32,123951,5,8
208,32,124151,1,8
208,32,124251,1,4
256,160,124551,1,4
192,272,124850,5,8
200,304,124950,1,8
224,328,125050,1,8
256,336,125150,1,8
288,328,125250,1,8
312,304,125350,1,8
320,272,125450,1,4
480,192,135040,5,4
480,192,135340,1,0
480,320,135640,1,0
480,192,135939,1,0
480,64,136239,1,0
480,192,136539,1,0
480,320,136838,1,0
480,192,137138,1,0
352,192,137438,6,0,L|352:32,1,160
288,192,138037,2,0,L|288:352,1,160
224,192,138637,2,0,L|224:32,1,160
160,192,139236,2,0,L|160:352,1,160
32,192,139835,5,4
32,192,140135,1,0
32,320,140435,1,0
32,192,140735,1,0
32,64,141034,1,0
32,192,141334,1,0
32,320,141634,1,0
32,192,141933,1,0
160,192,142233,6,0,L|160:352,1,160
160,352,142832,1,0
288,352,143132,1,0
288,352,143432,2,0,L|288:192,1,160
416,192,144031,1,0
416,192,144231,1,4
384,32,144631,5,4
256,32,144930,1,0
128,32,145230,1,0
256,32,145530,1,0
384,32,145829,1,0
256,32,146129,1,0
128,32,146429,1,0
256,32,146729,1,0
256,192,147028,6,0,L|256:352,1,160
128,336,147628,1,0
128,208,147927,1,0
256,192,148227,1,0
384,208,148527,1,0
384,336,148826,1,8
384,336,148926,1,8
320,344,149126,1,8
256,352,149326,1,8
256,352,149426,6,0,B|224:344|208:288|304:288|288:232|256:223,1,160,4|8
256,32,150025,2,0,B|288:40|304:96|208:96|224:152|256:161,2,160,0|8|0
256,192,150924,1,8
160,288,151224,1,0
96,288,151424,2,0,C|71:282|64:256,1,53.3333333333333,0|8
64,192,151724,1,0
64,192,151823,6,0,B|128:162|128:126|192:96,3,160,4|8|0|8
320,96,153022,2,0,B|384:125|384:161|448:192,1,160,0|12
352,288,153622,1,8
320,288,153722,1,8
288,288,153821,1,8
256,288,153921,1,8
160,288,154121,1,8
256,208,154221,12,0,155420
256,192,156619,6,0,L|96:192,3,160,4|8|0|8
256,192,157817,5,0
336,64,158117,1,8
416,192,158417,1,0
336,320,158717,1,8
256,192,159016,6,0,L|416:192,3,160,0|8|0|8
256,192,160215,5,0
176,320,160515,1,8
96,192,160814,1,0
176,64,161114,1,8
256,192,161414,6,0,L|416:192,1,160,4|8
416,64,162013,2,0,L|256:64,1,160,0|8
160,160,162613,5,0
32,192,162912,1,8
160,224,163212,1,0
32,256,163512,1,8
160,288,163811,6,0,L|96:288|96:320|32:320,4,160,0|8|0|8|0
288,288,165310,5,8
176,352,165610,1,0
304,352,165909,1,8
416,288,166209,1,4
320,192,166509,6,0,L|320:31,1,160,8|0
448,32,167108,2,0,L|448:192,1,160,8|0
352,288,167708,5,8
224,256,168007,1,0
96,224,168307,1,8
96,96,168607,6,0,B|112:56|160:41|208:56|224:96,1,160,0|8
352,96,169206,2,0,B|392:112|405:160|392:208|351:224,1,160,0|8
352,352,169805,6,0,L|192:352,1,160,0|8
64,352,170405,1,0
32,224,170705,1,8
64,96,171004,6,0,L|223:96,1,160,4|8
112,160,171604,2,0,L|272:160,1,160,0|8
160,224,172203,6,0,L|320:224,1,160,0|8
208,288,172802,2,0,L|367:288,1,160,0|8
256,352,173402,6,0,L|416:352,3,160,4|12|0|12
448,224,174601,5,8
480,208,174701,1,8
448,192,174800,1,8
480,176,174900,1,8
448,160,175000,1,8
480,144,175100,1,8
448,128,175200,1,0
432,96,175300,1,0
416,64,175400,1,0
384,48,175500,1,0
352,64,175600,1,0
320,80,175700,1,0
288,96,175799,6,0,L|128:96,1,160,4|8
32,192,176399,2,0,L|191:192,1,160,0|8
288,288,176998,5,0
160,288,177298,1,8
256,192,177598,1,0
384,192,177897,1,8
384,320,178197,6,0,B|432:352|498:338|480:256,3,160,0|8|0|8
480,128,179396,5,0
384,32,179696,1,8
256,32,179995,1,0
128,32,180295,1,8
32,128,180595,6,0,L|32:288,1,160,4|8
96,128,181194,2,0,L|96:288,1,160,0|8
160,128,181793,5,0
288,168,182093,1,8
160,208,182393,1,0
288,248,182693,1,8
160,288,182992,6,0,B|183:373|288:352,1,160,0|8
416,320,183592,2,0,B|503:294|480:192,1,160,0|8
448,64,184191,5,0
320,32,184491,1,8
256,144,184790,1,0
192,32,185090,1,8
64,64,185390,1,4
32,192,185690,6,0,L|192:192,1,160,8|0
32,256,186289,2,0,L|192:256,1,160,8|0
32,320,186888,5,8
160,320,187188,1,0
288,320,187488,1,8
416,320,187787,6,0,B|456:304|468:256|456:208|414:192,1,160,0|8
416,64,188387,2,0,B|456:80|468:128|456:176|414:192,1,160,0|8
288,192,188986,6,0,B|224:116|224:268|158:192,1,160,0|8
32,192,189586,1,0
32,192,189885,1,8
32,64,190185,6,0,L|191:64,1,160,4|8
320,128,190784,2,0,L|480:128,1,160,0|8
480,256,191384,6,0,L|320:256,1,160,0|8
192,320,191983,2,0,L|32:320,1,160,0|8
32,192,192583,5,4
32,64,192882,1,12
128,160,193182,1,0
128,32,193482,1,12
224,128,193781,1,0
224,256,194081,1,12
320,352,194381,5,8
336,320,194481,1,8
352,288,194581,1,8
368,256,194681,1,8
384,224,194780,1,8
400,192,194880,1,8
416,160,194980,6,0,C|464:64,1,106.666666666667,4|0
432,32,195280,2,0,C|384:128,1,106.666666666667,8|0
336,160,195580,2,0,L|384:64,1,106.666666666667
352,32,195879,2,0,L|304:128,1,106.666666666667,8|0
272,160,196179,6,0,L|176:208,1,106.666666666667
160,176,196479,2,0,L|256:128,1,106.666666666667,8|0
240,96,196779,2,0,L|144:144,1,106.666666666667
128,112,197078,2,0,L|224:64,1,106.666666666667,8|0
208,32,197378,6,0,L|96:64,1,106.666666666667
64,80,197678,2,0,L|16:176,1,106.666666666667,8|0
16,216,197978,2,0,L|64:312,1,106.666666666667
96,328,198277,2,0,L|208:360,1,106.666666666667,8|0
240,352,198577,6,0,C|288:256,1,106.666666666667
288,256,198876,2,0,L|336:352,1,106.666666666667,12|0
336,352,199177,2,0,L|384:256,1,106.666666666667
384,256,199476,2,0,L|432:352,1,106.666666666667,12|0
432,352,199775,6,0,L|480:256,1,106.666666666667,4|0
496,224,200075,2,0,L|448:128,1,106.666666666667,8|0
432,96,200375,2,0,L|336:48,1,106.666666666667
304,32,200674,2,0,L|208:80,1,106.666666666667,8|8
176,96,200974,6,0,B|152:128|149:144|152:160|176:192,1,106.666666666667,4|0
192,224,201274,2,0,B|216:256|219:272|216:288|192:320,1,106.666666666667,12|0
176,352,201574,2,8,B|153:374|128:352,5,53.3333333333333
128,352,202173,5,4
32,256,202473,1,8
32,128,202773,1,0
128,32,203072,1,8
256,32,203372,1,0
384,32,203672,1,8
480,128,203971,1,0
480,256,204271,1,8
384,352,204571,5,0
256,352,204870,1,8
160,256,205170,1,0
160,128,205470,1,8
256,32,205770,1,0
352,128,206069,1,12
352,256,206369,1,0
256,352,206669,1,12
128,352,206968,5,4
24,272,207268,1,8
128,192,207568,1,0
256,192,207867,1,8
352,192,208067,1,8
384,192,208167,1,4
488,112,208467,1,4
384,32,208767,5,8
352,32,208866,1,8
320,32,208966,1,8
288,32,209066,1,8
256,32,209166,1,8
224,32,209266,1,8
192,32,209366,5,0
64,32,209666,1,8
176,96,209965,1,0
48,96,210265,1,8
160,160,210565,5,0
32,160,210864,1,8
32,160,211064,1,0
144,224,211364,2,0,L|200:224,1,53.3333333333333,0|8
320,176,211764,5,0
320,48,212063,1,8
384,160,212363,1,0
384,32,212663,1,8
448,144,212962,5,8
464,176,213062,1,8
480,208,213162,1,8
464,240,213262,1,10
448,272,213362,1,8
416,288,213462,1,8
384,304,213562,1,8
352,288,213662,1,8
320,304,213762,1,8
288,320,213861,1,10
256,304,213961,1,8
224,320,214061,1,8
192,336,214161,5,4
80,272,214461,1,8
192,208,214761,1,0
80,144,215060,1,8
80,144,215260,1,0
192,80,215560,5,0
192,80,215660,1,8
272,80,215859,1,0
272,80,215959,1,0
400,80,216259,1,8
464,192,216559,5,0
400,304,216858,1,8
336,192,217158,1,0
272,304,217458,1,8
272,304,217658,1,0
208,192,217957,5,0
208,192,218057,1,8
128,192,218257,1,0
128,192,218357,1,0
128,64,218657,1,8
32,160,218956,5,4
64,288,219256,1,8
192,320,219556,1,0
320,352,219855,1,8
384,288,220055,1,0
480,192,220355,5,0
480,160,220455,1,8
416,128,220655,1,0
416,96,220755,1,0
288,64,221054,1,8
160,32,221354,5,0
32,64,221654,1,8
160,96,221953,1,0
32,128,222253,1,8
96,192,222453,5,0
112,224,222553,1,8
128,256,222653,1,8
144,288,222753,1,8
168,312,222852,1,0
200,328,222952,1,0
240,336,223052,1,0
272,336,223152,1,0
312,328,223252,1,0
344,312,223352,1,0
368,288,223452,1,0
384,256,223552,1,0
400,224,223652,1,0
416,192,223752,1,4
256,208,223851,12,4,229845
