osu file format v6

[General]
AudioFilename: Cheer! ~Makkana Kimochi~.mp3
AudioLeadIn: 0
PreviewTime: 47523
Countdown: 0
SampleSet: Normal
StackLeniency: 0.4
Mode: 0
LetterboxInBreaks: 1

[Editor]
Bookmarks: 5570,16359,30745,40335,47528,57118,66709,73901,83492,99076,108667,118257,125450,135040,144631,156619,166209,175799,185390,194980,202173,214161,223752
DistanceSpacing: 1
BeatDivisor: 3
GridSize: 32

[Metadata]
Title:Cheer! ~Makkana Kimochi~ (Full ver.)
Artist:Sakai Kanako
Creator:DJPop
Version:Hard
Source:REC
Tags:Onda Aka

[Difficulty]
HPDrainRate:5
CircleSize:4
OverallDifficulty:5
SliderMultiplier:1.28
SliderTickRate:1

[Events]
//Background and Video events
0,0,"Cheer! ~Makkana Kimochi~.png"
//Break Periods
2,74101,82292
2,125649,133840
//Storyboard Layer 0 (Background)
//Storyboard Layer 1 (Fail)
//Storyboard Layer 2 (Pass)
//Storyboard Layer 3 (Foreground)
//Storyboard Sound Samples
//Background Colour Transformations
3,100,0,0,0

[TimingPoints]
775,299.7002997003,4,1,1,70,1,0
9366,-100,4,1,2,70,0,0
10864,-100,4,1,1,70,0,0
15160,-100,4,1,1,0,0,0
16359,-100,4,1,1,60,0,0
16459,-100,4,2,1,60,0,0
25799,-100,4,1,2,60,0,0
30545,-100,4,1,1,60,0,0
45130,-100,4,1,1,45,0,0
46029,-100,4,1,2,60,0,0
47378,-100,4,1,2,70,0,0
47528,-100,4,1,2,70,0,1
50425,-100,4,1,1,70,0,1
52523,-100,4,1,2,70,0,1
54920,-100,4,1,2,70,0,1
57618,-100,4,1,1,70,0,1
57917,-100,4,1,2,70,0,1
64810,-100,4,1,1,70,0,1
66808,-100,4,1,1,70,0,0
83192,-100,4,1,2,0,0,0
84691,-100,4,1,2,70,0,0
94780,-100,4,1,1,70,0,0
95680,-100,4,1,2,70,0,0
95979,-100,4,1,1,70,0,0
96878,-100,4,1,2,70,0,0
97178,-100,4,1,1,70,0,0
99076,-100,4,1,2,70,0,1
101973,-100,4,1,1,70,0,1
104071,-100,4,1,2,70,0,1
109166,-100,4,1,1,70,0,1
109466,-100,4,1,2,70,0,1
116359,-100,4,1,1,70,0,1
118357,-100,4,1,1,70,0,0
134741,-100,4,2,1,45,0,0
144131,-100,4,1,2,45,0,0
148677,-100,4,1,2,70,0,0
154221,-100,4,1,1,0,0,0
155420,-100,4,1,1,70,0,0
156619,-100,4,1,1,70,0,1
164011,-100,4,1,2,70,0,1
175798,-100,4,1,1,70,0,0
175799,-100,4,1,1,70,0,1
195080,-100,4,1,2,70,0,0
209366,-100,4,2,1,60,0,0
214011,-100,4,1,1,70,0,0
219156,-100,4,1,2,70,0,0
219456,-100,4,1,1,70,0,0
219756,-100,4,1,2,70,0,0
220055,-100,4,1,1,70,0,0
229845,-100,4,1,1,0,0,0

[Colours]
Combo1 : 255,128,255
Combo2 : 255,0,0
Combo3 : 255,0,255
Combo4 : 255,128,128

[HitObjects]
32,192,5570,5,4
160,192,5869,2,0,L|415:192,1,256,8|8
480,80,6769,5,0
416,32,6968,2,0,L|384:63,1,42.6666666666667,0|8
320,112,7268,2,0,B|215:132|192:31,1,170.666666666667,0|8
64,32,7967,5,0
32,160,8267,1,8
64,288,8567,1,0
192,320,8866,1,8
320,288,9166,6,0,B|384:196|496:240|480:353,2,256,0|0|4
192,256,10665,6,0,B|160:144|64:176|32:63,2,256,8|8|8
96,352,12163,6,0,L|224:352,1,128,0|8
352,352,12763,2,0,L|480:352,1,128,0|8
384,256,13362,6,0,L|384:128,1,128,0|8
480,32,13961,6,0,L|352:32,1,128,0|12
223,32,14561,2,0,L|95:32,1,128,8|8
256,208,15160,12,4,16359
32,192,16958,5,0
256,192,17558,1,0
480,192,18157,1,0
360,32,18757,1,0
152,32,19356,1,0
32,192,19955,1,0
152,352,20555,1,0
256,352,20854,1,0
360,352,21154,5,0
480,192,21754,1,0
256,192,22353,1,0
32,192,22952,1,0
152,32,23552,1,0
360,32,24151,1,0
480,192,24751,1,2
256,192,25350,1,2
256,272,25650,1,2
256,352,25949,5,4
160,352,26249,1,2
64,328,26549,1,0
32,240,26848,1,2
32,144,27148,5,0
64,56,27448,1,2
160,32,27748,1,0
256,32,28047,1,2
352,32,28347,5,0
448,56,28647,1,2
480,144,28946,1,0
480,240,29246,1,2
448,328,29546,5,0
352,352,29845,1,2
256,352,30145,2,0,L|256:309,3,42.6666666666667,8|8|8|8
256,224,30645,1,8
256,224,30745,5,4
160,128,31044,1,8
64,224,31344,1,0
160,320,31644,1,8
256,224,31943,5,0
256,144,32143,2,0,L|288:112,1,42.6666666666667,0|8
368,112,32443,2,0,L|400:144,1,42.6666666666667,0|0
480,32,32842,1,8
480,160,33142,5,0
480,288,33442,1,8
352,288,33742,1,0
240,352,34041,1,8
128,288,34341,5,0
128,160,34641,1,8
32,256,34940,1,0
32,128,35240,1,8
128,32,35540,5,4
256,32,35839,1,8
256,160,36139,1,0
384,160,36439,1,8
384,288,36739,5,0
304,288,36938,2,0,L|272:320,1,42.6666666666667,0|8
192,320,37238,2,0,L|160:288,1,42.6666666666667
64,192,37638,1,8
64,64,37937,5,0
192,32,38237,1,8
320,64,38537,1,0
448,32,38836,1,8
480,160,39136,5,0
416,224,39336,2,0,L|448:256,1,42.6666666666667,2|8
352,352,39736,1,2
256,256,40035,1,10
160,352,40335,6,0,L|32:352,3,128,4|8|0|8
128,256,41534,6,0,L|256:256,3,128,0|8|0|8
160,160,42733,6,0,L|32:160,3,128,0|8|0|8
128,64,43931,6,0,L|256:64,1,128,0|12
384,64,44531,1,8
384,64,44631,1,8
448,32,44830,2,0,L|480:64,3,42.6666666666667,8|8|8|0
352,352,46329,6,0,L|480:352,3,128,0|2|0|2
384,256,47528,6,0,L|128:256,2,256,4|0|0
384,128,49026,5,8
256,128,49326,1,0
127,128,49626,1,8
32,32,49925,6,0,L|416:32,1,384,0|8
448,160,51124,5,0
480,288,51424,1,8
352,320,51724,1,0
320,192,52023,1,8
224,96,52323,6,0,B|152:112|134:192|152:272|224:288,2,256,4|0|0
96,64,53821,5,8
64,192,54121,1,0
96,320,54421,1,8
224,288,54721,6,0,B|296:272|314:192|296:112|224:96,2,256,0|0|0
352,320,56219,5,8
480,320,56519,1,0
480,192,56818,1,8
480,64,57118,6,0,C|432:32|384:56|336:32|288:56|257:67|224:56|176:32|128:56|80:32|32:64,1,512,4|0
32,192,58617,5,8
160,192,58916,1,0
64,288,59216,1,8
192,288,59516,6,0,B|224:336|303:364|384:336|416:288,2,256
224,160,61014,5,8
304,256,61314,1,0
384,160,61614,1,8
384,32,61913,6,0,B|492:96|480:256,4,256,4|0|0|0|4
256,32,64611,6,0,B|152:8|136:152|31:128,1,256,12|12
32,256,65510,2,0,B|50:330|128:320,1,128,0|12
256,352,66109,2,0,C|256:309,5,42.6666666666667,8|8|8|8|8|8
256,288,66709,6,0,L|256:32,2,256,4|0|0
352,32,68507,5,0
480,32,68806,1,0
480,160,69106,2,0,B|480:338|351:352,2,256
352,160,70605,5,4
256,256,70904,1,0
160,352,71204,1,4
64,256,71504,6,0,L|64:128,1,128,4|0
352,96,72403,5,0
448,192,72703,1,4
352,288,73002,1,4
256,192,73302,2,0,C|213:192,6,42.6666666666667,8|8|8|8|8|8|4
256,208,83492,12,4,84691
480,32,84990,5,0
384,32,85290,1,0
288,32,85590,1,0
192,32,85889,1,0
128,32,86039,1,0
32,32,86376,1,0
128,352,87088,5,0
192,256,87388,1,0
256,352,87688,1,0
320,256,87987,1,0
384,352,88287,1,0
64,32,89486,5,4
128,128,89785,1,0
192,32,90085,1,0
256,128,90385,1,0
320,32,90685,1,0
384,32,90834,1,0
448,128,91134,1,0
464,352,91883,5,0
360,352,92183,1,0
256,352,92483,1,0
152,352,92782,1,0
48,352,93082,1,0
448,64,94281,6,0,L|64:64,1,384,4|8
64,192,95480,6,0,C|448:192,1,384,0|8
448,320,96679,6,0,L|64:320,1,384,0|8
64,192,97877,6,0,L|64:149,5,42.6666666666667,8|8|8|8|8|8
64,192,98477,2,0,L|64:235,5,42.6666666666667
64,192,99076,6,0,L|320:192,2,256,4|0|0
64,64,100575,5,8
192,64,100874,1,0
320,64,101174,1,8
448,32,101474,6,0,C|472:64|456:96|472:128|448:160|464:192|448:224|464:256|456:288|480:320|448:352,1,384,0|8
320,320,102673,5,0
248,208,102972,1,8
176,320,103272,1,0
104,208,103572,1,8
32,320,103871,6,0,L|32:64,2,256
160,320,105370,5,8
288,320,105670,1,0
416,320,105969,1,8
384,192,106269,6,0,L|128:192,2,256
480,96,107768,5,8
352,64,108067,1,0
448,160,108367,1,8
320,128,108667,1,4
224,32,108966,6,0,B|-13:32|32:292,1,384,8|0
144,352,110165,5,8
256,288,110465,1,0
368,352,110765,1,8
480,288,111064,6,0,L|480:32,2,256
352,256,112563,5,8
224,224,112862,1,0
96,192,113162,1,8
192,96,113462,6,0,B|224:48|304:20|384:48|416:96,4,256,4|0|0|0|4
64,64,116159,6,0,C|64:320,1,256,12|12
192,288,117058,2,0,B|200:320|240:339|280:320|288:287,1,128,0|12
384,192,117658,6,0,C|427:192,6,42.6666666666667,8|8|8|8|8|8|4
256,192,118557,5,8
32,32,119156,5,8
32,352,119756,5,8
256,192,120355,5,8
480,32,120954,5,8
480,352,121554,5,8
256,192,122153,5,12
32,32,122753,5,12
32,192,123052,1,4
32,352,123352,1,8
256,192,123951,5,8
368,256,124251,1,4
368,128,124551,1,4
480,192,124850,2,0,C|437:192,6,42.6666666666667,8|8|8|8|8|8|4
256,192,135040,5,4
144,32,135640,1,0
32,192,136139,1,2
32,192,136239,1,0
144,352,136838,1,0
256,192,137438,5,0
368,32,138037,1,0
480,192,138537,1,2
480,192,138637,1,0
368,352,139236,1,0
256,192,139835,5,4
144,352,140435,1,0
32,192,140934,1,2
32,192,141034,1,0
144,32,141634,1,0
256,192,142233,5,0
368,352,142832,1,0
480,192,143332,1,2
480,192,143432,1,0
368,32,144031,1,0
368,32,144231,1,4
224,32,144631,5,4
96,32,144930,1,2
32,192,145380,1,0
32,192,145530,1,2
160,192,145829,5,0
288,192,146129,1,2
416,64,146579,1,0
416,64,146729,1,2
448,192,147028,5,0
416,320,147328,1,2
224,320,147777,1,0
224,320,147927,1,2
96,320,148227,5,0
96,192,148527,1,2
96,64,148826,1,8
224,64,149126,1,8
224,192,149426,6,0,L|480:192,2,256,4|0|0
128,288,150924,1,8
32,192,151224,1,0
72,128,151424,2,0,L|104:96,1,42.6666666666667,0|8
160,48,151724,1,0
160,48,151823,6,0,B|176:112|256:153|336:112|352:48,2,256,4|0|0
192,176,153322,1,4
319,176,153622,2,0,C|304:216,3,42.6666666666667,8|8|8|8
256,272,154121,1,8
256,208,154221,12,0,155420
32,192,156619,6,0,L|160:192,3,128,4|8|0|8
160,320,157817,5,0
256,224,158117,1,8
352,320,158417,1,0
448,224,158717,1,8
448,96,159016,6,0,L|320:96,3,128,0|8|0|8
192,96,160215,5,0
96,192,160515,1,8
192,288,160814,1,0
288,192,161114,1,8
384,288,161414,6,0,B|367:361|288:352,1,128,4|8
160,352,162013,2,0,B|83:362|64:288,1,128,0|8
32,160,162613,5,0
128,64,162912,1,8
160,192,163212,1,0
256,96,163512,1,8
288,224,163811,6,0,B|288:325|96:251|96:354,2,256
416,192,165310,5,8
352,64,165610,1,0
480,32,165909,1,8
384,128,166209,5,4
480,224,166509,2,0,L|480:352,3,128,8|0|8|0
352,352,167708,5,8
224,352,168007,1,0
320,256,168307,1,8
192,256,168607,6,0,B|97:191|16:240|32:352,3,256
160,352,170705,1,8
288,352,171004,6,0,L|416:352,3,128,4|8|0|8
320,256,172203,6,0,L|448:256,3,128,0|8|0|8
352,160,173402,6,0,L|480:160,3,128,4|12|0|12
384,64,174601,6,0,C|416:96,5,42.6666666666667,8|8|8|8|8|8
384,64,175200,2,0,C|416:32,5,42.6666666666667
384,64,175799,6,0,L|256:64,1,128,4|8
128,64,176399,2,0,L|256:64,1,128,0|8
256,192,176998,5,0
128,192,177298,1,8
128,320,177598,1,0
256,320,177897,1,8
384,320,178197,6,0,L|384:192,3,128,0|8|0|8
448,80,179396,5,0
320,80,179696,1,8
192,80,179995,1,0
64,80,180295,1,8
128,192,180595,6,0,B|52:181|32:256,1,128,4|8
160,288,181194,2,0,B|240:296|256:224,1,128,0|8
352,320,181793,5,0
448,224,182093,1,8
352,128,182393,1,0
448,32,182693,1,8
320,32,182992,6,0,L|192:32,4,128,0|8|0|8|0
410,122,184491,5,8
448,256,184790,1,0
352,352,185090,1,8
224,320,185390,5,4
256,192,185690,2,0,L|256:64,3,128,8|0|8|0
128,32,186888,5,8
32,128,187188,1,0
128,224,187488,1,8
224,128,187787,6,0,L|224:255,1,128,0|8
288,128,188387,2,0,L|288:256,1,128,0|8
352,128,188986,6,0,L|352:256,1,128,0|8
416,128,189586,1,0
416,256,189885,1,8
320,352,190185,6,0,L|192:352,1,128,4|8
64,288,190784,2,0,L|192:288,1,128,0|8
320,224,191384,6,0,L|192:224,1,128,0|8
64,160,191983,2,0,L|192:160,1,128,0|8
320,96,192583,5,4
192,96,192882,1,12
64,64,193182,1,0
192,32,193482,1,12
320,32,193781,5,0
448,64,194081,1,12
448,192,194381,2,0,C|491:192,5,42.6666666666667,8|8|8|8|8|8
448,192,194980,6,0,C|192:192,2,256,4|0|0
448,320,196479,5,8
320,352,196778,1,0
192,320,197078,1,8
192,192,197378,6,0,C|448:192,2,256,0|0|0
112,288,198876,5,12
32,192,199176,1,0
112,96,199476,1,12
192,192,199775,6,0,C|320:192,2,128,4|8|0
192,64,200675,2,0,C|278:64,1,85.3333333333333,8|8
320,64,200974,1,4
448,64,201274,1,4
480,192,201574,6,8,L|437:192,5,42.6666666666667,8|8|8|8|8|8
416,192,202173,5,4
384,320,202473,1,8
256,352,202773,1,0
128,320,203072,1,8
96,192,203372,5,0
128,64,203672,1,8
256,32,203971,1,0
384,64,204271,1,8
416,192,204571,5,0
320,288,204870,1,8
192,288,205170,1,0
96,192,205470,1,8
192,96,205770,5,0
320,96,206069,1,12
416,192,206369,1,0
288,224,206669,1,12
256,352,206968,5,4
224,224,207268,1,8
96,192,207568,1,0
112,64,207867,1,8
192,32,208067,1,8
192,32,208167,5,4
320,32,208467,1,4
256,144,208767,2,0,C|256:101,5,42.6666666666667,8|8|8|8|8|8
256,352,209666,5,8
32,192,210265,1,8
256,32,210864,1,8
480,192,211464,1,8
256,352,212063,5,8
480,192,212663,1,8
256,32,213262,1,8
32,192,213861,1,8
160,192,214161,5,4
288,192,214460,2,0,L|416:192,2,128,8|0|8
160,192,215360,5,0
112,256,215559,2,0,L|144:288,1,42.6666666666667,0|8
224,288,215859,2,0,B|304:344|384:288,1,170.666666666667,0|8
480,192,216558,5,0
352,224,216858,1,8
448,128,217158,1,0
320,160,217457,1,8
416,64,217757,6,0,L|288:64,1,128,0|8
160,64,218357,2,0,C|32:64,1,128,0|8
32,192,218956,6,0,B|32:336|96:368|256:368|416:368|480:336|480:191,1,640,4|8
368,256,220754,6,0,L|368:128,1,128,0|8
256,128,221354,2,0,L|256:256,1,128,0|8
144,256,221953,2,0,L|144:128,1,128,0|8
256,64,222553,6,0,C|216:48,2,42.6666666666667,8|8|8
256,64,222852,2,0,C|240:24,2,42.6666666666667
256,64,223152,2,0,C|272:24,2,42.6666666666667
256,64,223452,2,0,C|296:48,2,42.6666666666667
256,64,223752,1,4
256,208,223851,12,4,229845
