osu file format v14

[General]
AudioFilename: a.mp3
AudioLeadIn: 0
PreviewTime: 67408
Countdown: 0
SampleSet: Soft
StackLeniency: 0.7
Mode: 3
LetterboxInBreaks: 0
SpecialStyle: 0
WidescreenStoryboard: 1

[Editor]
Bookmarks: 83226,83862,88680,89771
DistanceSpacing: 1.2
BeatDivisor: 4
GridSize: 8
TimelineZoom: 1.3

[Metadata]
Title:Remote Control
TitleUnicode:Remote Control
Artist:Saiya
ArtistUnicode:Saiya
Creator:Luthfeh
Version:Insane
Source:
Tags:vocaloid Kagamine Len Rin [ kenon ]
BeatmapID:670099
BeatmapSetID:298585

[Difficulty]
HPDrainRate:7
CircleSize:4
OverallDifficulty:8
ApproachRate:5
SliderMultiplier:3.59999990463257
SliderTickRate:1

[Events]
//Background and Video events
0,0,"remokon.jpg",0,0
//Break Periods
//Storyboard Layer 0 (Background)
//Storyboard Layer 1 (Fail)
//Storyboard Layer 2 (Pass)
//Storyboard Layer 3 (Foreground)
//Storyboard Sound Samples

[TimingPoints]
1044,363.636363636364,4,2,0,0,1,0
1044,-142.857142857143,4,2,0,0,0,0
13771,-133.333333333333,4,2,0,0,0,0
14134,-125,4,2,0,0,0,0
14498,-117.647058823529,4,2,0,0,0,0
14862,-111.111111111111,4,2,0,0,0,0
15225,-105.263157894737,4,2,0,0,0,0
15589,-100,4,2,0,0,0,0
19953,-333.333333333333,4,2,0,0,0,0
20044,-58.8235294117647,4,2,0,0,0,0
20134,-333.333333333333,4,2,0,0,0,0
20225,-58.8235294117647,4,2,0,0,0,0
20316,-333.333333333333,4,2,0,0,0,0
20407,-58.8235294117647,4,2,0,0,0,0
20498,-333.333333333333,4,2,0,0,0,0
20589,-58.8235294117647,4,2,0,0,0,0
20680,-333.333333333333,4,2,0,0,0,0
20771,-58.8235294117647,4,2,0,0,0,0
20862,-333.333333333333,4,2,0,0,0,0
20953,-58.8235294117647,4,2,0,0,0,0
21044,-100,4,2,0,0,0,0
21134,-166.666666666667,4,2,0,0,0,0
21225,-333.333333333333,4,2,0,0,0,0
21316,-666.666666666667,4,2,0,0,0,0
21407,-100,4,2,0,0,0,0
65044,-333.333333333333,4,2,0,0,0,0
65134,-58.8235294117647,4,2,0,0,0,0
65225,-100,4,2,0,0,0,0
65771,-333.333333333333,4,2,0,0,0,0
65862,-58.8235294117647,4,2,0,0,0,0
65953,-100,4,2,0,0,0,0
67953,-100,4,2,0,0,0,1
80316,-100,4,2,0,0,0,0
83953,-100,4,2,0,0,0,1
95589,-100,4,2,0,0,0,0
104316,-333.333333333333,4,2,0,0,0,0
104407,-58.8235294117647,4,2,0,0,0,0
104498,-100,4,2,0,0,0,0
105044,-333.333333333333,4,2,0,0,0,0
105134,-58.8235294117647,4,2,0,0,0,0
105225,-100,4,2,0,0,0,0
108680,-100,4,2,0,0,0,1
131589,-100,4,2,0,0,0,0

[HitObjects]
64,192,1044,128,0,3953:0:0:0:0:
320,192,2498,128,0,2801:0:0:0:0:
448,192,2801,128,0,3044:0:0:0:0:
320,192,3225,128,0,3528:0:0:0:0:
448,192,3528,128,0,3771:0:0:0:0:
192,192,3953,1,0,0:0:0:0:
320,192,3953,1,0,0:0:0:0:
320,192,4134,1,0,0:0:0:0:
448,192,4316,1,0,0:0:0:0:
192,192,4316,1,0,0:0:0:0:
320,192,4407,1,0,0:0:0:0:
192,192,4498,1,0,0:0:0:0:
64,192,4589,1,0,0:0:0:0:
192,192,4680,1,0,0:0:0:0:
320,192,4771,1,0,0:0:0:0:
64,192,4862,1,0,0:0:0:0:
192,192,4862,1,0,0:0:0:0:
64,192,5044,1,0,0:0:0:0:
448,192,5044,1,0,0:0:0:0:
320,192,5044,1,0,0:0:0:0:
448,192,5407,1,0,0:0:0:0:
320,192,5407,1,0,0:0:0:0:
192,192,5407,1,0,0:0:0:0:
320,192,5589,1,0,0:0:0:0:
448,192,5771,1,0,0:0:0:0:
64,192,5771,1,0,0:0:0:0:
192,192,5771,1,0,0:0:0:0:
320,192,5862,1,0,0:0:0:0:
192,192,5953,1,0,0:0:0:0:
448,192,6044,1,0,0:0:0:0:
64,192,6134,1,0,0:0:0:0:
192,192,6225,1,0,0:0:0:0:
320,192,6225,1,0,0:0:0:0:
448,192,6316,1,0,0:0:0:0:
448,192,6498,128,0,6771:0:0:0:0:
64,192,6498,1,0,0:0:0:0:
320,192,6498,1,0,0:0:0:0:
192,192,6862,1,0,0:0:0:0:
320,192,6862,1,0,0:0:0:0:
64,192,6862,1,0,0:0:0:0:
448,192,7044,1,0,0:0:0:0:
192,192,7225,1,0,0:0:0:0:
64,192,7316,1,0,0:0:0:0:
320,192,7316,1,0,0:0:0:0:
448,192,7407,1,0,0:0:0:0:
320,192,7498,1,0,0:0:0:0:
192,192,7589,1,0,0:0:0:0:
64,192,7680,1,0,0:0:0:0:
320,192,7771,1,0,0:0:0:0:
192,192,7771,1,0,0:0:0:0:
64,192,7953,1,0,0:0:0:0:
448,192,7953,1,0,0:0:0:0:
320,192,7953,1,0,0:0:0:0:
192,192,8316,128,0,8680:0:0:0:0:
320,192,8316,128,0,8680:0:0:0:0:
64,192,8680,128,0,9044:0:0:0:0:
448,192,8680,128,0,9044:0:0:0:0:
320,192,9044,128,0,9407:0:0:0:0:
192,192,9044,128,0,9407:0:0:0:0:
64,192,9407,128,0,9589:0:0:0:0:
448,192,9407,128,0,9589:0:0:0:0:
320,192,9771,1,0,0:0:0:0:
64,192,9771,1,0,0:0:0:0:
448,192,9771,1,0,0:0:0:0:
320,192,9953,1,0,0:0:0:0:
448,192,10134,1,0,0:0:0:0:
64,192,10134,1,0,0:0:0:0:
192,192,10134,1,0,0:0:0:0:
320,192,10225,1,0,0:0:0:0:
192,192,10316,1,0,0:0:0:0:
64,192,10407,1,0,0:0:0:0:
192,192,10498,1,0,0:0:0:0:
320,192,10589,1,0,0:0:0:0:
192,192,10680,1,0,0:0:0:0:
64,192,10680,1,0,0:0:0:0:
448,192,10862,1,0,0:0:0:0:
64,192,10862,1,0,0:0:0:0:
320,192,10862,1,0,0:0:0:0:
320,192,11225,1,0,0:0:0:0:
448,192,11225,1,0,0:0:0:0:
192,192,11225,1,0,0:0:0:0:
320,192,11407,1,0,0:0:0:0:
64,192,11589,1,0,0:0:0:0:
192,192,11589,1,0,0:0:0:0:
448,192,11680,1,0,0:0:0:0:
320,192,11771,1,0,0:0:0:0:
192,192,11862,1,0,0:0:0:0:
64,192,11953,1,0,0:0:0:0:
320,192,12044,1,0,0:0:0:0:
192,192,12044,1,0,0:0:0:0:
448,192,12134,1,0,0:0:0:0:
64,192,12316,1,0,0:0:0:0:
320,192,12316,1,0,0:0:0:0:
448,192,12316,128,0,12589:0:0:0:0:
192,192,12680,1,0,0:0:0:0:
320,192,12680,1,0,0:0:0:0:
64,192,12680,1,0,0:0:0:0:
448,192,12862,1,0,0:0:0:0:
192,192,13044,1,0,0:0:0:0:
320,192,13134,1,0,0:0:0:0:
64,192,13134,1,0,0:0:0:0:
448,192,13225,1,0,0:0:0:0:
320,192,13316,1,0,0:0:0:0:
192,192,13407,1,0,0:0:0:0:
64,192,13498,1,0,0:0:0:0:
192,192,13589,1,0,0:0:0:0:
320,192,13589,1,0,0:0:0:0:
64,192,13771,1,0,0:0:0:0:
448,192,13771,1,0,0:0:0:0:
320,192,13771,1,0,0:0:0:0:
64,192,14134,128,0,15589:0:0:0:0:
320,192,14134,128,0,14498:0:0:0:0:
192,192,14498,128,0,14862:0:0:0:0:
448,192,14498,128,0,14862:0:0:0:0:
320,192,14862,128,0,15225:0:0:0:0:
192,192,15225,128,0,15407:0:0:0:0:
448,192,15407,1,0,0:0:0:0:
448,192,15589,1,0,0:0:0:0:
192,192,15589,1,0,0:0:0:0:
320,192,15680,1,0,0:0:0:0:
192,192,15771,1,0,0:0:0:0:
64,192,15862,1,0,0:0:0:0:
320,192,15953,1,0,0:0:0:0:
192,192,15953,1,0,0:0:0:0:
448,192,15953,1,0,0:0:0:0:
64,192,16044,1,0,0:0:0:0:
192,192,16134,1,0,0:0:0:0:
320,192,16225,1,0,0:0:0:0:
64,192,16316,1,0,0:0:0:0:
192,192,16316,1,0,0:0:0:0:
448,192,16316,1,0,0:0:0:0:
320,192,16407,1,0,0:0:0:0:
192,192,16498,1,0,0:0:0:0:
64,192,16589,1,0,0:0:0:0:
192,192,16680,1,0,0:0:0:0:
320,192,16680,1,0,0:0:0:0:
448,192,16680,1,0,0:0:0:0:
64,192,16771,1,0,0:0:0:0:
192,192,16862,1,0,0:0:0:0:
320,192,16953,1,0,0:0:0:0:
192,192,17044,1,0,0:0:0:0:
64,192,17044,1,0,0:0:0:0:
448,192,17044,1,0,0:0:0:0:
320,192,17134,1,0,0:0:0:0:
192,192,17225,1,0,0:0:0:0:
64,192,17316,1,0,0:0:0:0:
448,192,17407,1,0,0:0:0:0:
320,192,17407,1,0,0:0:0:0:
192,192,17407,1,0,0:0:0:0:
64,192,17498,1,0,0:0:0:0:
192,192,17589,1,0,0:0:0:0:
320,192,17680,1,0,0:0:0:0:
192,192,17771,1,0,0:0:0:0:
64,192,17771,1,0,0:0:0:0:
448,192,17771,1,0,0:0:0:0:
320,192,17862,1,0,0:0:0:0:
192,192,17953,1,0,0:0:0:0:
64,192,18044,1,0,0:0:0:0:
192,192,18134,1,0,0:0:0:0:
448,192,18134,1,0,0:0:0:0:
320,192,18134,1,0,0:0:0:0:
64,192,18225,1,0,0:0:0:0:
192,192,18316,1,0,0:0:0:0:
320,192,18407,1,0,0:0:0:0:
64,192,18498,1,0,0:0:0:0:
448,192,18498,1,0,0:0:0:0:
192,192,18498,1,0,0:0:0:0:
320,192,18589,1,0,0:0:0:0:
192,192,18680,1,0,0:0:0:0:
64,192,18771,1,0,0:0:0:0:
192,192,18862,1,0,0:0:0:0:
448,192,18862,1,0,0:0:0:0:
320,192,18862,1,0,0:0:0:0:
64,192,18953,1,0,0:0:0:0:
192,192,19044,1,0,0:0:0:0:
320,192,19134,1,0,0:0:0:0:
192,192,19225,1,0,0:0:0:0:
64,192,19225,1,0,0:0:0:0:
448,192,19225,1,0,0:0:0:0:
320,192,19316,1,0,0:0:0:0:
192,192,19407,1,0,0:0:0:0:
64,192,19498,1,0,0:0:0:0:
448,192,19589,1,0,0:0:0:0:
192,192,19589,1,0,0:0:0:0:
320,192,19589,1,0,0:0:0:0:
64,192,19680,1,0,0:0:0:0:
192,192,19771,1,0,0:0:0:0:
320,192,19862,1,0,0:0:0:0:
64,192,19953,1,0,0:0:0:0:
192,192,19953,1,0,0:0:0:0:
320,192,20134,1,0,0:0:0:0:
448,192,20134,1,0,0:0:0:0:
192,192,20316,1,0,0:0:0:0:
448,192,20316,1,0,0:0:0:0:
64,192,20498,1,0,0:0:0:0:
320,192,20498,1,0,0:0:0:0:
192,192,20680,1,0,0:0:0:0:
320,192,20680,1,0,0:0:0:0:
448,192,20862,1,0,0:0:0:0:
64,192,20862,1,0,0:0:0:0:
192,192,21044,128,0,21407:0:0:0:0:
64,192,21044,1,0,0:0:0:0:
320,192,21044,128,0,21407:0:0:0:0:
448,192,21044,1,0,0:0:0:0:
64,192,21407,1,0,0:0:0:0:
448,192,21407,128,0,22498:0:0:0:0:
320,192,21589,1,0,0:0:0:0:
192,192,21680,1,0,0:0:0:0:
64,192,21771,1,0,0:0:0:0:
320,192,21771,1,0,0:0:0:0:
192,192,21862,1,0,0:0:0:0:
320,192,21953,1,0,0:0:0:0:
64,192,22044,1,0,0:0:0:0:
320,192,22134,1,0,0:0:0:0:
192,192,22134,1,0,0:0:0:0:
64,192,22225,1,0,0:0:0:0:
192,192,22316,1,0,0:0:0:0:
320,192,22407,1,0,0:0:0:0:
64,192,22498,1,0,0:0:0:0:
192,192,22498,1,0,0:0:0:0:
64,192,22680,1,0,0:0:0:0:
192,192,22771,1,0,0:0:0:0:
320,192,22862,1,0,0:0:0:0:
448,192,22862,1,0,0:0:0:0:
64,192,22862,128,0,23953:0:0:0:0:
192,192,22953,1,0,0:0:0:0:
448,192,23044,1,0,0:0:0:0:
320,192,23134,1,0,0:0:0:0:
192,192,23225,1,0,0:0:0:0:
448,192,23225,1,0,0:0:0:0:
320,192,23316,1,0,0:0:0:0:
448,192,23407,1,0,0:0:0:0:
192,192,23498,1,0,0:0:0:0:
448,192,23589,1,0,0:0:0:0:
320,192,23589,1,0,0:0:0:0:
192,192,23680,1,0,0:0:0:0:
320,192,23771,1,0,0:0:0:0:
448,192,23862,1,0,0:0:0:0:
320,192,23953,1,0,0:0:0:0:
192,192,23953,128,0,24134:0:0:0:0:
320,192,24134,1,0,0:0:0:0:
448,192,24225,1,0,0:0:0:0:
320,192,24316,128,0,25407:0:0:0:0:
192,192,24316,1,0,0:0:0:0:
64,192,24316,1,0,0:0:0:0:
448,192,24407,1,0,0:0:0:0:
192,192,24498,1,0,0:0:0:0:
64,192,24589,1,0,0:0:0:0:
192,192,24680,1,0,0:0:0:0:
448,192,24680,1,0,0:0:0:0:
64,192,24771,1,0,0:0:0:0:
192,192,24862,1,0,0:0:0:0:
448,192,24953,1,0,0:0:0:0:
64,192,25044,1,0,0:0:0:0:
192,192,25044,1,0,0:0:0:0:
448,192,25134,1,0,0:0:0:0:
192,192,25225,1,0,0:0:0:0:
448,192,25316,1,0,0:0:0:0:
64,192,25407,1,0,0:0:0:0:
192,192,25498,1,0,0:0:0:0:
448,192,25589,1,0,0:0:0:0:
320,192,25680,1,0,0:0:0:0:
448,192,25771,128,0,26862:0:0:0:0:
64,192,25771,1,0,0:0:0:0:
192,192,25771,1,0,0:0:0:0:
320,192,25862,1,0,0:0:0:0:
64,192,25953,1,0,0:0:0:0:
192,192,26044,1,0,0:0:0:0:
320,192,26134,1,0,0:0:0:0:
64,192,26134,1,0,0:0:0:0:
192,192,26225,1,0,0:0:0:0:
64,192,26316,1,0,0:0:0:0:
320,192,26407,1,0,0:0:0:0:
64,192,26498,1,0,0:0:0:0:
192,192,26498,1,0,0:0:0:0:
320,192,26589,1,0,0:0:0:0:
64,192,26680,1,0,0:0:0:0:
192,192,26771,1,0,0:0:0:0:
64,192,26862,1,0,0:0:0:0:
320,192,26862,1,0,0:0:0:0:
192,192,26953,1,0,0:0:0:0:
320,192,27044,1,0,0:0:0:0:
448,192,27134,1,0,0:0:0:0:
64,192,27225,128,0,28316:0:0:0:0:
192,192,27225,1,0,0:0:0:0:
320,192,27225,1,0,0:0:0:0:
448,192,27316,1,0,0:0:0:0:
320,192,27407,1,0,0:0:0:0:
192,192,27498,1,0,0:0:0:0:
448,192,27589,1,0,0:0:0:0:
320,192,27589,1,0,0:0:0:0:
192,192,27680,1,0,0:0:0:0:
320,192,27771,1,0,0:0:0:0:
448,192,27862,1,0,0:0:0:0:
320,192,27953,1,0,0:0:0:0:
192,192,27953,1,0,0:0:0:0:
448,192,28044,1,0,0:0:0:0:
192,192,28134,1,0,0:0:0:0:
320,192,28225,1,0,0:0:0:0:
192,192,28316,1,0,0:0:0:0:
448,192,28316,1,0,0:0:0:0:
320,192,28407,1,0,0:0:0:0:
64,192,28498,1,0,0:0:0:0:
448,192,28589,1,0,0:0:0:0:
320,192,28680,128,0,29771:0:0:0:0:
192,192,28680,1,0,0:0:0:0:
64,192,28680,1,0,0:0:0:0:
448,192,28771,1,0,0:0:0:0:
192,192,28862,1,0,0:0:0:0:
64,192,28953,1,0,0:0:0:0:
192,192,29044,1,0,0:0:0:0:
448,192,29044,1,0,0:0:0:0:
64,192,29134,1,0,0:0:0:0:
192,192,29225,1,0,0:0:0:0:
448,192,29316,1,0,0:0:0:0:
192,192,29407,1,0,0:0:0:0:
64,192,29407,1,0,0:0:0:0:
448,192,29498,1,0,0:0:0:0:
192,192,29589,1,0,0:0:0:0:
64,192,29680,1,0,0:0:0:0:
448,192,29771,1,0,0:0:0:0:
192,192,29771,128,0,29953:0:0:0:0:
320,192,29953,1,0,0:0:0:0:
64,192,30044,1,0,0:0:0:0:
192,192,30134,128,0,31225:0:0:0:0:
320,192,30134,1,0,0:0:0:0:
448,192,30134,1,0,0:0:0:0:
64,192,30225,1,0,0:0:0:0:
320,192,30316,1,0,0:0:0:0:
448,192,30407,1,0,0:0:0:0:
320,192,30498,1,0,0:0:0:0:
64,192,30498,1,0,0:0:0:0:
448,192,30589,1,0,0:0:0:0:
320,192,30680,1,0,0:0:0:0:
64,192,30771,1,0,0:0:0:0:
320,192,30862,1,0,0:0:0:0:
448,192,30862,1,0,0:0:0:0:
64,192,30953,1,0,0:0:0:0:
320,192,31044,1,0,0:0:0:0:
448,192,31134,1,0,0:0:0:0:
320,192,31225,1,0,0:0:0:0:
64,192,31225,1,0,0:0:0:0:
448,192,31316,1,0,0:0:0:0:
192,192,31407,1,0,0:0:0:0:
64,192,31498,1,0,0:0:0:0:
448,192,31589,128,0,32680:0:0:0:0:
320,192,31589,128,0,31771:0:0:0:0:
64,192,31771,128,0,31953:0:0:0:0:
192,192,31953,128,0,32044:0:0:0:0:
192,192,32134,128,0,32316:0:0:0:0:
320,192,32316,128,0,32498:0:0:0:0:
64,192,32498,128,0,32680:0:0:0:0:
192,192,32680,128,0,32862:0:0:0:0:
64,192,33044,1,0,0:0:0:0:
320,192,33044,1,0,0:0:0:0:
192,192,33044,1,0,0:0:0:0:
192,192,33225,1,0,0:0:0:0:
64,192,33407,1,0,0:0:0:0:
448,192,33407,1,0,0:0:0:0:
320,192,33407,1,0,0:0:0:0:
192,192,33589,1,0,0:0:0:0:
320,192,33680,1,0,0:0:0:0:
64,192,33771,1,0,0:0:0:0:
192,192,33771,1,0,0:0:0:0:
320,192,33953,1,0,0:0:0:0:
64,192,34134,1,0,0:0:0:0:
448,192,34134,1,0,0:0:0:0:
192,192,34134,1,0,0:0:0:0:
320,192,34316,1,0,0:0:0:0:
192,192,34498,1,0,0:0:0:0:
320,192,34498,1,0,0:0:0:0:
448,192,34498,1,0,0:0:0:0:
320,192,34680,1,0,0:0:0:0:
64,192,34862,1,0,0:0:0:0:
448,192,34862,1,0,0:0:0:0:
192,192,34862,1,0,0:0:0:0:
320,192,35044,1,0,0:0:0:0:
192,192,35134,1,0,0:0:0:0:
320,192,35225,1,0,0:0:0:0:
448,192,35225,1,0,0:0:0:0:
192,192,35407,1,0,0:0:0:0:
64,192,35589,1,0,0:0:0:0:
448,192,35589,1,0,0:0:0:0:
320,192,35589,1,0,0:0:0:0:
192,192,35771,1,0,0:0:0:0:
64,192,35953,1,0,0:0:0:0:
192,192,35953,1,0,0:0:0:0:
320,192,35953,1,0,0:0:0:0:
192,192,36134,1,0,0:0:0:0:
64,192,36316,1,0,0:0:0:0:
448,192,36316,1,0,0:0:0:0:
320,192,36316,1,0,0:0:0:0:
192,192,36498,1,0,0:0:0:0:
320,192,36589,1,0,0:0:0:0:
64,192,36680,1,0,0:0:0:0:
192,192,36680,1,0,0:0:0:0:
320,192,36862,1,0,0:0:0:0:
64,192,37044,1,0,0:0:0:0:
192,192,37044,1,0,0:0:0:0:
448,192,37044,1,0,0:0:0:0:
320,192,37225,1,0,0:0:0:0:
192,192,37407,1,0,0:0:0:0:
448,192,37407,1,0,0:0:0:0:
320,192,37407,1,0,0:0:0:0:
320,192,37589,1,0,0:0:0:0:
64,192,37771,1,0,0:0:0:0:
192,192,37771,1,0,0:0:0:0:
448,192,37771,1,0,0:0:0:0:
320,192,37953,1,0,0:0:0:0:
192,192,38044,1,0,0:0:0:0:
320,192,38134,1,0,0:0:0:0:
448,192,38134,1,0,0:0:0:0:
192,192,38316,1,0,0:0:0:0:
64,192,38498,1,0,0:0:0:0:
320,192,38498,1,0,0:0:0:0:
448,192,38498,1,0,0:0:0:0:
192,192,38680,1,0,0:0:0:0:
64,192,38862,1,0,0:0:0:0:
192,192,38862,1,0,0:0:0:0:
320,192,38862,1,0,0:0:0:0:
192,192,39044,1,0,0:0:0:0:
64,192,39225,1,0,0:0:0:0:
320,192,39225,1,0,0:0:0:0:
448,192,39225,1,0,0:0:0:0:
192,192,39407,1,0,0:0:0:0:
320,192,39498,1,0,0:0:0:0:
64,192,39589,1,0,0:0:0:0:
192,192,39589,1,0,0:0:0:0:
320,192,39771,1,0,0:0:0:0:
64,192,39953,1,0,0:0:0:0:
192,192,39953,1,0,0:0:0:0:
448,192,39953,1,0,0:0:0:0:
320,192,40134,1,0,0:0:0:0:
192,192,40316,1,0,0:0:0:0:
320,192,40316,1,0,0:0:0:0:
448,192,40316,1,0,0:0:0:0:
320,192,40498,1,0,0:0:0:0:
64,192,40680,1,0,0:0:0:0:
192,192,40680,1,0,0:0:0:0:
448,192,40680,1,0,0:0:0:0:
320,192,40862,1,0,0:0:0:0:
192,192,40953,1,0,0:0:0:0:
320,192,41044,1,0,0:0:0:0:
448,192,41044,1,0,0:0:0:0:
192,192,41225,1,0,0:0:0:0:
64,192,41407,1,0,0:0:0:0:
320,192,41407,1,0,0:0:0:0:
448,192,41407,1,0,0:0:0:0:
192,192,41589,1,0,0:0:0:0:
64,192,41771,1,0,0:0:0:0:
192,192,41771,1,0,0:0:0:0:
320,192,41771,1,0,0:0:0:0:
192,192,41953,1,0,0:0:0:0:
64,192,42134,1,0,0:0:0:0:
320,192,42134,1,0,0:0:0:0:
448,192,42134,1,0,0:0:0:0:
192,192,42316,1,0,0:0:0:0:
320,192,42407,1,0,0:0:0:0:
64,192,42498,1,0,0:0:0:0:
192,192,42498,1,0,0:0:0:0:
320,192,42680,1,0,0:0:0:0:
64,192,42862,1,0,0:0:0:0:
192,192,42862,1,0,0:0:0:0:
448,192,42862,1,0,0:0:0:0:
320,192,43044,1,0,0:0:0:0:
192,192,43225,1,0,0:0:0:0:
320,192,43225,1,0,0:0:0:0:
448,192,43225,1,0,0:0:0:0:
320,192,43407,1,0,0:0:0:0:
64,192,43589,1,0,0:0:0:0:
192,192,43589,1,0,0:0:0:0:
448,192,43589,1,0,0:0:0:0:
320,192,43771,1,0,0:0:0:0:
192,192,43862,1,0,0:0:0:0:
320,192,43953,1,0,0:0:0:0:
448,192,43953,1,0,0:0:0:0:
64,192,44134,1,0,0:0:0:0:
192,192,44134,1,0,0:0:0:0:
320,192,44316,1,0,0:0:0:0:
448,192,44316,128,0,44498:0:0:0:0:
192,192,44316,1,0,0:0:0:0:
64,192,44498,1,0,0:0:0:0:
192,192,44498,1,0,0:0:0:0:
192,192,44680,1,0,0:0:0:0:
320,192,44680,1,0,0:0:0:0:
64,192,44862,1,0,0:0:0:0:
448,192,44953,1,0,0:0:0:0:
64,192,45044,1,0,0:0:0:0:
320,192,45044,1,0,0:0:0:0:
192,192,45225,1,0,0:0:0:0:
320,192,45407,1,0,0:0:0:0:
192,192,45407,1,0,0:0:0:0:
448,192,45407,1,0,0:0:0:0:
320,192,45589,128,0,45771:0:0:0:0:
64,192,45589,128,0,45771:0:0:0:0:
448,192,45771,1,0,0:0:0:0:
192,192,45771,1,0,0:0:0:0:
64,192,45953,1,0,0:0:0:0:
192,192,46134,1,0,0:0:0:0:
320,192,46134,1,0,0:0:0:0:
448,192,46316,1,0,0:0:0:0:
64,192,46407,1,0,0:0:0:0:
448,192,46498,1,0,0:0:0:0:
192,192,46498,1,0,0:0:0:0:
320,192,46680,1,0,0:0:0:0:
192,192,46862,1,0,0:0:0:0:
320,192,46862,1,0,0:0:0:0:
64,192,46862,1,0,0:0:0:0:
192,192,47044,128,0,47225:0:0:0:0:
448,192,47044,128,0,47225:0:0:0:0:
320,192,47225,1,0,0:0:0:0:
64,192,47225,1,0,0:0:0:0:
448,192,47407,1,0,0:0:0:0:
320,192,47589,1,0,0:0:0:0:
192,192,47589,1,0,0:0:0:0:
64,192,47771,1,0,0:0:0:0:
448,192,47862,1,0,0:0:0:0:
64,192,47953,1,0,0:0:0:0:
320,192,47953,1,0,0:0:0:0:
192,192,48134,1,0,0:0:0:0:
320,192,48316,1,0,0:0:0:0:
192,192,48316,1,0,0:0:0:0:
448,192,48316,1,0,0:0:0:0:
320,192,48498,128,0,48680:0:0:0:0:
64,192,48498,128,0,48680:0:0:0:0:
192,192,48680,1,0,0:0:0:0:
448,192,48680,1,0,0:0:0:0:
320,192,48862,1,0,0:0:0:0:
64,192,49044,128,0,49225:0:0:0:0:
320,192,49044,128,0,49225:0:0:0:0:
192,192,49225,128,0,49407:0:0:0:0:
320,192,49407,1,0,0:0:0:0:
448,192,49407,1,0,0:0:0:0:
192,192,49589,128,0,49771:0:0:0:0:
320,192,49589,1,0,0:0:0:0:
448,192,49589,1,0,0:0:0:0:
448,192,49771,128,0,49953:0:0:0:0:
64,192,49771,128,0,49953:0:0:0:0:
192,192,49953,128,0,50134:0:0:0:0:
320,192,50134,128,0,50316:0:0:0:0:
448,192,50134,128,0,50316:0:0:0:0:
192,192,50498,1,0,0:0:0:0:
320,192,50498,1,0,0:0:0:0:
448,192,50680,128,0,50862:0:0:0:0:
64,192,50680,1,0,0:0:0:0:
192,192,50771,1,0,0:0:0:0:
64,192,50862,1,0,0:0:0:0:
320,192,50862,1,0,0:0:0:0:
192,192,51044,1,0,0:0:0:0:
64,192,51044,128,0,51225:0:0:0:0:
192,192,51225,1,0,0:0:0:0:
320,192,51225,1,0,0:0:0:0:
64,192,51407,128,0,51589:0:0:0:0:
320,192,51407,1,0,0:0:0:0:
192,192,51589,1,0,0:0:0:0:
448,192,51589,1,0,0:0:0:0:
320,192,51771,1,0,0:0:0:0:
448,192,51771,128,0,51953:0:0:0:0:
320,192,51953,1,0,0:0:0:0:
192,192,51953,1,0,0:0:0:0:
448,192,52134,128,0,52316:0:0:0:0:
64,192,52134,1,0,0:0:0:0:
192,192,52225,1,0,0:0:0:0:
320,192,52316,1,0,0:0:0:0:
64,192,52316,1,0,0:0:0:0:
192,192,52498,1,0,0:0:0:0:
64,192,52498,128,0,52680:0:0:0:0:
320,192,52680,1,0,0:0:0:0:
192,192,52680,1,0,0:0:0:0:
320,192,52862,1,0,0:0:0:0:
64,192,52862,128,0,53044:0:0:0:0:
192,192,53044,1,0,0:0:0:0:
448,192,53044,1,0,0:0:0:0:
320,192,53225,1,0,0:0:0:0:
448,192,53225,128,0,53407:0:0:0:0:
192,192,53407,1,0,0:0:0:0:
320,192,53407,1,0,0:0:0:0:
64,192,53589,1,0,0:0:0:0:
448,192,53589,128,0,53771:0:0:0:0:
64,192,53771,1,0,0:0:0:0:
320,192,53771,1,0,0:0:0:0:
192,192,53953,1,0,0:0:0:0:
64,192,53953,128,0,54134:0:0:0:0:
192,192,54134,1,0,0:0:0:0:
320,192,54134,1,0,0:0:0:0:
64,192,54316,128,0,54498:0:0:0:0:
320,192,54316,1,0,0:0:0:0:
448,192,54498,1,0,0:0:0:0:
192,192,54498,1,0,0:0:0:0:
192,192,54680,1,0,0:0:0:0:
320,192,54862,128,0,55044:0:0:0:0:
64,192,54862,128,0,55044:0:0:0:0:
192,192,55044,128,0,55225:0:0:0:0:
320,192,55225,128,0,55316:0:0:0:0:
448,192,55225,128,0,55316:0:0:0:0:
192,192,55407,128,0,55589:0:0:0:0:
320,192,55407,1,0,0:0:0:0:
448,192,55407,1,0,0:0:0:0:
448,192,55589,128,0,55771:0:0:0:0:
320,192,55589,128,0,55771:0:0:0:0:
192,192,55771,128,0,55953:0:0:0:0:
64,192,55771,1,0,0:0:0:0:
320,192,55953,128,0,56134:0:0:0:0:
448,192,55953,128,0,56134:0:0:0:0:
64,192,55953,1,0,0:0:0:0:
64,192,56134,1,0,0:0:0:0:
192,192,56316,1,0,0:0:0:0:
320,192,56316,1,0,0:0:0:0:
448,192,56316,128,0,58862:0:0:0:0:
192,192,56498,1,0,0:0:0:0:
64,192,56498,128,0,56680:0:0:0:0:
320,192,56680,1,0,0:0:0:0:
192,192,56862,1,0,0:0:0:0:
64,192,57044,1,0,0:0:0:0:
192,192,57044,1,0,0:0:0:0:
192,192,57225,1,0,0:0:0:0:
320,192,57225,128,0,57407:0:0:0:0:
64,192,57407,1,0,0:0:0:0:
192,192,57589,1,0,0:0:0:0:
192,192,57771,1,0,0:0:0:0:
320,192,57771,1,0,0:0:0:0:
192,192,57953,1,0,0:0:0:0:
64,192,57953,128,0,58134:0:0:0:0:
320,192,58134,1,0,0:0:0:0:
192,192,58316,1,0,0:0:0:0:
192,192,58498,1,0,0:0:0:0:
320,192,58498,1,0,0:0:0:0:
192,192,58680,1,0,0:0:0:0:
64,192,58680,128,0,58862:0:0:0:0:
320,192,58862,128,0,59044:0:0:0:0:
192,192,59044,128,0,59225:0:0:0:0:
448,192,59044,1,0,0:0:0:0:
64,192,59225,128,0,61771:0:0:0:0:
320,192,59225,1,0,0:0:0:0:
448,192,59225,1,0,0:0:0:0:
320,192,59407,1,0,0:0:0:0:
192,192,59407,128,0,59589:0:0:0:0:
448,192,59589,1,0,0:0:0:0:
320,192,59771,1,0,0:0:0:0:
192,192,59953,1,0,0:0:0:0:
320,192,59953,1,0,0:0:0:0:
320,192,60134,1,0,0:0:0:0:
448,192,60134,128,0,60316:0:0:0:0:
192,192,60316,1,0,0:0:0:0:
320,192,60498,1,0,0:0:0:0:
320,192,60680,1,0,0:0:0:0:
448,192,60680,1,0,0:0:0:0:
320,192,60862,1,0,0:0:0:0:
192,192,60862,128,0,61044:0:0:0:0:
448,192,61044,1,0,0:0:0:0:
320,192,61225,1,0,0:0:0:0:
192,192,61407,1,0,0:0:0:0:
320,192,61407,1,0,0:0:0:0:
320,192,61589,1,0,0:0:0:0:
448,192,61589,128,0,61771:0:0:0:0:
192,192,61771,128,0,62134:0:0:0:0:
320,192,61953,1,0,0:0:0:0:
448,192,62134,128,0,64953:0:0:0:0:
64,192,62134,1,0,0:0:0:0:
320,192,62134,1,0,0:0:0:0:
192,192,62316,1,0,0:0:0:0:
64,192,62316,128,0,62498:0:0:0:0:
320,192,62498,1,0,0:0:0:0:
192,192,62680,1,0,0:0:0:0:
192,192,62862,1,0,0:0:0:0:
64,192,62862,1,0,0:0:0:0:
192,192,63044,1,0,0:0:0:0:
320,192,63044,128,0,63225:0:0:0:0:
64,192,63225,1,0,0:0:0:0:
192,192,63407,1,0,0:0:0:0:
192,192,63589,1,0,0:0:0:0:
320,192,63589,1,0,0:0:0:0:
192,192,63771,1,0,0:0:0:0:
64,192,63771,128,0,63953:0:0:0:0:
320,192,63953,1,0,0:0:0:0:
192,192,64134,1,0,0:0:0:0:
64,192,64316,1,0,0:0:0:0:
192,192,64316,1,0,0:0:0:0:
192,192,64498,1,0,0:0:0:0:
320,192,64498,128,0,64680:0:0:0:0:
64,192,64680,1,0,0:0:0:0:
192,192,64862,1,0,0:0:0:0:
64,192,65044,1,0,0:0:0:0:
192,192,65044,1,0,0:0:0:0:
320,192,65044,1,0,0:0:0:0:
448,192,65044,1,0,0:0:0:0:
192,192,65225,1,0,0:0:0:0:
320,192,65225,1,0,0:0:0:0:
64,192,65771,1,0,0:0:0:0:
192,192,65771,1,0,0:0:0:0:
320,192,65771,1,0,0:0:0:0:
448,192,65771,1,0,0:0:0:0:
192,192,65953,1,0,0:0:0:0:
320,192,65953,1,0,0:0:0:0:
64,192,66316,128,0,66680:0:0:0:0:
448,192,66316,128,0,66680:0:0:0:0:
192,192,66680,128,0,66862:0:0:0:0:
320,192,66680,128,0,66862:0:0:0:0:
64,192,66862,128,0,67044:0:0:0:0:
448,192,66862,128,0,67044:0:0:0:0:
192,192,67044,1,0,0:0:0:0:
320,192,67044,1,0,0:0:0:0:
192,192,67589,1,0,0:0:0:0:
192,192,67953,128,0,69407:0:0:0:0:
320,192,67953,1,0,0:0:0:0:
448,192,67953,1,0,0:0:0:0:
64,192,67953,1,0,0:0:0:0:
448,192,68134,128,0,68316:0:0:0:0:
320,192,68134,1,0,0:0:0:0:
64,192,68316,1,0,0:0:0:0:
320,192,68498,1,0,0:0:0:0:
320,192,68680,1,0,0:0:0:0:
448,192,68680,1,0,0:0:0:0:
64,192,68680,1,0,0:0:0:0:
448,192,68862,128,0,69044:0:0:0:0:
320,192,68862,1,0,0:0:0:0:
64,192,69044,1,0,0:0:0:0:
320,192,69225,1,0,0:0:0:0:
448,192,69407,128,0,70862:0:0:0:0:
320,192,69407,1,0,0:0:0:0:
64,192,69407,1,0,0:0:0:0:
64,192,69589,128,0,69771:0:0:0:0:
192,192,69589,1,0,0:0:0:0:
320,192,69771,1,0,0:0:0:0:
192,192,69953,1,0,0:0:0:0:
64,192,70134,1,0,0:0:0:0:
192,192,70134,1,0,0:0:0:0:
320,192,70316,128,0,70498:0:0:0:0:
192,192,70316,1,0,0:0:0:0:
64,192,70498,1,0,0:0:0:0:
192,192,70680,1,0,0:0:0:0:
64,192,70862,128,0,72316:0:0:0:0:
192,192,70862,1,0,0:0:0:0:
320,192,70862,1,0,0:0:0:0:
320,192,71044,1,0,0:0:0:0:
448,192,71044,128,0,71225:0:0:0:0:
192,192,71225,1,0,0:0:0:0:
320,192,71407,1,0,0:0:0:0:
320,192,71589,1,0,0:0:0:0:
448,192,71589,1,0,0:0:0:0:
320,192,71771,1,0,0:0:0:0:
192,192,71771,128,0,71953:0:0:0:0:
448,192,71953,1,0,0:0:0:0:
320,192,72134,1,0,0:0:0:0:
320,192,72316,128,0,73771:0:0:0:0:
192,192,72316,1,0,0:0:0:0:
448,192,72316,128,0,72498:0:0:0:0:
64,192,72498,128,0,72680:0:0:0:0:
192,192,72680,128,0,72862:0:0:0:0:
64,192,72862,128,0,73044:0:0:0:0:
448,192,73044,128,0,73225:0:0:0:0:
192,192,73225,128,0,73407:0:0:0:0:
64,192,73407,128,0,73498:0:0:0:0:
192,192,73589,1,0,0:0:0:0:
192,192,73771,128,0,75225:0:0:0:0:
64,192,73771,1,0,0:0:0:0:
448,192,73771,1,0,0:0:0:0:
320,192,73953,1,0,0:0:0:0:
448,192,73953,128,0,74134:0:0:0:0:
64,192,74134,1,0,0:0:0:0:
320,192,74316,1,0,0:0:0:0:
64,192,74498,1,0,0:0:0:0:
320,192,74498,1,0,0:0:0:0:
320,192,74680,1,0,0:0:0:0:
448,192,74680,128,0,74862:0:0:0:0:
64,192,74862,1,0,0:0:0:0:
320,192,75044,1,0,0:0:0:0:
448,192,75225,128,0,76680:0:0:0:0:
320,192,75225,1,0,0:0:0:0:
64,192,75225,128,0,75589:0:0:0:0:
320,192,75589,128,0,75953:0:0:0:0:
192,192,75589,1,0,0:0:0:0:
192,192,75953,128,0,76316:0:0:0:0:
64,192,75953,1,0,0:0:0:0:
64,192,76316,1,0,0:0:0:0:
320,192,76316,128,0,76498:0:0:0:0:
192,192,76498,128,0,76680:0:0:0:0:
64,192,76680,128,0,78134:0:0:0:0:
320,192,76680,1,0,0:0:0:0:
320,192,76862,1,0,0:0:0:0:
448,192,76862,128,0,77044:0:0:0:0:
192,192,77044,1,0,0:0:0:0:
320,192,77225,1,0,0:0:0:0:
192,192,77407,1,0,0:0:0:0:
320,192,77407,1,0,0:0:0:0:
320,192,77589,1,0,0:0:0:0:
448,192,77589,128,0,77771:0:0:0:0:
192,192,77771,1,0,0:0:0:0:
320,192,77953,1,0,0:0:0:0:
448,192,78134,128,0,78316:0:0:0:0:
192,192,78134,128,0,78316:0:0:0:0:
320,192,78134,128,0,78316:0:0:0:0:
64,192,78498,128,0,78680:0:0:0:0:
448,192,78498,128,0,78680:0:0:0:0:
192,192,78498,128,0,78680:0:0:0:0:
64,192,78862,128,0,79044:0:0:0:0:
320,192,78862,128,0,79044:0:0:0:0:
192,192,78862,128,0,79044:0:0:0:0:
64,192,79225,128,0,79407:0:0:0:0:
448,192,79225,128,0,79407:0:0:0:0:
192,192,79225,128,0,79407:0:0:0:0:
320,192,79225,128,0,79407:0:0:0:0:
64,192,79589,1,0,0:0:0:0:
192,192,79589,1,0,0:0:0:0:
320,192,79589,1,0,0:0:0:0:
448,192,79771,1,0,0:0:0:0:
192,192,79953,1,0,0:0:0:0:
320,192,79953,1,0,0:0:0:0:
448,192,79953,1,0,0:0:0:0:
64,192,80134,1,0,0:0:0:0:
64,192,80316,128,0,81044:0:0:0:0:
448,192,80316,128,0,81044:0:0:0:0:
192,192,81044,128,0,81407:0:0:0:0:
320,192,81044,128,0,81407:0:0:0:0:
64,192,81407,128,0,81771:0:0:0:0:
448,192,81407,128,0,81771:0:0:0:0:
192,192,81771,128,0,81953:0:0:0:0:
320,192,81771,128,0,81953:0:0:0:0:
64,192,81953,128,0,82134:0:0:0:0:
448,192,81953,128,0,82134:0:0:0:0:
192,192,82134,1,0,0:0:0:0:
320,192,82134,1,0,0:0:0:0:
64,192,82225,1,0,0:0:0:0:
448,192,82225,1,0,0:0:0:0:
192,192,82316,1,0,0:0:0:0:
320,192,82316,1,0,0:0:0:0:
448,192,82407,1,0,0:0:0:0:
320,192,82453,1,0,0:0:0:0:
64,192,82498,1,0,0:0:0:0:
192,192,82498,1,0,0:0:0:0:
192,192,83953,128,0,84134:0:0:0:0:
320,192,83953,128,0,84134:0:0:0:0:
64,192,84316,1,0,0:0:0:0:
192,192,84316,1,0,0:0:0:0:
192,192,84498,1,0,0:0:0:0:
320,192,84498,1,0,0:0:0:0:
320,192,84680,1,0,0:0:0:0:
448,192,84680,1,0,0:0:0:0:
192,192,84771,1,0,0:0:0:0:
64,192,84862,1,0,0:0:0:0:
320,192,85044,128,0,85225:0:0:0:0:
448,192,85044,128,0,85225:0:0:0:0:
64,192,85407,128,0,86134:0:0:0:0:
192,192,85407,128,0,86134:0:0:0:0:
320,192,86134,1,0,0:0:0:0:
448,192,86225,1,0,0:0:0:0:
320,192,86316,1,0,0:0:0:0:
64,192,86498,1,0,0:0:0:0:
320,192,86498,1,0,0:0:0:0:
192,192,86589,1,0,0:0:0:0:
320,192,86680,1,0,0:0:0:0:
448,192,86771,1,0,0:0:0:0:
64,192,86862,128,0,87044:0:0:0:0:
192,192,87134,1,0,0:0:0:0:
320,192,87180,1,0,0:0:0:0:
448,192,87225,1,0,0:0:0:0:
64,192,87316,1,0,0:0:0:0:
320,192,87407,1,0,0:0:0:0:
320,192,87589,128,0,88316:0:0:0:0:
192,192,88316,1,0,0:0:0:0:
64,192,88437,1,0,0:0:0:0:
192,192,88498,1,0,0:0:0:0:
320,192,88559,1,0,0:0:0:0:
64,192,88589,128,0,88953:0:0:0:0:
448,192,88680,128,0,89771:0:0:0:0:
64,192,89044,128,0,89771:0:0:0:0:
320,192,89407,128,0,89771:0:0:0:0:
192,192,89771,1,0,0:0:0:0:
320,192,89953,1,0,0:0:0:0:
192,192,90044,1,0,0:0:0:0:
448,192,90225,1,0,0:0:0:0:
320,192,90316,1,0,0:0:0:0:
192,192,90407,1,0,0:0:0:0:
64,192,90498,1,0,0:0:0:0:
192,192,90589,1,0,0:0:0:0:
320,192,90680,1,0,0:0:0:0:
448,192,90771,1,0,0:0:0:0:
320,192,90862,1,0,0:0:0:0:
192,192,90953,1,0,0:0:0:0:
64,192,91044,1,0,0:0:0:0:
192,192,91134,1,0,0:0:0:0:
320,192,91180,1,0,0:0:0:0:
448,192,91225,1,0,0:0:0:0:
320,192,91316,1,0,0:0:0:0:
192,192,91407,1,0,0:0:0:0:
64,192,91498,1,0,0:0:0:0:
448,192,91589,1,0,0:0:0:0:
320,192,91650,1,0,0:0:0:0:
192,192,91710,1,0,0:0:0:0:
64,192,91771,1,0,0:0:0:0:
448,192,91831,1,0,0:0:0:0:
320,192,91892,1,0,0:0:0:0:
192,192,91953,1,0,0:0:0:0:
64,192,92013,1,0,0:0:0:0:
448,192,92074,1,0,0:0:0:0:
320,192,92134,1,0,0:0:0:0:
192,192,92195,1,0,0:0:0:0:
64,192,92256,1,0,0:0:0:0:
320,192,92316,128,0,92498:0:0:0:0:
64,192,92680,128,0,92862:0:0:0:0:
320,192,92680,128,0,92862:0:0:0:0:
192,192,93044,128,0,93225:0:0:0:0:
320,192,93044,128,0,93225:0:0:0:0:
64,192,93407,128,0,93589:0:0:0:0:
192,192,93407,128,0,93589:0:0:0:0:
320,192,93771,128,0,93953:0:0:0:0:
448,192,93771,128,0,93953:0:0:0:0:
192,192,94134,128,0,94316:0:0:0:0:
320,192,94498,128,0,94680:0:0:0:0:
192,192,94862,1,0,0:0:0:0:
320,192,94862,1,0,0:0:0:0:
64,192,94862,128,0,95225:0:0:0:0:
448,192,94862,128,0,95225:0:0:0:0:
192,192,95044,1,0,0:0:0:0:
320,192,95225,1,0,0:0:0:0:
64,192,95407,1,0,0:0:0:0:
192,192,95589,1,0,0:0:0:0:
320,192,95589,1,0,0:0:0:0:
64,192,95589,1,0,0:0:0:0:
448,192,95771,128,0,95953:0:0:0:0:
192,192,95771,1,0,0:0:0:0:
64,192,95953,1,0,0:0:0:0:
320,192,95953,1,0,0:0:0:0:
192,192,96134,1,0,0:0:0:0:
192,192,96316,1,0,0:0:0:0:
320,192,96316,1,0,0:0:0:0:
448,192,96316,1,0,0:0:0:0:
64,192,96498,128,0,96680:0:0:0:0:
320,192,96498,1,0,0:0:0:0:
448,192,96680,1,0,0:0:0:0:
192,192,96680,1,0,0:0:0:0:
320,192,96862,1,0,0:0:0:0:
64,192,97044,1,0,0:0:0:0:
192,192,97044,1,0,0:0:0:0:
320,192,97044,1,0,0:0:0:0:
448,192,97225,128,0,97407:0:0:0:0:
192,192,97225,1,0,0:0:0:0:
64,192,97407,1,0,0:0:0:0:
320,192,97407,1,0,0:0:0:0:
192,192,97589,1,0,0:0:0:0:
192,192,97771,1,0,0:0:0:0:
320,192,97771,1,0,0:0:0:0:
448,192,97771,1,0,0:0:0:0:
64,192,97953,128,0,98134:0:0:0:0:
320,192,97953,1,0,0:0:0:0:
192,192,98134,1,0,0:0:0:0:
448,192,98134,1,0,0:0:0:0:
320,192,98316,1,0,0:0:0:0:
448,192,98498,128,0,99589:0:0:0:0:
320,192,98498,1,0,0:0:0:0:
64,192,98498,1,0,0:0:0:0:
192,192,98680,1,0,0:0:0:0:
64,192,98862,1,0,0:0:0:0:
320,192,98862,1,0,0:0:0:0:
192,192,99044,1,0,0:0:0:0:
64,192,99225,1,0,0:0:0:0:
320,192,99225,1,0,0:0:0:0:
192,192,99407,1,0,0:0:0:0:
64,192,99589,1,0,0:0:0:0:
320,192,99589,1,0,0:0:0:0:
192,192,99589,128,0,99953:0:0:0:0:
320,192,99953,128,0,100498:0:0:0:0:
64,192,100498,128,0,100862:0:0:0:0:
448,192,100862,128,0,101044:0:0:0:0:
64,192,101044,1,0,0:0:0:0:
320,192,101044,1,0,0:0:0:0:
192,192,101225,1,0,0:0:0:0:
64,192,101407,128,0,102498:0:0:0:0:
192,192,101407,1,0,0:0:0:0:
320,192,101407,1,0,0:0:0:0:
448,192,101589,128,0,101771:0:0:0:0:
192,192,101771,1,0,0:0:0:0:
320,192,101953,1,0,0:0:0:0:
320,192,102134,1,0,0:0:0:0:
448,192,102134,1,0,0:0:0:0:
320,192,102316,1,0,0:0:0:0:
192,192,102316,128,0,102498:0:0:0:0:
448,192,102498,1,0,0:0:0:0:
320,192,102680,1,0,0:0:0:0:
64,192,102862,1,0,0:0:0:0:
192,192,102862,1,0,0:0:0:0:
320,192,102862,1,0,0:0:0:0:
448,192,103044,128,0,103225:0:0:0:0:
192,192,103044,1,0,0:0:0:0:
64,192,103225,1,0,0:0:0:0:
320,192,103225,1,0,0:0:0:0:
192,192,103407,1,0,0:0:0:0:
192,192,103589,1,0,0:0:0:0:
320,192,103589,1,0,0:0:0:0:
448,192,103589,1,0,0:0:0:0:
320,192,103771,1,0,0:0:0:0:
64,192,103953,1,0,0:0:0:0:
192,192,103953,1,0,0:0:0:0:
448,192,103953,1,0,0:0:0:0:
320,192,104134,1,0,0:0:0:0:
64,192,104316,1,0,0:0:0:0:
448,192,104316,1,0,0:0:0:0:
192,192,104316,1,0,0:0:0:0:
320,192,104316,1,0,0:0:0:0:
320,192,104498,1,0,0:0:0:0:
192,192,104498,1,0,0:0:0:0:
448,192,105044,1,0,0:0:0:0:
64,192,105044,1,0,0:0:0:0:
320,192,105044,1,0,0:0:0:0:
192,192,105044,1,0,0:0:0:0:
192,192,105225,1,0,0:0:0:0:
320,192,105225,1,0,0:0:0:0:
320,192,105589,128,0,105953:0:0:0:0:
192,192,105589,128,0,105953:0:0:0:0:
64,192,105953,128,0,106134:0:0:0:0:
448,192,105953,128,0,106134:0:0:0:0:
192,192,106134,128,0,106316:0:0:0:0:
320,192,106134,128,0,106316:0:0:0:0:
64,192,106316,128,0,106498:0:0:0:0:
448,192,106316,128,0,106498:0:0:0:0:
64,192,107044,128,0,107407:0:0:0:0:
448,192,107044,128,0,107407:0:0:0:0:
192,192,107407,128,0,107589:0:0:0:0:
320,192,107407,128,0,107589:0:0:0:0:
64,192,107589,128,0,107771:0:0:0:0:
448,192,107589,128,0,107771:0:0:0:0:
192,192,107771,1,0,0:0:0:0:
320,192,107771,1,0,0:0:0:0:
192,192,108498,128,0,108680:0:0:0:0:
320,192,108498,128,0,108680:0:0:0:0:
448,192,108680,1,0,0:0:0:0:
64,192,108680,128,0,108862:0:0:0:0:
192,192,108862,128,0,109044:0:0:0:0:
320,192,108862,128,0,109044:0:0:0:0:
448,192,109044,1,0,0:0:0:0:
64,192,109044,1,0,0:0:0:0:
192,192,109225,128,0,109407:0:0:0:0:
320,192,109225,128,0,109407:0:0:0:0:
64,192,109407,128,0,109589:0:0:0:0:
448,192,109407,1,0,0:0:0:0:
192,192,109589,1,0,0:0:0:0:
320,192,109589,1,0,0:0:0:0:
448,192,109771,128,0,110134:0:0:0:0:
64,192,109771,1,0,0:0:0:0:
192,192,109771,1,0,0:0:0:0:
320,192,109771,1,0,0:0:0:0:
320,192,110134,128,0,110498:0:0:0:0:
192,192,110134,1,0,0:0:0:0:
64,192,110134,1,0,0:0:0:0:
192,192,110498,128,0,110862:0:0:0:0:
64,192,110498,1,0,0:0:0:0:
448,192,110498,1,0,0:0:0:0:
64,192,110862,128,0,111225:0:0:0:0:
320,192,110862,1,0,0:0:0:0:
448,192,110862,1,0,0:0:0:0:
448,192,111225,128,0,111407:0:0:0:0:
192,192,111225,128,0,111407:0:0:0:0:
320,192,111407,128,0,111589:0:0:0:0:
192,192,111589,1,0,0:0:0:0:
64,192,111589,1,0,0:0:0:0:
448,192,111589,1,0,0:0:0:0:
448,192,111771,128,0,111953:0:0:0:0:
192,192,111771,1,0,0:0:0:0:
320,192,111953,1,0,0:0:0:0:
64,192,111953,1,0,0:0:0:0:
192,192,112134,1,0,0:0:0:0:
192,192,112316,1,0,0:0:0:0:
320,192,112316,1,0,0:0:0:0:
448,192,112316,1,0,0:0:0:0:
64,192,112498,128,0,112680:0:0:0:0:
320,192,112498,1,0,0:0:0:0:
192,192,112680,1,0,0:0:0:0:
448,192,112680,1,0,0:0:0:0:
320,192,112862,1,0,0:0:0:0:
192,192,113044,1,0,0:0:0:0:
64,192,113044,128,0,113225:0:0:0:0:
320,192,113044,1,0,0:0:0:0:
192,192,113225,128,0,113407:0:0:0:0:
448,192,113225,1,0,0:0:0:0:
448,192,113407,128,0,113589:0:0:0:0:
320,192,113589,128,0,113771:0:0:0:0:
64,192,113589,1,0,0:0:0:0:
192,192,113771,128,0,113953:0:0:0:0:
448,192,113953,128,0,114134:0:0:0:0:
64,192,114134,1,0,0:0:0:0:
320,192,114134,1,0,0:0:0:0:
192,192,114316,1,0,0:0:0:0:
448,192,114316,128,0,114498:0:0:0:0:
192,192,114498,1,0,0:0:0:0:
320,192,114498,1,0,0:0:0:0:
320,192,114680,1,0,0:0:0:0:
64,192,114680,128,0,114862:0:0:0:0:
192,192,114862,1,0,0:0:0:0:
448,192,114862,1,0,0:0:0:0:
320,192,115044,1,0,0:0:0:0:
64,192,115225,1,0,0:0:0:0:
320,192,115225,1,0,0:0:0:0:
192,192,115225,1,0,0:0:0:0:
448,192,115407,128,0,115589:0:0:0:0:
192,192,115407,1,0,0:0:0:0:
64,192,115589,1,0,0:0:0:0:
320,192,115589,1,0,0:0:0:0:
192,192,115771,1,0,0:0:0:0:
320,192,115953,128,0,116316:0:0:0:0:
64,192,115953,1,0,0:0:0:0:
192,192,115953,1,0,0:0:0:0:
448,192,115953,1,0,0:0:0:0:
192,192,116134,1,0,0:0:0:0:
192,192,116316,128,0,116680:0:0:0:0:
64,192,116316,1,0,0:0:0:0:
320,192,116498,1,0,0:0:0:0:
320,192,116680,128,0,117044:0:0:0:0:
64,192,116680,1,0,0:0:0:0:
448,192,116680,1,0,0:0:0:0:
192,192,116862,1,0,0:0:0:0:
192,192,117044,128,0,117225:0:0:0:0:
64,192,117044,128,0,117225:0:0:0:0:
448,192,117044,128,0,117225:0:0:0:0:
192,192,117407,1,0,0:0:0:0:
320,192,117407,1,0,0:0:0:0:
448,192,117407,1,0,0:0:0:0:
320,192,117589,1,0,0:0:0:0:
64,192,117589,128,0,117771:0:0:0:0:
192,192,117771,1,0,0:0:0:0:
448,192,117771,1,0,0:0:0:0:
320,192,117953,1,0,0:0:0:0:
64,192,118134,1,0,0:0:0:0:
192,192,118134,1,0,0:0:0:0:
320,192,118134,1,0,0:0:0:0:
192,192,118316,1,0,0:0:0:0:
448,192,118316,128,0,118498:0:0:0:0:
64,192,118498,1,0,0:0:0:0:
320,192,118498,1,0,0:0:0:0:
192,192,118680,1,0,0:0:0:0:
192,192,118862,128,0,119225:0:0:0:0:
320,192,118862,128,0,119225:0:0:0:0:
64,192,119225,1,0,0:0:0:0:
448,192,119225,1,0,0:0:0:0:
192,192,119589,128,0,119953:0:0:0:0:
320,192,119589,128,0,119953:0:0:0:0:
64,192,119953,1,0,0:0:0:0:
448,192,119953,1,0,0:0:0:0:
320,192,120134,1,0,0:0:0:0:
64,192,120316,1,0,0:0:0:0:
192,192,120316,1,0,0:0:0:0:
320,192,120316,1,0,0:0:0:0:
448,192,120498,128,0,120680:0:0:0:0:
192,192,120498,1,0,0:0:0:0:
64,192,120680,1,0,0:0:0:0:
320,192,120680,1,0,0:0:0:0:
192,192,120862,1,0,0:0:0:0:
192,192,121044,1,0,0:0:0:0:
320,192,121044,1,0,0:0:0:0:
448,192,121044,1,0,0:0:0:0:
320,192,121225,1,0,0:0:0:0:
64,192,121225,128,0,121407:0:0:0:0:
192,192,121407,1,0,0:0:0:0:
448,192,121407,1,0,0:0:0:0:
320,192,121589,1,0,0:0:0:0:
64,192,121771,1,0,0:0:0:0:
192,192,121771,1,0,0:0:0:0:
448,192,121771,1,0,0:0:0:0:
320,192,121771,128,0,122134:0:0:0:0:
192,192,122134,128,0,122498:0:0:0:0:
64,192,122134,1,0,0:0:0:0:
448,192,122134,1,0,0:0:0:0:
64,192,122498,128,0,122862:0:0:0:0:
320,192,122498,1,0,0:0:0:0:
448,192,122498,1,0,0:0:0:0:
192,192,122862,128,0,123044:0:0:0:0:
448,192,122862,128,0,123044:0:0:0:0:
320,192,123044,128,0,123225:0:0:0:0:
64,192,123225,1,0,0:0:0:0:
192,192,123225,1,0,0:0:0:0:
448,192,123225,1,0,0:0:0:0:
448,192,123407,128,0,123589:0:0:0:0:
192,192,123407,1,0,0:0:0:0:
64,192,123589,1,0,0:0:0:0:
320,192,123589,1,0,0:0:0:0:
192,192,123771,1,0,0:0:0:0:
320,192,123953,1,0,0:0:0:0:
448,192,123953,1,0,0:0:0:0:
192,192,123953,1,0,0:0:0:0:
320,192,124134,1,0,0:0:0:0:
64,192,124134,128,0,124316:0:0:0:0:
192,192,124316,1,0,0:0:0:0:
448,192,124316,1,0,0:0:0:0:
320,192,124498,1,0,0:0:0:0:
64,192,124680,1,0,0:0:0:0:
192,192,124680,1,0,0:0:0:0:
320,192,124680,1,0,0:0:0:0:
192,192,124862,1,0,0:0:0:0:
448,192,124862,128,0,125044:0:0:0:0:
320,192,125044,1,0,0:0:0:0:
64,192,125044,1,0,0:0:0:0:
192,192,125225,1,0,0:0:0:0:
192,192,125407,1,0,0:0:0:0:
320,192,125407,1,0,0:0:0:0:
448,192,125407,1,0,0:0:0:0:
320,192,125589,1,0,0:0:0:0:
64,192,125589,128,0,125771:0:0:0:0:
192,192,125771,1,0,0:0:0:0:
448,192,125771,1,0,0:0:0:0:
320,192,125953,1,0,0:0:0:0:
64,192,126134,1,0,0:0:0:0:
192,192,126134,1,0,0:0:0:0:
320,192,126134,1,0,0:0:0:0:
448,192,126316,128,0,126498:0:0:0:0:
320,192,126316,1,0,0:0:0:0:
192,192,126498,1,0,0:0:0:0:
64,192,126498,128,0,126680:0:0:0:0:
320,192,126680,1,0,0:0:0:0:
192,192,126862,1,0,0:0:0:0:
320,192,126862,1,0,0:0:0:0:
448,192,126862,1,0,0:0:0:0:
320,192,127044,1,0,0:0:0:0:
64,192,127044,128,0,127225:0:0:0:0:
192,192,127225,1,0,0:0:0:0:
448,192,127225,1,0,0:0:0:0:
320,192,127407,1,0,0:0:0:0:
448,192,127589,128,0,128680:0:0:0:0:
320,192,127589,1,0,0:0:0:0:
192,192,127589,1,0,0:0:0:0:
64,192,127589,1,0,0:0:0:0:
320,192,127953,128,0,128680:0:0:0:0:
192,192,127953,1,0,0:0:0:0:
64,192,127953,1,0,0:0:0:0:
192,192,128316,128,0,128680:0:0:0:0:
64,192,128316,1,0,0:0:0:0:
64,192,128680,128,0,128862:0:0:0:0:
192,192,128862,128,0,129044:0:0:0:0:
320,192,128862,128,0,129044:0:0:0:0:
448,192,129225,1,0,0:0:0:0:
64,192,129407,1,0,0:0:0:0:
192,192,129407,1,0,0:0:0:0:
448,192,129407,1,0,0:0:0:0:
320,192,129589,1,0,0:0:0:0:
192,192,129771,1,0,0:0:0:0:
320,192,129771,1,0,0:0:0:0:
448,192,129771,1,0,0:0:0:0:
320,192,129953,1,0,0:0:0:0:
64,192,129953,128,0,130134:0:0:0:0:
448,192,130134,1,0,0:0:0:0:
192,192,130134,1,0,0:0:0:0:
192,192,130316,1,0,0:0:0:0:
64,192,130498,128,0,130680:0:0:0:0:
192,192,130498,128,0,130680:0:0:0:0:
448,192,130498,128,0,130680:0:0:0:0:
64,192,130862,128,0,131044:0:0:0:0:
320,192,130862,128,0,131044:0:0:0:0:
448,192,130862,128,0,131044:0:0:0:0:
64,192,131225,128,0,131407:0:0:0:0:
192,192,131225,128,0,131407:0:0:0:0:
448,192,131225,128,0,131407:0:0:0:0:
320,192,131407,1,0,0:0:0:0:
64,192,131589,1,0,0:0:0:0:
320,192,131589,1,0,0:0:0:0:
192,192,131771,1,0,0:0:0:0:
448,192,131771,1,0,0:0:0:0:
64,192,131953,1,0,0:0:0:0:
320,192,131953,1,0,0:0:0:0:
448,192,131953,1,0,0:0:0:0:
320,192,132134,1,0,0:0:0:0:
192,192,132316,1,0,0:0:0:0:
448,192,132316,1,0,0:0:0:0:
64,192,132316,1,0,0:0:0:0:
192,192,132498,1,0,0:0:0:0:
64,192,132680,128,0,141044:0:0:0:0:
320,192,132680,1,0,0:0:0:0:
448,192,132680,1,0,0:0:0:0:
192,192,132680,1,0,0:0:0:0:
448,192,133044,128,0,141044:0:0:0:0:
192,192,133044,1,0,0:0:0:0:
320,192,133044,1,0,0:0:0:0:
320,192,133407,128,0,141044:0:0:0:0:
192,192,133407,128,0,141044:0:0:0:0:
