osu file format v10

[General]
AudioFilename: a.mp3
AudioLeadIn: 0
PreviewTime: 64999
Countdown: 0
SampleSet: Normal
StackLeniency: 0.7
Mode: 0
LetterboxInBreaks: 1

[Editor]
DistanceSpacing: 1.2
BeatDivisor: 4
GridSize: 8

[Metadata]
Title:Remote Control
TitleUnicode:リモコン
Artist:Saiya
ArtistUnicode:祭屋
Creator:Garven
Version:Easy
Source:
Tags:JesusP vocaloid Kagamine Len Rin Tasha Beren lolcubes Pokie inaba-tan
BeatmapID:164097
BeatmapSetID:53857

[Difficulty]
HPDrainRate:2
CircleSize:3
OverallDifficulty:2
ApproachRate:2
SliderMultiplier:1.1
SliderTickRate:2

[Events]
//Background and Video events
0,0,"remokon.jpg"
//Break Periods
2,83947,94030
//Storyboard Layer 0 (Background)
//Storyboard Layer 1 (Fail)
//Storyboard Layer 2 (Pass)
//Storyboard Layer 3 (Foreground)
//Storyboard Sound Samples
//Background Colour Transformations
3,100,0,0,0

[TimingPoints]
1045,363.636363636364,4,1,1,60,1,0
15408,-100,4,1,1,80,0,0
67500,-100,4,2,0,100,0,0
67954,-100,4,1,1,100,0,1
69318,-100,4,2,0,100,0,1
69500,-100,4,1,1,100,0,1
72954,-100,4,2,0,100,0,1
73318,-100,4,1,1,100,0,1
79591,-100,4,1,1,100,0,1
82499,-100,4,2,0,100,0,0
92409,-100,4,1,1,100,0,0
106863,-95.2380952380952,4,1,1,100,0,0
108682,-90.9090909090909,4,1,1,100,0,1
110045,-90.9090909090909,4,2,1,100,0,1
110227,-90.9090909090909,4,1,1,100,0,1
113682,-90.9090909090909,4,2,1,100,0,1
114045,-90.9090909090909,4,1,1,100,0,1
115863,-90.9090909090909,4,2,1,100,0,1
116045,-90.9090909090909,4,1,1,100,0,1
118590,-90.9090909090909,4,2,1,100,0,1
119408,-90.9090909090909,4,1,1,100,0,1
121682,-90.9090909090909,4,2,1,100,0,1
121863,-90.9090909090909,4,1,1,100,0,1
125318,-90.9090909090909,4,2,1,100,0,1
125682,-90.9090909090909,4,1,1,100,0,1
127500,-90.9090909090909,4,2,1,100,0,1
127682,-90.9090909090909,4,1,1,100,0,1
131954,-90.9090909090909,4,1,1,100,0,1
133409,-100,4,1,1,100,0,0
133591,-76.9230769230769,4,2,1,80,0,0
134863,-76.9230769230769,4,2,1,60,0,0
136318,-76.9230769230769,4,2,1,50,0,0
137773,-76.9230769230769,4,2,1,40,0,0
139227,-76.9230769230769,4,2,1,30,0,0
140682,-76.9230769230769,4,2,1,20,0,0

[Colours]
Combo1 : 255,240,0
Combo2 : 230,0,140
Combo3 : 0,190,245
Combo4 : 255,100,0

[HitObjects]
88,80,3954,1,0,0:0:0
424,80,5409,1,0,0:0:0
88,304,6863,5,0,0:0:0
424,304,8318,1,0,0:0:0
256,48,9773,5,0,0:0:0
256,336,11227,1,0,0:0:0
80,192,12682,5,0,0:0:0
432,192,14136,1,0,0:0:0
168,48,15591,6,0,B|136:152|208:272,1,220,4|8,0:0|0:0,0:0:0
344,48,17045,2,0,B|376:152|304:272,1,220,4|8,0:0|0:0,0:0:0
56,192,18500,6,0,B|64:88|136:56|208:80,1,220,4|8,0:0|0:0,0:0:0
308,304,19954,2,0,B|376:328|448:296|456:192,1,220,0|0,0:0|0:0,0:0:0
256,24,21409,5,4,0:0:0
124,256,22136,1,8,0:0:0
388,256,22863,2,0,B|420:204|388:152,2,110,0|8|8,0:0|0:0|0:0,0:0:0
136,328,24318,6,0,B|40:232|136:136,1,220,0|8,0:0|0:0,0:0:0
376,328,25773,2,0,B|472:232|376:136,1,220,0|8,0:0|0:0,0:0:0
256,80,26863,1,8,0:0:0
120,80,27227,5,4,0:0:0
120,344,27954,1,8,0:0:0
344,208,28682,2,0,B|376:264|456:248,2,110,0|8|8,0:0|0:0|0:0,0:0:0
88,152,30136,6,0,B|96:72|216:48|256:116|256:116|296:48|416:72|424:152,1,440
188,276,32318,1,8,0:0:0
324,276,32682,1,8,0:0:0
424,192,33045,6,0,B|472:136|400:24|296:64,1,220,4|0,0:0|0:0,0:0:0
256,176,34136,1,8,0:0:0
184,288,34500,2,0,B|104:224|136:128,2,165,0|8|8,0:0|0:0|0:0,0:0:0
320,288,35954,6,0,B|400:288|400:288|448:288|488:248|488:200|488:200|488:192,2,220,4|4|0,0:0|0:0|0:0,0:0:0
296,24,38136,1,8,0:0:0
96,192,38863,6,0,B|104:328|240:336,1,220
256,208,39954,1,8,0:0:0
328,96,40318,2,0,B|408:160|376:256,2,165,0|8|8,0:0|0:0|0:0,0:0:0
192,96,41772,6,0,B|112:96|112:96|64:96|24:136|24:184|24:184|24:192,2,220,4|4|0,0:0|0:0|0:0,0:0:0
216,360,43954,1,8,0:0:0
464,360,44682,6,0,B|512:328|512:280|512:280|512:152,1,220,4|0,0:0|0:0,0:0:0
512,24,45773,1,8,0:0:0
384,24,46136,2,0,B|336:56|336:104|336:104|336:232,1,220,4|0,0:0|0:0,0:0:0
336,360,47227,1,8,0:0:0
200,360,47591,6,0,B|96:360|96:360|31:360|16:288,1,220,4|0,0:0|0:0,0:0:0
8,160,48682,1,8,0:0:0
32,32,49045,2,0,B|144:32,2,110,4|8|8,0:0|0:0|0:0,0:0:0
111,250,50500,6,0,B|176:336|304:344,1,220,4|0,0:0|0:0,0:0:0
408,264,51591,1,8,0:0:0
400,133,51954,2,0,B|336:48|208:40,1,220,4|0,0:0|0:0,0:0:0
104,120,53045,1,8,0:0:0
24,228,53409,6,0,B|24:116,2,110,4|8|8,0:0|0:0|0:0,0:0:0
272,312,54863,2,0,B|288:368|360:384,2,110,0|0|0,0:0|0:0|0:0,0:0:0
256,56,56318,6,0,B|160:48|96:120|80:184,1,220,4|8,0:0|0:0,0:0:0
256,368,57773,1,0,0:0:0
456,192,58500,2,0,B|456:80,1,110,0|8,0:0|0:0,0:0:0
328,40,59227,6,0,B|264:40|264:40|208:40|176:80,2,165,0|8|0,0:0|0:0|0:0,0:0:0
368,168,60682,1,0,0:0:0
104,192,61409,1,4,0:0:0
128,320,61773,1,8,0:0:0
256,328,62136,6,0,B|352:336|416:264|432:200,1,220,4|8,0:0|0:0,0:0:0
256,16,63591,1,0,0:0:0
56,192,64318,2,0,B|56:304,1,110,0|8,0:0|0:0,0:0:0
188,324,65045,5,0,0:0:0
188,60,65773,1,0,0:0:0
384,88,66318,2,0,B|446:192|384:296,1,220
216,192,67590,1,4,0:0:0
136,88,67954,5,4,0:0:0
136,352,68681,1,8,0:0:0
400,324,69408,2,0,B|464:220|400:116,1,220,4|0,0:0|0:0,0:0:0
320,224,70499,1,8,0:0:0
256,344,70863,6,0,B|272:304|200:248|200:248|208:192|200:144,2,220,4|8|0,0:0|0:0|0:0,0:0:0
368,272,72681,1,8,0:0:0
424,144,73045,1,4,0:0:0
368,24,73408,1,8,0:0:0
232,24,73772,6,0,B|112:24,2,110,4|2|8,0:0|0:0|0:0,0:0:0
288,144,74863,1,0,0:0:0
232,264,75226,2,0,B|256:296|304:312|352:296|376:264,2,165,4|8|0,0:0|0:0|0:0,0:0:0
120,192,76681,6,0,B|107:128|138:76|193:55|253:78,1,220,4|8,0:0|0:0,0:0:0
376,120,77772,1,0,0:0:0
388,248,78135,2,0,B|316:344,1,110,4|0,0:0|0:0,0:0:0
190,336,78863,2,0,B|124:248,1,110,12|8,0:0|0:0,0:0:0
256,232,79590,1,4,0:0:0
256,192,79772,12,2,82499,0:0:0
456,192,95590,6,0,B|432:312|296:312,1,220,4|8,0:0|0:0,0:0:0
168,312,96681,1,0,0:0:0
88,208,97045,2,0,B|48:168|48:128|48:128|48:48,2,165,0|8|0,0:0|0:0|0:0,0:0:0
208,272,98499,6,0,B|376:272,2,165,4|8|0,0:0|0:0|0:0,0:0:0
72,272,99954,1,0,0:0:0
200,40,100681,1,4,0:0:0
256,160,101045,1,8,0:0:0
312,280,101408,5,4,0:0:0
464,64,102135,2,0,B|360:1|256:64,1,220,8|0,0:0|0:0,0:0:0
124,296,103590,1,0,0:0:0
44,192,103954,1,0,0:0:0
124,88,104317,5,2,0:0:0
388,88,105045,1,2,0:0:0
344,280,105590,2,0,B|312:336|256:356|200:336|168:280,1,220,2|2,0:0|0:0,0:0:0
348,73,107045,6,0,B|314:131|256:153|196:131|163:73,1,230.99999295044,2|2,0:0|0:0,0:0:0
400,320,108681,5,4,0:0:0
112,320,109408,1,8,0:0:0
104,32,110135,2,0,B|136:88|136:88|160:72|192:72,1,121.000003692627,4|8,0:0|0:0,0:0:0
320,72,110863,2,0,B|349:72|373:56|373:56|405:112,1,121.000003692627,4|0,0:0|0:0,0:0:0
480,224,111590,6,0,B|424:280|411:322|411:322|291:322,1,242.000007385254,0|8,0:0|0:0,0:0:0
152,280,112681,1,0,0:0:0
80,152,113045,2,0,B|144:48,1,121.000003692627,4|8,0:0|0:0,0:0:0
256,120,113772,2,0,B|376:120,1,121.000003692627,4|0,0:0|0:0,0:0:0
496,60,114499,5,4,0:0:0
496,324,115226,1,8,0:0:0
240,232,115954,2,0,B|208:264|168:264|168:264|120:264,1,121.000003692627,4|8,0:0|0:0,0:0:0
127,120,116681,2,0,B|167:120|167:120|207:120|239:152,1,121.000003692627,4|0,0:0|0:0,0:0:0
368,192,117408,5,0,0:0:0
96,192,118135,1,8,0:0:0
320,40,118863,1,4,0:0:0
320,344,119590,1,4,0:0:0
64,288,120317,6,0,B|0:252|-24:192|0:132|64:96,1,242.000007385254,4|8,0:0|0:0,0:0:0
279,259,121772,2,0,B|407:259,1,121.000003692627,4|8,0:0|0:0,0:0:0
400,125,122499,2,0,B|280:125,1,121.000003692627,4|0,0:0|0:0,0:0:0
200,232,123226,6,0,B|152:280|112:280|112:280|32:280,2,181.500005538941,0|8|0,0:0|0:0|0:0,0:0:0
240,104,124681,1,0,0:0:0
496,36,125408,1,4,0:0:0
496,172,125772,1,0,0:0:0
400,256,126135,6,0,B|360:280|280:280,1,121.000003692627,4|2,0:0|0:0,0:0:0
232,152,126863,2,0,B|154:151|114:175,1,121.000003692627,8|0,0:0|0:0,0:0:0
152,304,127590,1,4,0:0:0
360,136,128317,1,0,0:0:0
256,56,128681,1,8,0:0:0
144,128,129045,6,0,B|208:240|336:264,1,242.000007385254,4|8,0:0|0:0,0:0:0
384,0,130499,2,0,B|448:40|448:96|448:96|448:168,2,181.500005538941,0|8|8,0:0|0:0|0:0,0:0:0
256,48,131954,5,4,0:0:0
184,304,132681,1,0,0:0:0
328,304,133045,1,0,0:0:0
256,192,133408,1,4,0:0:0
256,192,133590,12,2,141045,0:0:0
