osu file format v14

[General]
AudioFilename: remo.mp3
AudioLeadIn: 0
PreviewTime: 65045
Countdown: 0
SampleSet: Normal
StackLeniency: 0.7
Mode: 3
LetterboxInBreaks: 0
SpecialStyle: 0
WidescreenStoryboard: 0

[Editor]
Bookmarks: 65045
DistanceSpacing: 1
BeatDivisor: 4
GridSize: 8
TimelineZoom: 1.899999

[Metadata]
Title:Remote Control
TitleUnicode:リモコン
Artist:Saiya
ArtistUnicode:祭屋
Creator:ExUsagi
Version:9K Normal
Source:
Tags:
BeatmapID:689536
BeatmapSetID:308297

[Difficulty]
HPDrainRate:7
CircleSize:9
OverallDifficulty:7
ApproachRate:5
SliderMultiplier:1.4
SliderTickRate:1

[Events]
//Background and Video events
0,0,"remokon.jpg",0,0
//Break Periods
//Storyboard Layer 0 (Background)
//Storyboard Layer 1 (Fail)
//Storyboard Layer 2 (Pass)
//Storyboard Layer 3 (Foreground)
//Storyboard Sound Samples
Sample,44681,0,"normal-hitnormal.wav",60
Sample,45045,0,"normal-hitnormal.wav",60
Sample,45408,0,"normal-hitnormal.wav",60
Sample,45772,0,"normal-hitnormal.wav",60
Sample,46135,0,"normal-hitnormal.wav",60
Sample,46499,0,"normal-hitnormal.wav",60
Sample,46863,0,"normal-hitnormal.wav",60
Sample,47226,0,"normal-hitnormal.wav",60
Sample,47590,0,"normal-hitnormal.wav",60
Sample,47954,0,"normal-hitnormal.wav",60
Sample,48317,0,"normal-hitnormal.wav",60
Sample,48681,0,"normal-hitnormal.wav",60
Sample,49045,0,"normal-hitnormal.wav",60
Sample,49408,0,"normal-hitnormal.wav",60
Sample,49772,0,"normal-hitnormal.wav",60
Sample,50135,0,"normal-hitnormal.wav",60
Sample,50499,0,"normal-hitnormal.wav",60
Sample,50863,0,"normal-hitnormal.wav",60
Sample,51226,0,"normal-hitnormal.wav",60
Sample,51590,0,"normal-hitnormal.wav",60
Sample,51954,0,"normal-hitnormal.wav",60
Sample,52317,0,"normal-hitnormal.wav",60
Sample,52681,0,"normal-hitnormal.wav",60
Sample,53045,0,"normal-hitnormal.wav",60
Sample,53408,0,"normal-hitnormal.wav",60
Sample,53772,0,"normal-hitnormal.wav",60
Sample,54863,0,"normal-hitnormal.wav",60
Sample,55226,0,"normal-hitnormal.wav",60
Sample,55590,0,"normal-hitnormal.wav",60
Sample,55954,0,"normal-hitnormal.wav",60

[TimingPoints]
1045,363.636363636364,4,1,1,60,1,0
67954,-100,4,1,1,60,0,1
82499,-100,4,1,1,60,0,0
83954,-100,4,1,1,60,0,1
84045,-100,4,1,1,60,0,0
108681,-100,4,1,1,60,0,1
131954,-100,4,1,1,60,0,0

[HitObjects]
28,192,1045,128,0,3954:0:0:0:0:
483,192,1045,128,0,3954:0:0:0:0:
142,192,3954,1,0,0:0:0:0:
199,192,4317,1,8,0:0:0:0:
142,192,4681,1,0,0:0:0:0:
199,192,5045,1,8,0:0:0:0:
369,192,5408,1,0,0:0:0:0:
312,192,5772,1,8,0:0:0:0:
369,192,6135,1,0,0:0:0:0:
312,192,6499,1,8,0:0:0:0:
142,192,6863,1,0,0:0:0:0:
199,192,7226,1,8,0:0:0:0:
256,192,7590,1,0,0:0:0:0:
312,192,7954,1,8,0:0:0:0:
369,192,8317,1,0,0:0:0:0:
312,192,8681,1,8,0:0:0:0:
256,192,9045,1,0,0:0:0:0:
199,192,9408,1,8,0:0:0:0:
85,192,9772,1,0,0:0:0:0:
256,192,10135,1,8,0:0:0:0:
85,192,10499,1,0,0:0:0:0:
256,192,10863,1,8,0:0:0:0:
426,192,11226,1,0,0:0:0:0:
256,192,11590,1,8,0:0:0:0:
426,192,11954,1,0,0:0:0:0:
256,192,12317,1,8,0:0:0:0:
199,192,12681,1,0,0:0:0:0:
28,192,13045,1,8,0:0:0:0:
199,192,13408,1,0,0:0:0:0:
28,192,13772,1,8,0:0:0:0:
312,192,14135,1,0,0:0:0:0:
483,192,14499,1,8,0:0:0:0:
312,192,14863,1,0,0:0:0:0:
483,192,15226,1,8,0:0:0:0:
85,192,15590,1,0,0:0:0:0:
199,192,15954,1,8,0:0:0:0:
85,192,16317,1,0,0:0:0:0:
199,192,16681,1,8,0:0:0:0:
312,192,17045,1,0,0:0:0:0:
426,192,17408,1,8,0:0:0:0:
312,192,17772,1,0,0:0:0:0:
426,192,18135,1,8,0:0:0:0:
142,192,18499,1,0,0:0:0:0:
256,192,18863,1,8,0:0:0:0:
142,192,19226,1,0,0:0:0:0:
28,192,19590,1,8,0:0:0:0:
312,192,19954,1,0,0:0:0:0:
369,192,20135,1,0,0:0:0:0:
426,192,20317,1,8,0:0:0:0:
426,192,20499,1,8,0:0:0:0:
256,192,20681,1,0,0:0:0:0:
199,192,20863,1,0,0:0:0:0:
142,192,21045,1,8,0:0:0:0:
483,192,21408,1,4,0:0:0:0:
483,192,21772,1,8,0:0:0:0:
312,192,21954,1,0,0:0:0:0:
483,192,22135,1,0,0:0:0:0:
199,192,22499,1,8,0:0:0:0:
199,192,22681,1,0,0:0:0:0:
369,192,22863,1,0,0:0:0:0:
483,192,23045,1,0,0:0:0:0:
369,192,23226,1,8,0:0:0:0:
256,192,23408,1,0,0:0:0:0:
28,192,23590,1,0,0:0:0:0:
199,192,23954,1,8,0:0:0:0:
28,192,24135,1,0,0:0:0:0:
312,192,24499,1,0,0:0:0:0:
142,192,24681,1,8,0:0:0:0:
312,192,24863,1,0,0:0:0:0:
483,192,25045,1,0,0:0:0:0:
312,192,25226,1,0,0:0:0:0:
85,192,25408,1,8,0:0:0:0:
85,192,25590,1,0,0:0:0:0:
142,192,25772,1,0,0:0:0:0:
256,192,25954,1,0,0:0:0:0:
483,192,26135,1,8,0:0:0:0:
483,192,26317,1,0,0:0:0:0:
312,192,26499,1,0,0:0:0:0:
199,192,26681,1,0,0:0:0:0:
28,192,26863,1,8,0:0:0:0:
483,192,27226,1,0,0:0:0:0:
483,192,27590,1,8,0:0:0:0:
312,192,27772,1,0,0:0:0:0:
483,192,27954,1,0,0:0:0:0:
199,192,28317,1,8,0:0:0:0:
199,192,28499,1,0,0:0:0:0:
369,192,28681,1,0,0:0:0:0:
483,192,28863,1,0,0:0:0:0:
369,192,29045,1,8,0:0:0:0:
256,192,29226,1,0,0:0:0:0:
28,192,29408,1,0,0:0:0:0:
256,192,29772,1,8,0:0:0:0:
28,192,29954,1,0,0:0:0:0:
199,192,30317,1,0,0:0:0:0:
369,192,30499,1,8,0:0:0:0:
199,192,30681,1,0,0:0:0:0:
483,192,30863,1,0,0:0:0:0:
199,192,31045,1,0,0:0:0:0:
28,192,31226,1,8,0:0:0:0:
28,192,31408,1,0,0:0:0:0:
142,192,31590,1,0,0:0:0:0:
256,192,31772,1,0,0:0:0:0:
483,192,31954,1,8,0:0:0:0:
483,192,32135,1,0,0:0:0:0:
312,192,32317,1,0,0:0:0:0:
199,192,32499,1,0,0:0:0:0:
28,192,32681,1,8,0:0:0:0:
312,192,33045,1,0,0:0:0:0:
483,192,33408,1,0,0:0:0:0:
312,192,33772,1,0,0:0:0:0:
483,192,34135,1,0,0:0:0:0:
28,192,34499,1,0,0:0:0:0:
199,192,34863,1,0,0:0:0:0:
28,192,35226,1,0,0:0:0:0:
199,192,35590,1,0,0:0:0:0:
426,192,35954,1,0,0:0:0:0:
85,192,36317,1,0,0:0:0:0:
426,192,36681,1,0,0:0:0:0:
85,192,37045,1,0,0:0:0:0:
28,192,37408,1,0,0:0:0:0:
483,192,37772,1,0,0:0:0:0:
142,192,38135,1,0,0:0:0:0:
369,192,38499,1,0,0:0:0:0:
426,192,38863,1,0,0:0:0:0:
256,192,39226,1,0,0:0:0:0:
426,192,39590,1,0,0:0:0:0:
256,192,39954,1,0,0:0:0:0:
85,192,40317,1,0,0:0:0:0:
256,192,40681,1,0,0:0:0:0:
85,192,41045,1,0,0:0:0:0:
256,192,41408,1,0,0:0:0:0:
426,192,41772,1,0,0:0:0:0:
85,192,42135,1,0,0:0:0:0:
426,192,42499,1,0,0:0:0:0:
85,192,42863,1,0,0:0:0:0:
28,192,43226,1,0,0:0:0:0:
483,192,43590,1,0,0:0:0:0:
256,192,43954,1,0,0:0:0:0:
85,192,44135,1,2,2:0:0:0:
426,192,44317,1,2,2:0:0:0:
85,192,44499,1,2,2:0:0:0:
256,192,44681,1,6,0:0:0:0:
256,192,45045,1,10,0:0:0:0:
142,192,45408,1,2,0:0:0:0:
142,192,45772,1,10,0:0:0:0:
426,192,46135,1,2,0:0:0:0:
85,192,46499,1,10,0:0:0:0:
426,192,46863,1,2,0:0:0:0:
85,192,47226,1,10,0:0:0:0:
142,192,47590,1,2,0:0:0:0:
426,192,47954,1,10,0:0:0:0:
142,192,48317,1,2,0:0:0:0:
426,192,48681,1,10,0:0:0:0:
28,192,48863,1,0,0:0:0:0:
85,192,49045,1,2,0:0:0:0:
142,192,49226,1,0,0:0:0:0:
483,192,49408,1,10,0:0:0:0:
483,192,49590,1,0,0:0:0:0:
312,192,49772,1,2,0:0:0:0:
255,192,49954,1,0,0:0:0:0:
199,192,50135,1,10,0:0:0:0:
369,192,50499,1,2,0:0:0:0:
369,192,50863,1,10,0:0:0:0:
142,192,51226,1,2,0:0:0:0:
142,192,51590,1,8,0:0:0:0:
85,192,51954,1,2,0:0:0:0:
426,192,52317,1,10,0:0:0:0:
85,192,52681,1,2,0:0:0:0:
426,192,53045,1,10,0:0:0:0:
256,192,53408,1,2,0:0:0:0:
256,192,53772,1,10,0:0:0:0:
483,192,54135,1,2,0:0:0:0:
28,192,54135,1,0,0:0:0:0:
28,192,54681,1,0,0:0:0:0:
85,192,54863,1,2,0:0:0:0:
142,192,55045,1,0,0:0:0:0:
483,192,55226,1,2,0:0:0:0:
483,192,55408,1,0,0:0:0:0:
312,192,55590,1,2,0:0:0:0:
256,192,55772,1,8,0:0:0:0:
199,192,55954,1,8,0:0:0:0:
199,192,56135,1,8,0:0:0:0:
28,192,56317,1,4,0:0:0:0:
28,192,56681,1,8,0:0:0:0:
199,192,57045,1,0,0:0:0:0:
28,192,57408,1,8,0:0:0:0:
483,192,57772,1,0,0:0:0:0:
483,192,58135,1,8,0:0:0:0:
369,192,58499,1,0,0:0:0:0:
256,192,58499,1,0,2:0:0:0:
199,192,58863,1,0,2:0:0:0:
312,192,58863,1,8,0:0:0:0:
142,192,59226,1,0,2:0:0:0:
256,192,59226,1,0,0:0:0:0:
85,192,59590,1,8,0:0:0:0:
256,192,59954,1,0,0:0:0:0:
85,192,60317,1,8,0:0:0:0:
483,192,60681,1,0,0:0:0:0:
28,192,61045,1,8,0:0:0:0:
369,192,61408,1,0,0:0:0:0:
199,192,61408,1,0,2:0:0:0:
426,192,61772,1,8,0:0:0:0:
256,192,61772,1,0,2:0:0:0:
312,192,62135,1,0,2:0:0:0:
483,192,62135,1,0,0:0:0:0:
28,192,62499,1,8,0:0:0:0:
312,192,62863,1,0,0:0:0:0:
28,192,63226,1,8,0:0:0:0:
369,192,63590,1,0,0:0:0:0:
85,192,63954,1,8,0:0:0:0:
426,192,64317,1,0,0:0:0:0:
142,192,64681,1,8,0:0:0:0:
426,192,65045,1,8,0:0:0:0:
483,192,65045,1,2,1:0:0:0:
28,192,65226,1,8,0:0:0:0:
85,192,65226,1,2,1:0:0:0:
426,192,65772,1,8,0:0:0:0:
483,192,65772,1,2,1:0:0:0:
85,192,65954,1,2,1:0:0:0:
28,192,65954,1,8,0:0:0:0:
369,192,66317,1,8,0:0:0:0:
483,192,66317,1,2,0:0:0:0:
142,192,66681,1,10,0:0:0:0:
369,192,66863,1,10,0:0:0:0:
142,192,67045,1,10,0:0:0:0:
483,192,67590,1,0,0:0:0:0:
28,192,67590,1,0,0:0:0:0:
85,192,67954,1,4,0:0:0:0:
199,192,68135,1,0,0:0:0:0:
312,192,68317,1,8,0:0:0:0:
28,192,68499,1,0,0:0:0:0:
142,192,68681,1,0,0:0:0:0:
256,192,68863,1,0,0:0:0:0:
369,192,69045,1,8,0:0:0:0:
483,192,69408,5,2,0:0:0:0:
369,192,69408,1,0,0:0:0:0:
312,192,69772,1,10,0:0:0:0:
199,192,69772,1,0,0:0:0:0:
28,192,70135,1,0,0:0:0:0:
142,192,70135,1,2,0:0:0:0:
28,192,70499,1,0,0:0:0:0:
483,192,70499,1,10,0:0:0:0:
142,192,70863,1,0,0:0:0:0:
369,192,71226,1,8,0:0:0:0:
256,192,71408,1,0,0:0:0:0:
142,192,71590,1,0,0:0:0:0:
369,192,71954,1,8,0:0:0:0:
142,192,72317,1,0,0:0:0:0:
256,192,72499,1,0,0:0:0:0:
369,192,72681,1,8,0:0:0:0:
28,192,72863,1,0,0:0:0:0:
142,192,73045,1,0,0:0:0:0:
426,192,73226,1,0,0:0:0:0:
312,192,73408,1,8,0:0:0:0:
426,192,73772,1,0,0:0:0:0:
312,192,73954,1,0,0:0:0:0:
199,192,74135,1,8,0:0:0:0:
483,192,74317,1,0,0:0:0:0:
369,192,74499,1,0,0:0:0:0:
256,192,74681,1,0,0:0:0:0:
142,192,74863,1,8,0:0:0:0:
28,192,75226,1,0,0:0:0:0:
142,192,75226,1,2,0:0:0:0:
199,192,75590,1,0,0:0:0:0:
312,192,75590,1,10,0:0:0:0:
369,192,75954,1,0,0:0:0:0:
483,192,75954,1,2,0:0:0:0:
483,192,76317,1,10,0:0:0:0:
28,192,76317,1,0,0:0:0:0:
142,192,76681,1,0,0:0:0:0:
312,192,77045,1,8,0:0:0:0:
199,192,77226,1,0,0:0:0:0:
85,192,77408,1,0,0:0:0:0:
256,192,77772,1,8,0:0:0:0:
142,192,78135,1,0,0:0:0:0:
256,192,78317,1,0,0:0:0:0:
369,192,78499,1,8,0:0:0:0:
28,192,78681,1,0,0:0:0:0:
426,192,78863,1,0,0:0:0:0:
312,192,79045,1,8,0:0:0:0:
142,192,79408,1,8,0:0:0:0:
369,192,79590,1,0,0:0:0:0:
483,192,79590,1,4,0:0:0:0:
369,192,79954,1,0,0:0:0:0:
483,192,79954,1,0,2:0:0:0:
369,192,80317,1,0,0:0:0:0:
483,192,80317,1,4,0:0:0:0:
28,192,81045,1,0,0:0:0:0:
142,192,81045,1,4,0:0:0:0:
256,192,81226,1,0,0:0:0:0:
483,192,81408,1,12,0:0:0:0:
483,192,81590,1,0,0:0:0:0:
369,192,81772,1,4,0:0:0:0:
199,192,81954,1,0,0:0:0:0:
85,192,82135,1,4,0:0:0:0:
85,192,82317,1,4,0:0:0:0:
483,192,82499,1,0,0:0:0:0:
256,192,82499,1,4,0:0:0:0:
142,192,83954,1,2,2:0:0:0:
369,192,83954,1,4,0:0:0:0:
312,192,84317,1,8,0:0:0:0:
199,192,84499,1,0,0:0:0:0:
85,192,84681,1,2,2:0:0:0:
483,192,85045,1,8,0:0:0:0:
28,192,85408,1,2,2:0:0:0:
483,192,85772,1,8,0:0:0:0:
85,192,86135,1,2,2:0:0:0:
199,192,86317,1,0,0:0:0:0:
369,192,86499,1,8,0:0:0:0:
28,192,86681,1,0,0:0:0:0:
142,192,86863,1,2,2:0:0:0:
426,192,87045,1,0,0:0:0:0:
256,192,87226,1,8,0:0:0:0:
426,192,87408,1,0,0:0:0:0:
256,192,87590,1,2,2:0:0:0:
199,192,87954,1,8,0:0:0:0:
369,192,88135,1,0,0:0:0:0:
142,192,88317,1,2,2:0:0:0:
426,192,88499,1,0,0:0:0:0:
85,192,88681,1,8,0:0:0:0:
28,192,89045,1,2,2:0:0:0:
85,192,89408,1,8,0:0:0:0:
199,192,89772,1,2,2:0:0:0:
426,192,89954,1,0,0:0:0:0:
142,192,90135,1,8,0:0:0:0:
312,192,90317,1,0,0:0:0:0:
85,192,90499,1,2,2:0:0:0:
369,192,90681,1,0,0:0:0:0:
28,192,90863,1,8,0:0:0:0:
312,192,91045,1,0,0:0:0:0:
28,186,91226,1,2,2:0:0:0:
369,192,91408,1,0,0:0:0:0:
142,192,91590,1,8,0:0:0:0:
369,192,91772,1,0,0:0:0:0:
256,192,91954,1,2,2:0:0:0:
28,192,92135,1,0,0:0:0:0:
312,192,92317,1,8,0:0:0:0:
483,192,92317,1,0,0:0:0:0:
28,192,92681,1,0,0:0:0:0:
142,192,92681,1,2,1:0:0:0:
426,192,93045,1,0,0:0:0:0:
312,192,93045,1,2,0:0:0:0:
199,192,93408,1,2,0:0:0:0:
85,192,93408,1,0,0:0:0:0:
483,192,93772,1,0,0:0:0:0:
369,192,93772,1,2,0:0:0:0:
142,192,94135,1,2,0:0:0:0:
28,192,94135,1,0,0:0:0:0:
312,192,94499,1,0,0:0:0:0:
199,192,94499,1,2,0:0:0:0:
483,192,94863,1,2,0:0:0:0:
369,192,94863,1,0,0:0:0:0:
256,192,95045,1,8,0:0:0:0:
256,192,95226,1,8,0:0:0:0:
256,192,95408,1,8,0:0:0:0:
28,192,95590,1,4,0:0:0:0:
28,192,95772,1,0,0:0:0:0:
312,192,96135,1,0,0:0:0:0:
28,192,96317,1,0,0:0:0:0:
28,192,96499,1,0,0:0:0:0:
85,192,96863,1,0,0:0:0:0:
426,192,97045,1,0,0:0:0:0:
426,192,97226,1,0,0:0:0:0:
426,192,97590,1,0,0:0:0:0:
256,192,97772,1,0,0:0:0:0:
256,192,97954,1,0,0:0:0:0:
142,192,98135,1,0,0:0:0:0:
142,192,98317,1,0,0:0:0:0:
28,192,98499,1,0,0:0:0:0:
28,192,98681,1,0,0:0:0:0:
426,192,99045,1,0,0:0:0:0:
28,192,99226,1,0,0:0:0:0:
28,192,99408,1,0,0:0:0:0:
28,192,99772,1,0,0:0:0:0:
483,192,99954,1,0,0:0:0:0:
483,192,100135,1,0,0:0:0:0:
28,192,100499,1,0,0:0:0:0:
256,192,100681,1,0,0:0:0:0:
28,192,100863,1,0,0:0:0:0:
312,192,101045,1,0,0:0:0:0:
28,192,101226,1,0,0:0:0:0:
426,192,101408,1,0,0:0:0:0:
426,192,101590,1,0,0:0:0:0:
85,192,101954,1,0,0:0:0:0:
369,192,102135,1,0,0:0:0:0:
369,192,102317,1,0,0:0:0:0:
28,192,102681,1,0,0:0:0:0:
426,192,102863,1,0,0:0:0:0:
426,192,103045,1,0,0:0:0:0:
483,192,103408,1,0,0:0:0:0:
85,192,103590,1,0,0:0:0:0:
28,192,103954,1,0,0:0:0:0:
483,192,104317,1,2,1:0:0:0:
426,192,104317,1,8,0:0:0:0:
85,192,104499,1,2,1:0:0:0:
28,192,104499,1,8,0:0:0:0:
483,192,105045,1,2,1:0:0:0:
426,192,105045,1,8,0:0:0:0:
28,192,105226,1,8,0:0:0:0:
85,192,105226,1,2,1:0:0:0:
483,192,105590,1,2,0:0:0:0:
426,192,105590,1,8,0:0:0:0:
28,192,105954,1,2,0:0:0:0:
85,192,105954,1,8,0:0:0:0:
312,192,106135,1,2,0:0:0:0:
199,192,106135,1,8,0:0:0:0:
483,192,106317,1,2,0:0:0:0:
426,192,106317,1,8,0:0:0:0:
28,192,107045,1,8,0:0:0:0:
483,192,107045,1,2,0:0:0:0:
85,192,107408,1,8,0:0:0:0:
426,192,107408,1,2,0:0:0:0:
369,192,107590,1,2,0:0:0:0:
142,192,107590,1,8,0:0:0:0:
199,192,107772,1,8,0:0:0:0:
312,192,107772,1,2,0:0:0:0:
256,192,108499,1,8,3:0:0:0:
426,192,108681,1,4,0:0:0:0:
85,192,108863,1,0,0:0:0:0:
483,192,109045,1,8,0:0:0:0:
28,192,109045,1,0,0:0:0:0:
256,192,109226,1,0,0:0:0:0:
312,192,109408,1,0,0:0:0:0:
199,192,109590,1,0,0:0:0:0:
28,192,109772,1,0,0:0:0:0:
483,192,109772,1,8,0:0:0:0:
369,192,110135,1,2,0:0:0:0:
483,192,110135,1,0,0:0:0:0:
369,192,110499,1,10,0:0:0:0:
256,192,110499,1,0,0:0:0:0:
28,192,110863,1,0,0:0:0:0:
142,192,110863,1,2,0:0:0:0:
369,192,111226,1,10,0:0:0:0:
483,192,111226,1,0,0:0:0:0:
199,192,111590,1,0,0:0:0:0:
85,192,111772,1,0,0:0:0:0:
369,192,111954,1,8,0:0:0:0:
256,192,112135,1,0,0:0:0:0:
142,192,112317,1,0,0:0:0:0:
28,192,112499,1,0,0:0:0:0:
426,192,112681,1,8,0:0:0:0:
28,192,112863,1,0,0:0:0:0:
312,192,113045,1,0,0:0:0:0:
426,192,113226,1,0,0:0:0:0:
199,192,113408,1,8,0:0:0:0:
85,192,113590,1,0,0:0:0:0:
369,192,113772,1,0,0:0:0:0:
483,192,113954,1,0,0:0:0:0:
142,192,114135,1,8,0:0:0:0:
28,192,114317,1,0,0:0:0:0:
369,192,114499,1,0,0:0:0:0:
142,192,114681,1,0,0:0:0:0:
28,192,114863,1,0,0:0:0:0:
483,192,114863,1,8,0:0:0:0:
256,192,115045,1,0,0:0:0:0:
369,192,115226,1,0,0:0:0:0:
142,192,115408,1,0,0:0:0:0:
28,192,115590,1,0,0:0:0:0:
483,192,115590,1,8,0:0:0:0:
199,192,115954,1,2,0:0:0:0:
369,192,115954,1,0,0:0:0:0:
85,192,116317,1,0,0:0:0:0:
256,192,116317,1,10,0:0:0:0:
312,192,116681,1,2,0:0:0:0:
483,192,116681,1,0,0:0:0:0:
369,192,117045,1,10,0:0:0:0:
483,192,117045,1,0,0:0:0:0:
256,192,117408,1,0,0:0:0:0:
369,192,117590,1,0,0:0:0:0:
483,192,117772,1,8,0:0:0:0:
85,192,117954,1,0,0:0:0:0:
199,192,118135,1,0,0:0:0:0:
312,192,118317,1,0,0:0:0:0:
426,192,118499,1,8,0:0:0:0:
28,192,118681,1,0,0:0:0:0:
142,192,118863,1,4,0:0:0:0:
483,192,118863,1,2,0:0:0:0:
28,192,119226,1,4,0:0:0:0:
369,192,119226,1,2,0:0:0:0:
142,192,119590,1,4,0:0:0:0:
483,192,119590,1,2,0:0:0:0:
28,192,119954,1,4,0:0:0:0:
369,192,119954,1,2,0:0:0:0:
256,192,120135,1,0,0:0:0:0:
85,192,120317,1,6,0:0:0:0:
85,192,120499,1,0,0:0:0:0:
369,192,120681,1,8,0:0:0:0:
483,192,120681,1,0,0:0:0:0:
28,192,120863,1,0,0:0:0:0:
199,192,121045,1,0,0:0:0:0:
199,192,121226,1,0,0:0:0:0:
312,192,121408,1,8,0:0:0:0:
426,192,121408,1,0,0:0:0:0:
199,192,121772,1,2,0:0:0:0:
483,192,121772,1,0,0:0:0:0:
142,192,122135,1,10,0:0:0:0:
426,192,122135,1,0,0:0:0:0:
28,192,122499,1,0,0:0:0:0:
256,192,122499,1,2,0:0:0:0:
312,192,122863,1,10,0:0:0:0:
483,192,122863,1,0,0:0:0:0:
256,192,123226,1,0,0:0:0:0:
142,192,123408,1,0,0:0:0:0:
483,192,123590,1,8,0:0:0:0:
28,192,123590,1,0,0:0:0:0:
369,192,123772,1,0,0:0:0:0:
256,192,123954,1,0,0:0:0:0:
142,192,124135,1,0,0:0:0:0:
483,192,124317,1,8,0:0:0:0:
28,192,124317,1,0,0:0:0:0:
142,192,124499,1,0,0:0:0:0:
256,192,124681,1,0,0:0:0:0:
369,192,124863,1,0,0:0:0:0:
426,192,125045,1,8,0:0:0:0:
28,192,125045,1,0,0:0:0:0:
85,192,125226,1,0,0:0:0:0:
256,192,125408,1,0,0:0:0:0:
426,192,125590,1,0,0:0:0:0:
85,192,125772,1,0,0:0:0:0:
483,192,125772,1,8,0:0:0:0:
28,192,125954,1,0,0:0:0:0:
142,192,126135,1,4,0:0:0:0:
369,192,126317,1,0,0:0:0:0:
28,192,126499,1,0,0:0:0:0:
483,192,126499,1,8,0:0:0:0:
256,192,126681,1,0,0:0:0:0:
142,192,126863,1,0,0:0:0:0:
369,192,127045,1,0,0:0:0:0:
28,192,127226,1,0,0:0:0:0:
483,192,127226,1,8,0:0:0:0:
199,192,127590,1,2,0:0:0:0:
483,192,127590,1,0,0:0:0:0:
142,192,127954,1,10,0:0:0:0:
426,192,127954,1,0,0:0:0:0:
28,192,128317,1,0,0:0:0:0:
256,192,128317,1,2,0:0:0:0:
369,192,128681,1,10,0:0:0:0:
483,192,128681,1,0,0:0:0:0:
256,192,129045,1,0,0:0:0:0:
85,192,129226,1,0,0:0:0:0:
426,192,129408,1,8,0:0:0:0:
483,192,129408,1,0,0:0:0:0:
28,192,129590,1,0,0:0:0:0:
142,192,129772,1,0,0:0:0:0:
256,192,129954,1,0,0:0:0:0:
426,192,130135,1,8,0:0:0:0:
483,192,130135,1,0,0:0:0:0:
256,192,130317,1,0,0:0:0:0:
142,192,130499,1,0,0:0:0:0:
28,192,130681,1,0,0:0:0:0:
426,192,130863,1,8,0:0:0:0:
369,192,130863,1,0,0:0:0:0:
256,192,131045,1,0,0:0:0:0:
142,192,131226,1,0,0:0:0:0:
483,192,131408,1,8,0:0:0:0:
28,192,131590,1,8,0:0:0:0:
483,192,131772,1,8,0:0:0:0:
142,192,131954,1,4,0:0:0:0:
256,192,131954,1,0,0:0:0:0:
369,192,132135,1,2,0:0:0:0:
142,192,132317,1,0,2:0:0:0:
369,192,132499,1,2,0:0:0:0:
28,192,132681,1,4,0:0:0:0:
199,192,132681,1,0,0:0:0:0:
312,192,133045,1,4,0:0:0:0:
483,192,133045,1,0,0:0:0:0:
483,192,133408,128,4,141045:0:0:0:0:
28,192,133408,128,0,141045:2:0:0:0:
