osu file format v14

[General]
AudioFilename: remo.mp3
AudioLeadIn: 0
PreviewTime: 65045
Countdown: 0
SampleSet: Normal
StackLeniency: 0.7
Mode: 3
LetterboxInBreaks: 0
SpecialStyle: 0
WidescreenStoryboard: 0

[Editor]
Bookmarks: 65045
DistanceSpacing: 1
BeatDivisor: 4
GridSize: 8
TimelineZoom: 1.7

[Metadata]
Title:Remote Control
TitleUnicode:リモコン
Artist:Saiya
ArtistUnicode:祭屋
Creator:ExUsagi
Version:9K Newbie
Source:
Tags:
BeatmapID:690171
BeatmapSetID:308297

[Difficulty]
HPDrainRate:6
CircleSize:9
OverallDifficulty:6
ApproachRate:5
SliderMultiplier:1.4
SliderTickRate:1

[Events]
//Background and Video events
0,0,"remokon.jpg",0,0
//Break Periods
//Storyboard Layer 0 (Background)
//Storyboard Layer 1 (Fail)
//Storyboard Layer 2 (Pass)
//Storyboard Layer 3 (Foreground)
//Storyboard Sound Samples

[TimingPoints]
1045,363.636363636364,4,1,1,60,1,0
67954,-100,4,1,1,60,0,1
82499,-100,4,1,1,60,0,0
83954,-100,4,1,1,60,0,1
84045,-100,4,1,1,60,0,0
108681,-100,4,1,1,60,0,1
131954,-100,4,1,1,60,0,0

[HitObjects]
483,192,1045,128,0,3954:0:0:0:0:
199,192,3954,1,0,0:0:0:0:
142,192,4317,1,8,0:0:0:0:
142,192,5045,1,8,0:0:0:0:
312,192,5408,1,0,0:0:0:0:
369,192,5772,1,8,0:0:0:0:
369,192,6499,1,8,0:0:0:0:
142,192,6863,1,0,0:0:0:0:
199,192,7226,1,8,0:0:0:0:
199,192,7954,1,8,0:0:0:0:
369,192,8317,1,0,0:0:0:0:
312,192,8681,1,8,0:0:0:0:
312,192,9408,1,8,0:0:0:0:
85,192,9772,1,0,0:0:0:0:
28,192,10135,1,8,0:0:0:0:
28,192,10863,1,8,0:0:0:0:
426,192,11226,1,0,0:0:0:0:
483,192,11590,1,8,0:0:0:0:
483,192,12317,1,8,0:0:0:0:
256,192,12681,1,0,0:0:0:0:
85,192,13045,1,8,0:0:0:0:
85,192,13772,1,8,0:0:0:0:
256,192,14135,1,0,0:0:0:0:
426,192,14499,1,8,0:0:0:0:
426,192,15226,1,8,0:0:0:0:
85,192,15590,1,0,0:0:0:0:
199,192,15954,1,8,0:0:0:0:
85,192,16317,1,0,0:0:0:0:
199,192,16681,1,8,0:0:0:0:
312,192,17045,1,0,0:0:0:0:
426,192,17408,1,8,0:0:0:0:
312,192,17772,1,0,0:0:0:0:
426,192,18135,1,8,0:0:0:0:
142,192,18499,1,0,0:0:0:0:
369,192,18863,1,8,0:0:0:0:
142,192,19226,1,0,0:0:0:0:
369,192,19590,1,8,0:0:0:0:
85,192,19954,1,0,0:0:0:0:
199,192,20317,1,8,0:0:0:0:
312,192,20681,1,0,0:0:0:0:
426,192,21045,1,8,0:0:0:0:
28,192,21408,1,4,0:0:0:0:
199,192,21772,1,8,0:0:0:0:
312,192,22135,1,0,0:0:0:0:
28,192,22499,1,8,0:0:0:0:
312,192,22863,1,0,0:0:0:0:
199,192,23226,1,8,0:0:0:0:
28,192,23590,1,0,0:0:0:0:
256,192,23954,1,8,0:0:0:0:
483,192,24317,1,0,0:0:0:0:
312,192,24681,1,8,0:0:0:0:
483,192,25045,1,0,0:0:0:0:
199,192,25408,1,8,0:0:0:0:
369,192,25772,1,0,0:0:0:0:
483,192,26135,1,8,0:0:0:0:
312,192,26499,1,0,0:0:0:0:
199,192,26863,1,8,0:0:0:0:
28,192,27226,1,0,0:0:0:0:
85,192,27590,1,8,0:0:0:0:
142,192,27954,1,0,0:0:0:0:
256,192,28317,1,8,0:0:0:0:
483,192,28681,1,0,0:0:0:0:
426,192,29045,1,8,0:0:0:0:
369,192,29408,1,0,0:0:0:0:
256,192,29772,1,8,0:0:0:0:
28,192,30135,1,0,0:0:0:0:
142,192,30499,1,8,0:0:0:0:
483,192,30863,1,0,0:0:0:0:
369,192,31226,1,8,0:0:0:0:
256,192,31590,1,0,0:0:0:0:
28,192,33045,1,0,0:0:0:0:
142,192,33408,1,8,0:0:0:0:
142,192,34135,1,8,0:0:0:0:
199,192,34863,1,8,0:0:0:0:
199,192,35590,1,8,0:0:0:0:
142,192,36317,1,8,0:0:0:0:
142,192,37045,1,8,0:0:0:0:
256,192,37772,1,8,0:0:0:0:
256,192,38499,1,8,0:0:0:0:
483,192,38863,1,0,0:0:0:0:
369,192,39226,1,8,0:0:0:0:
369,192,39954,1,8,0:0:0:0:
312,192,40681,1,8,0:0:0:0:
312,192,41408,1,8,0:0:0:0:
369,192,42135,1,8,0:0:0:0:
369,192,42863,1,8,0:0:0:0:
256,192,43590,1,8,0:0:0:0:
256,192,44317,1,8,0:0:0:0:
28,192,44681,1,4,0:0:0:0:
199,192,45045,1,8,0:0:0:0:
28,192,45408,1,0,0:0:0:0:
199,192,45772,1,8,0:0:0:0:
312,192,46135,1,0,0:0:0:0:
483,192,46499,1,8,0:0:0:0:
312,192,46863,1,0,0:0:0:0:
483,192,47226,1,8,0:0:0:0:
483,192,47590,1,0,0:0:0:0:
312,192,47954,1,8,0:0:0:0:
483,192,48317,1,0,0:0:0:0:
312,192,48681,1,8,0:0:0:0:
426,192,49045,1,0,0:0:0:0:
312,192,49408,1,8,0:0:0:0:
199,192,49772,1,0,0:0:0:0:
85,192,50135,1,8,0:0:0:0:
28,192,50499,1,0,0:0:0:0:
199,192,50863,1,8,0:0:0:0:
28,192,51226,1,0,0:0:0:0:
199,192,51590,1,8,0:0:0:0:
483,192,51954,1,0,0:0:0:0:
312,192,52317,1,8,0:0:0:0:
483,192,52681,1,0,0:0:0:0:
312,192,53045,1,8,0:0:0:0:
85,192,53408,1,0,0:0:0:0:
256,192,53772,1,8,0:0:0:0:
426,192,54135,1,0,0:0:0:0:
312,192,54863,1,0,0:0:0:0:
199,192,55226,1,0,0:0:0:0:
85,192,55590,1,0,0:0:0:0:
483,192,56317,1,4,0:0:0:0:
483,192,57045,1,0,0:0:0:0:
369,192,57772,1,0,0:0:0:0:
256,192,58499,1,0,0:0:0:0:
199,192,58863,1,0,0:0:0:0:
142,192,59226,1,0,0:0:0:0:
142,192,59954,1,0,0:0:0:0:
142,192,60681,1,0,0:0:0:0:
28,192,61408,1,0,0:0:0:0:
85,192,61772,1,0,0:0:0:0:
142,192,62135,1,0,0:0:0:0:
142,192,62863,1,0,0:0:0:0:
199,192,63590,1,0,0:0:0:0:
199,192,64317,1,0,0:0:0:0:
256,192,64681,1,0,0:0:0:0:
483,192,65045,1,10,0:0:0:0:
369,192,65226,1,10,0:0:0:0:
142,192,65772,1,10,0:0:0:0:
28,192,65954,1,10,0:0:0:0:
483,192,66317,1,10,0:0:0:0:
369,192,66681,1,10,0:0:0:0:
142,192,66863,1,10,0:0:0:0:
28,192,67045,1,10,0:0:0:0:
28,192,67954,1,4,0:0:0:0:
142,192,68317,1,8,0:0:0:0:
256,192,68681,1,0,0:0:0:0:
369,192,69045,1,8,0:0:0:0:
483,192,69408,1,2,0:0:0:0:
369,192,69772,1,10,0:0:0:0:
256,192,70135,1,2,0:0:0:0:
142,192,70499,1,10,0:0:0:0:
85,192,70863,1,0,0:0:0:0:
199,192,71226,1,8,0:0:0:0:
312,192,71590,1,0,0:0:0:0:
426,192,71954,1,8,0:0:0:0:
28,192,72317,1,0,0:0:0:0:
142,192,72681,1,8,0:0:0:0:
483,192,73045,1,0,0:0:0:0:
369,192,73408,1,8,0:0:0:0:
85,192,73772,1,0,0:0:0:0:
199,192,74135,1,8,0:0:0:0:
312,192,74499,1,0,0:0:0:0:
426,192,74863,1,8,0:0:0:0:
28,192,75226,1,2,0:0:0:0:
142,192,75590,1,10,0:0:0:0:
369,192,75954,1,2,0:0:0:0:
483,192,76317,1,10,0:0:0:0:
426,192,76681,1,0,0:0:0:0:
312,192,77045,1,8,0:0:0:0:
199,192,77408,1,0,0:0:0:0:
85,192,77772,1,8,0:0:0:0:
483,192,78135,1,0,0:0:0:0:
369,192,78499,1,8,0:0:0:0:
256,192,78863,1,0,0:0:0:0:
142,192,79226,1,8,0:0:0:0:
28,192,79590,1,4,0:0:0:0:
28,192,79954,1,0,0:0:0:0:
483,192,80317,1,4,0:0:0:0:
312,192,81045,1,4,0:0:0:0:
426,192,81408,1,4,0:0:0:0:
256,192,81772,1,4,0:0:0:0:
142,192,82135,1,4,0:0:0:0:
28,192,82499,1,4,0:0:0:0:
28,192,83954,1,4,0:0:0:0:
256,192,84317,1,8,0:0:0:0:
28,192,84681,1,0,0:0:0:0:
256,192,85045,1,8,0:0:0:0:
85,192,85408,1,0,0:0:0:0:
312,192,85772,1,8,0:0:0:0:
85,192,86135,1,0,0:0:0:0:
312,192,86499,1,8,0:0:0:0:
142,192,86863,1,0,0:0:0:0:
369,192,87226,1,8,0:0:0:0:
142,192,87590,1,0,0:0:0:0:
369,192,87954,1,8,0:0:0:0:
199,192,88317,1,0,0:0:0:0:
426,192,88681,1,8,0:0:0:0:
199,192,89045,1,0,0:0:0:0:
426,192,89408,1,8,0:0:0:0:
483,192,89772,1,0,0:0:0:0:
256,192,90135,1,8,0:0:0:0:
483,192,90499,1,0,0:0:0:0:
256,192,90863,1,8,0:0:0:0:
426,192,91226,1,0,0:0:0:0:
199,192,91590,1,8,0:0:0:0:
426,192,91954,1,0,0:0:0:0:
199,192,92317,1,8,0:0:0:0:
369,192,92681,1,0,0:0:0:0:
142,192,93045,1,8,0:0:0:0:
369,192,93408,1,0,0:0:0:0:
142,192,93772,1,8,0:0:0:0:
312,192,94135,1,0,0:0:0:0:
85,192,94499,1,8,0:0:0:0:
312,192,94863,1,0,0:0:0:0:
483,192,95590,1,4,0:0:0:0:
483,192,96317,1,0,0:0:0:0:
369,192,97045,1,0,0:0:0:0:
256,192,97772,1,0,0:0:0:0:
199,192,98135,1,0,0:0:0:0:
142,192,98499,1,0,0:0:0:0:
142,192,99226,1,0,0:0:0:0:
142,192,99954,1,0,0:0:0:0:
28,192,100681,1,0,0:0:0:0:
85,192,101045,1,0,0:0:0:0:
142,192,101408,1,0,0:0:0:0:
142,192,102135,1,0,0:0:0:0:
199,192,102863,1,0,0:0:0:0:
199,192,103590,1,0,0:0:0:0:
256,192,103954,1,0,0:0:0:0:
142,192,104317,1,10,0:0:0:0:
28,192,104499,1,10,0:0:0:0:
483,192,105045,1,10,0:0:0:0:
369,192,105226,1,10,0:0:0:0:
142,192,105590,1,10,0:0:0:0:
28,192,105954,1,10,0:0:0:0:
483,192,106135,1,10,0:0:0:0:
369,192,106317,1,10,0:0:0:0:
28,192,107045,1,10,0:0:0:0:
142,192,107408,1,10,0:0:0:0:
369,192,107590,1,10,0:0:0:0:
483,192,107772,1,10,0:0:0:0:
483,192,108681,1,0,0:0:0:0:
369,192,108681,1,4,0:0:0:0:
199,192,109045,1,8,0:0:0:0:
483,192,109408,1,0,0:0:0:0:
199,192,109772,1,8,0:0:0:0:
369,192,110135,1,2,0:0:0:0:
256,192,110499,1,10,0:0:0:0:
142,192,110863,1,2,0:0:0:0:
28,192,111226,1,10,0:0:0:0:
199,192,111590,1,0,0:0:0:0:
369,192,111954,1,8,0:0:0:0:
199,192,112317,1,0,0:0:0:0:
369,192,112681,1,8,0:0:0:0:
142,192,113045,1,0,0:0:0:0:
256,192,113408,1,8,0:0:0:0:
426,192,113772,1,0,0:0:0:0:
312,192,114135,1,8,0:0:0:0:
28,192,114499,1,0,0:0:0:0:
312,192,114863,1,8,0:0:0:0:
28,192,115226,1,0,0:0:0:0:
312,192,115590,1,8,0:0:0:0:
142,192,115954,1,2,0:0:0:0:
256,192,116317,1,10,0:0:0:0:
369,192,116681,1,2,0:0:0:0:
483,192,117045,1,10,0:0:0:0:
312,192,117408,1,0,0:0:0:0:
142,192,117772,1,8,0:0:0:0:
312,192,118135,1,0,0:0:0:0:
142,192,118499,1,8,0:0:0:0:
483,192,118863,1,6,0:0:0:0:
28,192,119226,1,6,0:0:0:0:
483,192,119590,1,6,0:0:0:0:
28,192,119954,1,6,0:0:0:0:
483,192,120317,1,4,0:0:0:0:
256,192,120681,1,8,0:0:0:0:
483,192,121045,1,0,0:0:0:0:
256,192,121408,1,8,0:0:0:0:
426,192,121772,1,2,0:0:0:0:
312,192,122135,1,10,0:0:0:0:
199,192,122499,1,2,0:0:0:0:
85,192,122863,1,10,0:0:0:0:
256,192,123226,1,0,0:0:0:0:
426,192,123590,1,8,0:0:0:0:
256,192,123954,1,0,0:0:0:0:
426,192,124317,1,8,0:0:0:0:
142,192,124681,1,0,0:0:0:0:
256,192,125045,1,8,0:0:0:0:
426,192,125408,1,0,0:0:0:0:
312,192,125772,1,8,0:0:0:0:
28,192,126135,1,0,0:0:0:0:
426,192,126499,1,8,0:0:0:0:
28,192,126863,1,0,0:0:0:0:
426,192,127226,1,8,0:0:0:0:
142,192,127590,1,2,0:0:0:0:
256,192,127954,1,10,0:0:0:0:
369,192,128317,1,2,0:0:0:0:
483,192,128681,1,10,0:0:0:0:
312,192,129045,1,0,0:0:0:0:
142,192,129408,1,8,0:0:0:0:
312,192,129772,1,0,0:0:0:0:
142,192,130135,1,8,0:0:0:0:
483,192,130499,1,0,0:0:0:0:
28,192,130863,1,8,0:0:0:0:
483,192,131226,1,0,0:0:0:0:
28,192,131590,1,8,0:0:0:0:
256,192,131954,1,4,0:0:0:0:
256,192,132317,1,8,0:0:0:0:
142,192,132681,1,4,0:0:0:0:
369,192,133045,1,12,0:0:0:0:
256,192,133408,128,4,141045:0:0:0:0:
