osu file format v14

[General]
AudioFilename: remo.mp3
AudioLeadIn: 0
PreviewTime: 65045
Countdown: 0
SampleSet: Normal
StackLeniency: 0.7
Mode: 3
LetterboxInBreaks: 0
SpecialStyle: 0
WidescreenStoryboard: 0

[Editor]
DistanceSpacing: 1
BeatDivisor: 4
GridSize: 8
TimelineZoom: 1.7

[Metadata]
Title:Remote Control
TitleUnicode:リモコン
Artist:Saiya
ArtistUnicode:祭屋
Creator:ExUsagi
Version:9K Insanity
Source:
Tags:
BeatmapID:690439
BeatmapSetID:308297

[Difficulty]
HPDrainRate:9
CircleSize:9
OverallDifficulty:9
ApproachRate:5
SliderMultiplier:1.4
SliderTickRate:1

[Events]
//Background and Video events
0,0,"remokon.jpg",0,0
//Break Periods
//Storyboard Layer 0 (Background)
//Storyboard Layer 1 (Fail)
//Storyboard Layer 2 (Pass)
//Storyboard Layer 3 (Foreground)
//Storyboard Sound Samples
Sample,49045,0,"normal-hitnormal.wav",60
Sample,49772,0,"normal-hitnormal.wav",60
Sample,54863,0,"normal-hitnormal.wav",60
Sample,55590,0,"normal-hitnormal.wav",60

[TimingPoints]
1045,363.636363636364,4,1,1,60,1,0
67954,-100,4,1,1,60,0,1
82499,-100,4,1,1,60,0,0
83954,-100,4,1,1,60,0,1
84045,-100,4,1,1,60,0,0
108681,-100,4,1,1,60,0,1
131954,-100,4,1,1,60,0,0

[HitObjects]
28,192,1045,128,0,3954:0:0:0:0:
483,192,1045,128,0,3954:0:0:0:0:
85,192,3954,1,0,0:0:0:0:
142,192,3954,1,2,2:0:0:0:
312,192,4317,1,8,0:0:0:0:
483,192,4317,1,0,0:0:0:0:
85,192,4681,1,0,0:0:0:0:
142,192,4681,1,2,2:0:0:0:
483,192,5045,1,0,0:0:0:0:
312,192,5045,1,8,0:0:0:0:
28,192,5408,1,0,0:0:0:0:
199,192,5408,1,2,2:0:0:0:
312,192,5772,1,8,0:0:0:0:
85,192,5772,1,0,0:0:0:0:
142,192,6135,1,2,2:0:0:0:
426,192,6135,1,0,0:0:0:0:
85,192,6499,1,0,0:0:0:0:
312,192,6499,1,8,0:0:0:0:
28,192,6681,1,4,3:0:0:0:
369,192,6863,1,2,2:0:0:0:
483,192,6863,1,0,0:0:0:0:
312,192,7226,1,8,0:0:0:0:
85,192,7226,1,0,0:0:0:0:
142,192,7590,1,0,0:0:0:0:
256,192,7590,1,2,2:0:0:0:
28,192,7954,1,0,0:0:0:0:
85,192,7954,1,8,0:0:0:0:
28,192,8317,1,0,0:0:0:0:
85,192,8317,1,2,2:0:0:0:
142,192,8681,1,8,0:0:0:0:
312,192,8681,1,0,0:0:0:0:
28,192,9045,1,0,0:0:0:0:
85,192,9045,1,2,2:0:0:0:
483,192,9408,1,0,0:0:0:0:
426,192,9408,1,8,0:0:0:0:
312,192,9590,1,4,3:0:0:0:
85,192,9772,1,0,0:0:0:0:
142,192,9772,1,2,2:0:0:0:
483,192,10135,1,8,0:0:0:0:
312,192,10135,1,0,0:0:0:0:
85,192,10499,1,0,0:0:0:0:
142,192,10499,1,2,2:0:0:0:
312,192,10863,1,0,0:0:0:0:
483,192,10863,1,8,0:0:0:0:
312,192,11226,1,2,2:0:0:0:
483,192,11226,1,0,0:0:0:0:
426,192,11590,1,0,0:0:0:0:
199,192,11590,1,8,0:0:0:0:
369,192,11954,1,0,0:0:0:0:
85,192,11954,1,2,2:0:0:0:
199,192,12317,1,8,0:0:0:0:
426,192,12317,1,0,0:0:0:0:
28,192,12499,1,4,3:0:0:0:
483,192,12681,1,0,0:0:0:0:
369,192,12681,1,2,2:0:0:0:
85,192,13045,1,0,0:0:0:0:
312,192,13045,1,8,0:0:0:0:
142,192,13408,1,0,0:0:0:0:
256,192,13408,1,2,2:0:0:0:
28,192,13772,1,0,0:0:0:0:
85,192,13772,1,8,0:0:0:0:
28,192,14135,1,0,0:0:0:0:
85,192,14135,1,2,2:0:0:0:
142,192,14499,1,0,0:0:0:0:
256,192,14499,1,8,0:0:0:0:
85,192,14863,1,0,0:0:0:0:
312,192,14863,1,2,2:0:0:0:
483,192,15226,1,0,0:0:0:0:
426,192,15226,1,8,0:0:0:0:
312,192,15408,1,4,3:0:0:0:
199,192,15590,1,4,0:0:0:0:
85,192,15590,1,0,0:0:0:0:
369,192,15772,1,0,0:0:0:0:
256,192,15863,1,0,0:0:0:0:
142,192,15954,1,8,0:0:0:0:
28,192,15954,1,0,0:0:0:0:
483,192,16045,1,0,0:0:0:0:
369,192,16135,1,0,0:0:0:0:
256,192,16226,1,0,0:0:0:0:
85,192,16317,1,0,0:0:0:0:
199,192,16317,1,2,2:0:0:0:
369,192,16499,1,0,0:0:0:0:
256,192,16590,1,0,0:0:0:0:
142,192,16681,1,8,0:0:0:0:
28,192,16681,1,0,0:0:0:0:
256,192,16772,1,0,0:0:0:0:
369,192,16863,1,0,0:0:0:0:
483,192,16954,1,0,0:0:0:0:
85,192,17045,1,0,0:0:0:0:
199,192,17045,1,2,2:0:0:0:
483,192,17226,1,0,0:0:0:0:
312,192,17226,1,2,2:0:0:0:
256,192,17408,1,8,0:0:0:0:
426,192,17408,1,0,0:0:0:0:
312,192,17590,1,0,0:0:0:0:
142,192,17590,1,2,2:0:0:0:
199,192,17772,1,0,0:0:0:0:
28,192,17772,1,2,2:0:0:0:
369,192,17954,1,0,0:0:0:0:
483,192,18045,1,0,0:0:0:0:
85,192,18135,1,0,0:0:0:0:
199,192,18135,1,8,0:0:0:0:
369,192,18226,1,0,0:0:0:0:
256,192,18317,1,0,0:0:0:0:
28,192,18499,1,0,0:0:0:0:
142,192,18499,1,2,2:0:0:0:
312,192,18590,1,0,0:0:0:0:
426,192,18681,1,0,0:0:0:0:
85,192,18863,1,0,0:0:0:0:
199,192,18863,1,8,0:0:0:0:
256,192,18954,1,0,0:0:0:0:
369,192,19045,1,0,0:0:0:0:
483,192,19135,1,0,0:0:0:0:
142,192,19226,1,2,2:0:0:0:
28,192,19226,1,0,0:0:0:0:
426,192,19408,1,0,0:0:0:0:
256,192,19408,1,2,2:0:0:0:
369,192,19590,1,0,0:0:0:0:
199,192,19590,1,8,0:0:0:0:
28,192,19681,1,0,0:0:0:0:
199,192,19772,1,0,0:0:0:0:
28,192,19863,1,0,0:0:0:0:
312,192,19954,1,0,0:0:0:0:
369,192,20135,1,0,0:0:0:0:
426,192,20317,1,0,0:0:0:0:
426,192,20499,1,0,0:0:0:0:
256,192,20681,1,0,0:0:0:0:
199,192,20863,1,0,0:0:0:0:
142,192,21045,1,0,0:0:0:0:
28,192,21408,1,0,0:0:0:0:
483,192,21408,1,4,0:0:0:0:
312,192,21408,1,0,0:0:0:0:
85,192,21590,1,0,0:0:0:0:
199,192,21681,1,0,0:0:0:0:
312,192,21772,1,0,0:0:0:0:
483,192,21772,1,8,0:0:0:0:
85,192,21954,1,0,0:0:0:0:
199,192,21954,1,0,0:0:0:0:
312,192,22135,1,0,0:0:0:0:
483,192,22135,1,0,0:0:0:0:
85,192,22499,1,8,0:0:0:0:
199,192,22499,1,0,0:0:0:0:
312,192,22590,1,0,0:0:0:0:
199,192,22681,1,0,0:0:0:0:
85,192,22681,1,0,0:0:0:0:
312,192,22772,1,0,0:0:0:0:
142,192,22863,1,0,0:0:0:0:
256,192,22863,1,0,0:0:0:0:
369,192,23045,1,0,0:0:0:0:
483,192,23045,1,0,0:0:0:0:
312,192,23226,1,8,0:0:0:0:
199,192,23226,1,0,0:0:0:0:
256,192,23408,1,0,0:0:0:0:
142,192,23408,1,0,0:0:0:0:
28,192,23590,1,0,0:0:0:0:
142,192,23590,1,0,0:0:0:0:
426,192,23772,1,0,0:0:0:0:
256,192,23863,1,0,0:0:0:0:
483,192,23954,1,0,0:0:0:0:
369,192,23954,1,8,0:0:0:0:
85,192,24135,1,0,0:0:0:0:
256,192,24317,1,0,0:0:0:0:
369,192,24408,1,0,0:0:0:0:
483,192,24499,1,0,0:0:0:0:
142,192,24499,1,0,0:0:0:0:
199,192,24681,1,8,0:0:0:0:
312,192,24772,1,0,0:0:0:0:
85,192,24863,1,0,0:0:0:0:
426,192,24863,1,0,0:0:0:0:
483,192,25045,1,0,0:0:0:0:
369,192,25045,1,0,0:0:0:0:
199,192,25226,1,0,0:0:0:0:
85,192,25226,1,0,0:0:0:0:
312,192,25408,1,8,0:0:0:0:
426,192,25408,1,0,0:0:0:0:
28,192,25499,1,0,0:0:0:0:
312,192,25590,1,0,0:0:0:0:
426,192,25590,1,0,0:0:0:0:
28,192,25681,1,0,0:0:0:0:
85,192,25772,1,0,0:0:0:0:
256,192,25772,1,0,0:0:0:0:
142,192,25954,1,0,0:0:0:0:
312,192,25954,1,0,0:0:0:0:
483,192,26135,1,0,0:0:0:0:
369,192,26135,1,8,0:0:0:0:
369,192,26317,1,0,0:0:0:0:
483,192,26317,1,0,0:0:0:0:
256,192,26499,1,0,0:0:0:0:
426,192,26499,1,0,0:0:0:0:
142,192,26681,1,0,0:0:0:0:
312,192,26681,1,0,0:0:0:0:
28,192,26863,1,0,0:0:0:0:
199,192,26863,1,8,0:0:0:0:
28,192,27226,1,0,0:0:0:0:
483,192,27226,1,0,0:0:0:0:
312,192,27226,1,2,2:0:0:0:
85,192,27408,1,0,0:0:0:0:
199,192,27499,1,0,0:0:0:0:
483,192,27590,1,8,0:0:0:0:
312,192,27590,1,0,0:0:0:0:
199,192,27772,1,0,0:0:0:0:
85,192,27772,1,0,0:0:0:0:
483,192,27954,1,0,0:0:0:0:
312,192,27954,1,0,0:0:0:0:
199,192,28317,1,8,0:0:0:0:
85,192,28317,1,0,0:0:0:0:
312,192,28408,1,0,0:0:0:0:
85,192,28499,1,0,0:0:0:0:
199,192,28499,1,0,0:0:0:0:
312,192,28590,1,0,0:0:0:0:
142,192,28681,1,0,0:0:0:0:
256,192,28681,1,0,0:0:0:0:
483,192,28863,1,0,0:0:0:0:
369,192,28863,1,0,0:0:0:0:
199,192,29045,1,0,0:0:0:0:
312,192,29045,1,8,0:0:0:0:
256,192,29226,1,0,0:0:0:0:
142,192,29226,1,0,0:0:0:0:
28,192,29408,1,0,0:0:0:0:
142,192,29408,1,0,0:0:0:0:
426,192,29590,1,0,0:0:0:0:
256,192,29681,1,0,0:0:0:0:
483,192,29772,1,0,0:0:0:0:
369,192,29772,1,8,0:0:0:0:
85,192,29954,1,0,0:0:0:0:
256,192,30135,1,0,0:0:0:0:
369,192,30226,1,0,0:0:0:0:
483,192,30317,1,0,0:0:0:0:
142,192,30317,1,0,0:0:0:0:
199,192,30499,1,8,0:0:0:0:
312,192,30590,1,0,0:0:0:0:
85,192,30681,1,0,0:0:0:0:
426,192,30681,1,0,0:0:0:0:
483,192,30863,1,0,0:0:0:0:
369,192,30863,1,0,0:0:0:0:
199,192,31045,1,0,0:0:0:0:
85,192,31045,1,0,0:0:0:0:
312,192,31226,1,8,0:0:0:0:
426,192,31226,1,0,0:0:0:0:
28,192,31317,1,0,0:0:0:0:
426,192,31408,1,0,0:0:0:0:
312,192,31408,1,0,0:0:0:0:
28,192,31499,1,0,0:0:0:0:
85,192,31590,1,0,0:0:0:0:
256,192,31590,1,0,0:0:0:0:
142,192,31772,1,0,0:0:0:0:
312,192,31772,1,0,0:0:0:0:
483,192,31954,1,0,0:0:0:0:
369,192,31954,1,0,0:0:0:0:
369,192,32135,1,0,0:0:0:0:
483,192,32135,1,0,0:0:0:0:
426,192,32317,1,0,0:0:0:0:
256,192,32317,1,0,0:0:0:0:
142,192,32499,1,8,0:0:0:0:
312,192,32499,1,0,0:0:0:0:
28,192,32499,1,0,0:0:0:0:
28,192,32681,1,0,0:0:0:0:
142,192,32681,1,8,0:0:0:0:
28,192,32863,1,0,0:0:0:0:
142,192,32863,1,8,0:0:0:0:
85,192,33045,1,0,0:0:0:0:
199,192,33045,1,4,0:0:0:0:
426,192,33045,1,0,0:0:0:0:
483,192,33226,1,0,0:0:0:0:
369,192,33226,1,0,0:0:0:0:
28,192,33408,1,8,0:0:0:0:
256,192,33590,1,0,0:0:0:0:
85,192,33772,1,0,0:0:0:0:
199,192,33772,1,0,0:0:0:0:
369,192,33954,1,0,0:0:0:0:
483,192,33954,1,0,0:0:0:0:
28,192,34135,1,8,0:0:0:0:
199,192,34317,1,0,0:0:0:0:
85,192,34499,1,0,0:0:0:0:
256,192,34499,1,0,0:0:0:0:
312,192,34681,1,0,0:0:0:0:
483,192,34681,1,0,0:0:0:0:
28,192,34863,1,8,0:0:0:0:
199,192,35045,1,0,0:0:0:0:
85,192,35226,1,0,0:0:0:0:
256,192,35226,1,0,0:0:0:0:
312,192,35408,1,0,0:0:0:0:
483,192,35408,1,0,0:0:0:0:
28,192,35590,1,8,0:0:0:0:
256,192,35772,1,0,0:0:0:0:
369,192,35954,1,0,0:0:0:0:
312,192,35954,1,0,0:0:0:0:
142,192,36135,1,0,0:0:0:0:
85,192,36135,1,0,0:0:0:0:
28,192,36317,1,8,0:0:0:0:
256,192,36499,1,0,0:0:0:0:
369,192,36681,1,0,0:0:0:0:
426,192,36681,1,0,0:0:0:0:
142,192,36863,1,0,0:0:0:0:
199,192,36863,1,0,0:0:0:0:
28,192,37045,1,8,0:0:0:0:
199,192,37226,1,0,0:0:0:0:
426,192,37408,1,0,0:0:0:0:
256,192,37408,1,0,0:0:0:0:
312,192,37590,1,0,0:0:0:0:
483,192,37590,1,0,0:0:0:0:
28,192,37772,1,8,0:0:0:0:
426,192,37954,1,0,0:0:0:0:
369,192,38135,1,0,0:0:0:0:
199,192,38135,1,0,0:0:0:0:
142,192,38317,1,0,0:0:0:0:
312,192,38317,1,0,0:0:0:0:
28,192,38499,1,8,0:0:0:0:
369,192,38681,1,0,0:0:0:0:
85,192,38863,1,0,0:0:0:0:
199,192,38863,1,0,0:0:0:0:
369,192,39045,1,0,0:0:0:0:
483,192,39045,1,0,0:0:0:0:
28,192,39226,1,8,0:0:0:0:
256,192,39408,1,0,0:0:0:0:
85,192,39590,1,0,0:0:0:0:
199,192,39590,1,0,0:0:0:0:
483,192,39772,1,0,0:0:0:0:
369,192,39772,1,0,0:0:0:0:
28,192,39954,1,8,0:0:0:0:
256,192,40135,1,0,0:0:0:0:
85,192,40317,1,0,0:0:0:0:
199,192,40317,1,0,0:0:0:0:
483,192,40499,1,0,0:0:0:0:
312,192,40499,1,0,0:0:0:0:
28,192,40681,1,8,0:0:0:0:
256,192,40863,1,0,0:0:0:0:
199,192,41045,1,0,0:0:0:0:
85,192,41045,1,0,0:0:0:0:
483,192,41226,1,0,0:0:0:0:
312,192,41226,1,0,0:0:0:0:
28,192,41408,1,8,0:0:0:0:
256,192,41590,1,0,0:0:0:0:
312,192,41772,1,0,0:0:0:0:
369,192,41772,1,0,0:0:0:0:
142,192,41954,1,0,0:0:0:0:
85,192,41954,1,0,0:0:0:0:
28,192,42135,1,8,0:0:0:0:
256,192,42317,1,0,0:0:0:0:
426,192,42499,1,0,0:0:0:0:
369,192,42499,1,0,0:0:0:0:
199,192,42681,1,0,0:0:0:0:
142,192,42681,1,0,0:0:0:0:
28,192,42863,1,8,0:0:0:0:
199,192,43045,1,0,0:0:0:0:
256,192,43226,1,0,0:0:0:0:
426,192,43226,1,0,0:0:0:0:
312,192,43408,1,0,0:0:0:0:
483,192,43408,1,0,0:0:0:0:
28,192,43590,1,8,0:0:0:0:
426,192,43772,1,0,0:0:0:0:
199,192,43954,1,0,0:0:0:0:
369,192,43954,1,0,0:0:0:0:
142,192,44135,1,8,0:0:0:0:
312,192,44135,1,0,0:0:0:0:
142,192,44317,1,8,0:0:0:0:
312,192,44317,1,0,0:0:0:0:
483,192,44317,1,0,0:0:0:0:
142,192,44499,1,8,0:0:0:0:
312,192,44499,1,0,0:0:0:0:
28,192,44681,1,4,0:0:0:0:
199,192,44681,1,0,0:0:0:0:
369,192,44681,1,0,0:0:0:0:
312,192,45045,1,8,0:0:0:0:
483,192,45045,1,0,0:0:0:0:
142,192,45045,1,0,0:0:0:0:
199,192,45408,1,0,0:0:0:0:
369,192,45408,1,0,0:0:0:0:
28,192,45408,1,0,0:0:0:0:
142,192,45772,1,8,0:0:0:0:
312,192,45772,1,0,0:0:0:0:
483,192,45772,1,0,0:0:0:0:
256,192,46135,1,0,0:0:0:0:
483,192,46135,1,0,0:0:0:0:
142,192,46135,1,0,0:0:0:0:
199,192,46499,1,8,0:0:0:0:
426,192,46499,1,0,0:0:0:0:
85,192,46499,1,0,0:0:0:0:
85,192,46863,1,0,0:0:0:0:
312,192,46863,1,0,0:0:0:0:
426,192,46863,1,0,0:0:0:0:
256,192,47226,1,8,0:0:0:0:
28,192,47226,1,0,0:0:0:0:
369,192,47226,1,0,0:0:0:0:
256,192,47590,1,0,0:0:0:0:
28,192,47590,1,0,0:0:0:0:
369,192,47590,1,0,0:0:0:0:
85,192,47954,1,0,0:0:0:0:
312,192,47954,1,8,0:0:0:0:
426,192,47954,1,0,0:0:0:0:
426,192,48317,1,0,0:0:0:0:
199,192,48317,1,0,0:0:0:0:
85,192,48317,1,0,0:0:0:0:
256,192,48681,1,8,0:0:0:0:
483,192,48681,1,0,0:0:0:0:
142,192,48681,1,0,0:0:0:0:
28,192,48863,1,0,0:0:0:0:
199,192,48863,1,0,0:0:0:0:
85,192,49045,1,0,0:0:0:0:
256,192,49045,1,0,0:0:0:0:
312,192,49226,1,0,0:0:0:0:
142,192,49226,1,0,0:0:0:0:
483,192,49408,1,0,0:0:0:0:
369,192,49408,1,8,0:0:0:0:
369,192,49590,1,8,0:0:0:0:
483,192,49590,1,0,0:0:0:0:
256,192,49772,1,0,0:0:0:0:
426,192,49772,1,0,0:0:0:0:
142,192,49954,1,0,0:0:0:0:
312,192,49954,1,0,0:0:0:0:
28,192,50135,1,0,0:0:0:0:
199,192,50135,1,8,0:0:0:0:
28,192,50499,1,0,0:0:0:0:
199,192,50499,1,0,0:0:0:0:
369,192,50499,1,0,0:0:0:0:
483,192,50863,1,0,0:0:0:0:
312,192,50863,1,8,0:0:0:0:
142,192,50863,1,0,0:0:0:0:
28,192,51226,1,0,0:0:0:0:
199,192,51226,1,0,0:0:0:0:
369,192,51226,1,0,0:0:0:0:
483,192,51590,1,0,0:0:0:0:
312,192,51590,1,8,0:0:0:0:
142,192,51590,1,0,0:0:0:0:
483,192,51954,1,0,0:0:0:0:
256,192,51954,1,0,0:0:0:0:
28,192,51954,1,0,0:0:0:0:
312,192,52317,1,8,0:0:0:0:
426,192,52317,1,0,0:0:0:0:
28,192,52317,1,0,0:0:0:0:
85,192,52681,1,0,0:0:0:0:
199,192,52681,1,0,0:0:0:0:
369,192,52681,1,0,0:0:0:0:
256,192,53045,1,8,0:0:0:0:
28,192,53045,1,0,0:0:0:0:
369,192,53045,1,0,0:0:0:0:
256,192,53408,1,0,0:0:0:0:
28,192,53408,1,0,0:0:0:0:
369,192,53408,1,0,0:0:0:0:
85,192,53772,1,0,0:0:0:0:
199,192,53772,1,8,0:0:0:0:
369,192,53772,1,0,0:0:0:0:
426,192,54135,1,0,0:0:0:0:
483,192,54135,1,0,0:0:0:0:
369,192,54135,1,0,0:0:0:0:
199,192,54681,1,0,0:0:0:0:
28,192,54681,1,0,0:0:0:0:
85,192,54863,1,0,0:0:0:0:
256,192,54863,1,0,0:0:0:0:
312,192,55045,1,0,0:0:0:0:
142,192,55045,1,0,0:0:0:0:
483,192,55226,1,0,0:0:0:0:
369,192,55226,1,8,0:0:0:0:
483,192,55408,1,0,0:0:0:0:
369,192,55408,1,8,0:0:0:0:
426,192,55590,1,0,0:0:0:0:
256,192,55590,1,0,0:0:0:0:
28,192,55772,1,0,0:0:0:0:
142,192,55772,1,8,0:0:0:0:
28,192,55954,1,0,0:0:0:0:
142,192,55954,1,8,0:0:0:0:
28,192,56135,1,0,0:0:0:0:
142,192,56135,1,8,0:0:0:0:
256,192,56317,1,4,0:0:0:0:
369,192,56317,1,0,0:0:0:0:
483,192,56317,1,0,0:0:0:0:
369,192,56499,1,0,0:0:0:0:
483,192,56499,1,0,0:0:0:0:
28,192,56681,1,8,0:0:0:0:
142,192,56681,1,0,0:0:0:0:
199,192,56863,1,0,0:0:0:0:
85,192,56863,1,0,0:0:0:0:
312,192,57045,1,0,0:0:0:0:
426,192,57045,1,0,0:0:0:0:
483,192,57226,1,0,0:0:0:0:
369,192,57226,1,0,0:0:0:0:
28,192,57408,1,8,0:0:0:0:
199,192,57590,1,0,0:0:0:0:
312,192,57590,1,0,0:0:0:0:
369,192,57772,1,0,0:0:0:0:
483,192,57772,1,0,0:0:0:0:
483,192,57954,1,0,0:0:0:0:
369,192,57954,1,0,0:0:0:0:
28,192,58135,1,8,0:0:0:0:
369,192,58317,1,0,0:0:0:0:
483,192,58317,1,0,0:0:0:0:
199,192,58499,1,0,0:0:0:0:
312,192,58499,1,0,0:0:0:0:
312,192,58681,1,0,0:0:0:0:
199,192,58681,1,0,0:0:0:0:
142,192,58863,1,0,0:0:0:0:
256,192,58863,1,8,0:0:0:0:
256,192,59045,1,0,0:0:0:0:
142,192,59045,1,0,0:0:0:0:
199,192,59226,1,0,0:0:0:0:
28,192,59226,1,0,0:0:0:0:
28,192,59408,1,0,0:0:0:0:
199,192,59408,1,0,0:0:0:0:
483,192,59590,1,8,0:0:0:0:
142,192,59772,1,0,0:0:0:0:
312,192,59772,1,0,0:0:0:0:
28,192,59954,1,0,0:0:0:0:
199,192,59954,1,0,0:0:0:0:
199,192,60135,1,0,0:0:0:0:
28,192,60135,1,0,0:0:0:0:
483,192,60317,1,8,0:0:0:0:
28,192,60499,1,0,0:0:0:0:
199,192,60499,1,0,0:0:0:0:
312,192,60681,1,0,0:0:0:0:
142,192,60681,1,0,0:0:0:0:
142,192,60863,1,0,0:0:0:0:
312,192,60863,1,0,0:0:0:0:
483,192,61045,1,8,0:0:0:0:
85,192,61226,1,0,0:0:0:0:
256,192,61226,1,0,0:0:0:0:
142,192,61408,1,0,0:0:0:0:
312,192,61408,1,0,0:0:0:0:
312,192,61590,1,0,0:0:0:0:
142,192,61590,1,0,0:0:0:0:
199,192,61772,1,0,0:0:0:0:
369,192,61772,1,8,0:0:0:0:
199,192,61954,1,0,0:0:0:0:
369,192,61954,1,0,0:0:0:0:
483,192,62135,1,0,0:0:0:0:
312,192,62135,1,0,0:0:0:0:
312,192,62317,1,0,0:0:0:0:
483,192,62317,1,0,0:0:0:0:
142,192,62499,1,8,0:0:0:0:
28,192,62499,1,0,0:0:0:0:
85,192,62681,1,0,0:0:0:0:
199,192,62681,1,0,0:0:0:0:
312,192,62863,1,0,0:0:0:0:
426,192,62863,1,0,0:0:0:0:
369,192,63045,1,0,0:0:0:0:
483,192,63045,1,0,0:0:0:0:
28,192,63226,1,8,0:0:0:0:
199,192,63408,1,0,0:0:0:0:
312,192,63408,1,0,0:0:0:0:
369,192,63590,1,0,0:0:0:0:
483,192,63590,1,0,0:0:0:0:
483,192,63772,1,0,0:0:0:0:
369,192,63772,1,0,0:0:0:0:
28,192,63954,1,8,0:0:0:0:
369,192,64135,1,0,0:0:0:0:
483,192,64135,1,0,0:0:0:0:
28,192,64317,1,0,0:0:0:0:
142,192,64317,1,0,0:0:0:0:
85,192,64499,1,0,0:0:0:0:
199,192,64499,1,0,0:0:0:0:
312,192,64681,1,0,0:0:0:0:
426,192,64681,1,8,0:0:0:0:
369,192,64863,1,0,0:0:0:0:
256,192,64863,1,0,0:0:0:0:
312,192,65045,1,8,0:0:0:0:
483,192,65045,1,0,0:0:0:0:
199,192,65045,1,2,0:0:0:0:
142,192,65226,1,8,0:0:0:0:
28,192,65226,1,0,0:0:0:0:
85,192,65226,1,2,0:0:0:0:
312,192,65772,1,2,0:0:0:0:
483,192,65772,1,0,0:0:0:0:
199,192,65772,1,8,0:0:0:0:
85,192,65954,1,2,0:0:0:0:
28,192,65954,1,0,0:0:0:0:
142,192,65954,1,8,0:0:0:0:
312,192,66317,1,8,0:0:0:0:
483,192,66317,1,0,0:0:0:0:
199,192,66317,1,2,0:0:0:0:
483,192,66681,1,8,0:0:0:0:
142,192,66681,1,0,0:0:0:0:
312,192,66681,1,2,0:0:0:0:
426,192,66863,1,0,0:0:0:0:
85,192,66863,1,8,0:0:0:0:
256,192,66863,1,2,0:0:0:0:
369,192,67045,1,8,0:0:0:0:
199,192,67045,1,2,0:0:0:0:
28,192,67045,1,0,0:0:0:0:
28,192,67590,1,8,3:0:0:0:
483,192,67590,1,8,3:0:0:0:
85,192,67954,1,0,0:0:0:0:
369,192,67954,1,4,0:0:0:0:
483,192,67954,1,2,2:0:0:0:
142,192,68135,1,0,0:0:0:0:
312,192,68317,1,8,0:0:0:0:
426,192,68317,1,0,0:0:0:0:
199,192,68408,1,0,0:0:0:0:
85,192,68499,1,0,0:0:0:0:
369,192,68681,1,2,2:0:0:0:
483,192,68681,1,0,0:0:0:0:
142,192,68863,1,0,0:0:0:0:
426,192,69045,1,0,0:0:0:0:
312,192,69045,1,8,0:0:0:0:
199,192,69135,1,0,0:0:0:0:
85,192,69226,1,0,0:0:0:0:
199,192,69408,1,0,0:0:0:0:
483,192,69408,1,0,0:0:0:0:
369,192,69408,1,2,1:0:0:0:
256,192,69590,1,0,0:0:0:0:
142,192,69772,1,0,0:0:0:0:
312,192,69772,1,2,0:0:0:0:
426,192,69772,1,8,0:0:0:0:
256,192,69954,1,0,0:0:0:0:
142,192,70135,1,2,0:0:0:0:
28,192,70135,1,0,0:0:0:0:
312,192,70135,1,0,0:0:0:0:
256,192,70317,1,0,0:0:0:0:
199,192,70499,1,2,0:0:0:0:
369,192,70499,1,0,0:0:0:0:
85,192,70499,1,8,0:0:0:0:
426,192,70681,1,0,0:0:0:0:
28,192,70863,1,0,0:0:0:0:
142,192,70863,1,2,2:0:0:0:
483,192,71045,1,0,0:0:0:0:
199,192,71226,1,0,0:0:0:0:
312,192,71226,1,8,0:0:0:0:
85,192,71226,1,0,0:0:0:0:
426,192,71408,1,0,0:0:0:0:
142,192,71590,1,2,2:0:0:0:
28,192,71590,1,0,0:0:0:0:
483,192,71772,1,0,0:0:0:0:
85,192,71954,1,0,0:0:0:0:
199,192,71954,1,0,0:0:0:0:
312,192,71954,1,8,0:0:0:0:
426,192,72135,1,0,0:0:0:0:
142,192,72317,1,0,0:0:0:0:
28,192,72317,1,0,0:0:0:0:
256,192,72317,1,2,2:0:0:0:
369,192,72499,1,0,0:0:0:0:
483,192,72499,1,0,0:0:0:0:
199,192,72681,1,8,0:0:0:0:
312,192,72681,1,0,0:0:0:0:
28,192,72863,1,0,0:0:0:0:
142,192,72863,1,0,0:0:0:0:
199,192,73045,1,0,0:0:0:0:
312,192,73045,1,2,2:0:0:0:
426,192,73045,1,0,0:0:0:0:
483,192,73226,1,0,0:0:0:0:
142,192,73226,1,0,0:0:0:0:
85,192,73408,1,8,0:0:0:0:
426,192,73408,1,0,0:0:0:0:
28,192,73590,1,0,0:0:0:0:
369,192,73590,1,0,0:0:0:0:
426,192,73772,1,0,0:0:0:0:
85,192,73772,1,0,0:0:0:0:
312,192,73772,1,2,2:0:0:0:
142,192,73954,1,0,0:0:0:0:
256,192,74135,1,8,0:0:0:0:
369,192,74135,1,0,0:0:0:0:
142,192,74226,1,0,0:0:0:0:
28,192,74317,1,0,0:0:0:0:
426,192,74499,1,0,0:0:0:0:
312,192,74499,1,2,2:0:0:0:
142,192,74681,1,0,0:0:0:0:
369,192,74863,1,8,0:0:0:0:
483,192,74863,1,0,0:0:0:0:
199,192,74954,1,0,0:0:0:0:
28,192,75045,1,0,0:0:0:0:
369,192,75226,1,2,1:0:0:0:
483,192,75226,1,0,0:0:0:0:
199,192,75226,1,0,0:0:0:0:
256,192,75408,1,0,0:0:0:0:
312,192,75590,1,2,0:0:0:0:
426,192,75590,1,8,0:0:0:0:
142,192,75590,1,0,0:0:0:0:
256,192,75772,1,0,0:0:0:0:
28,192,75954,1,0,0:0:0:0:
142,192,75954,1,2,0:0:0:0:
312,192,75954,1,0,0:0:0:0:
256,192,76135,1,0,0:0:0:0:
369,192,76317,1,0,0:0:0:0:
199,192,76317,1,2,0:0:0:0:
85,192,76317,1,8,0:0:0:0:
426,192,76499,1,0,0:0:0:0:
142,192,76681,1,2,2:0:0:0:
28,192,76681,1,0,0:0:0:0:
483,192,76863,1,0,0:0:0:0:
85,192,77045,1,0,0:0:0:0:
199,192,77045,1,0,0:0:0:0:
312,192,77045,1,8,0:0:0:0:
426,192,77226,1,0,0:0:0:0:
142,192,77408,1,2,2:0:0:0:
28,192,77408,1,0,0:0:0:0:
483,192,77590,1,0,0:0:0:0:
199,192,77772,1,0,0:0:0:0:
312,192,77772,1,8,0:0:0:0:
85,192,77772,1,0,0:0:0:0:
426,192,77954,1,0,0:0:0:0:
483,192,78135,1,0,0:0:0:0:
369,192,78135,1,2,2:0:0:0:
28,192,78317,1,0,0:0:0:0:
426,192,78499,1,0,0:0:0:0:
199,192,78499,1,0,0:0:0:0:
312,192,78499,1,8,0:0:0:0:
85,192,78681,1,0,0:0:0:0:
369,192,78863,1,2,2:0:0:0:
483,192,78863,1,0,0:0:0:0:
28,192,79045,1,0,0:0:0:0:
426,192,79226,1,0,0:0:0:0:
199,192,79226,1,0,0:0:0:0:
312,192,79226,1,8,0:0:0:0:
85,192,79408,1,0,0:0:0:0:
142,192,79590,1,0,0:0:0:0:
256,192,79590,1,4,0:0:0:0:
369,192,79590,1,0,0:0:0:0:
483,192,79772,1,0,0:0:0:0:
256,192,79954,1,0,0:0:0:0:
483,192,80135,1,0,0:0:0:0:
199,192,80317,1,4,0:0:0:0:
312,192,80317,1,0,2:0:0:0:
85,192,80317,128,0,81045:0:0:0:0:
426,192,80317,128,0,81045:0:0:0:0:
256,192,81045,1,0,0:0:0:0:
142,192,81045,1,4,0:0:0:0:
369,192,81045,1,0,0:0:0:0:
28,192,81226,1,0,0:0:0:0:
85,192,81408,1,0,0:0:0:0:
199,192,81408,1,4,0:0:0:0:
369,192,81408,1,0,2:0:0:0:
483,192,81408,1,0,0:0:0:0:
483,192,81590,1,0,0:0:0:0:
369,192,81590,1,0,0:0:0:0:
426,192,81772,1,0,0:0:0:0:
312,192,81772,1,0,2:0:0:0:
142,192,81772,1,4,0:0:0:0:
28,192,81772,1,0,0:0:0:0:
256,192,81954,1,0,0:0:0:0:
369,192,81954,1,4,0:0:0:0:
142,192,82135,1,4,0:0:0:0:
28,192,82135,1,0,0:0:0:0:
483,192,82226,1,0,0:0:0:0:
369,192,82226,1,4,0:0:0:0:
142,192,82317,1,4,0:0:0:0:
28,192,82317,1,0,0:0:0:0:
142,192,82408,1,4,0:0:0:0:
28,192,82408,1,0,0:0:0:0:
483,192,82499,1,0,2:0:0:0:
312,192,82499,1,4,0:0:0:0:
369,192,82499,1,0,0:0:0:0:
199,192,82499,1,0,0:0:0:0:
28,192,83226,128,0,83590:0:0:0:0:
483,192,83590,128,0,83954:0:0:0:0:
28,192,83954,1,2,2:0:0:0:
142,192,83954,1,0,0:0:0:0:
256,192,83954,1,4,0:0:0:0:
369,192,83954,1,0,0:0:0:0:
256,192,84317,1,8,0:0:0:0:
426,192,84317,1,0,0:0:0:0:
28,192,84317,1,0,0:0:0:0:
85,192,84499,1,0,0:0:0:0:
199,192,84499,1,0,0:0:0:0:
256,192,84681,1,2,2:0:0:0:
426,192,84681,1,0,0:0:0:0:
28,192,85045,1,0,0:0:0:0:
312,192,85045,1,8,0:0:0:0:
483,192,85045,1,0,0:0:0:0:
142,192,85408,1,0,0:0:0:0:
199,192,85408,1,2,2:0:0:0:
28,192,85772,1,0,0:0:0:0:
312,192,85772,1,8,0:0:0:0:
483,192,85772,1,0,0:0:0:0:
142,192,86135,1,0,0:0:0:0:
199,192,86135,1,2,2:0:0:0:
256,192,86317,1,0,0:0:0:0:
312,192,86317,1,0,0:0:0:0:
28,192,86499,1,0,0:0:0:0:
483,192,86499,1,0,0:0:0:0:
369,192,86499,1,8,0:0:0:0:
85,192,86681,1,0,0:0:0:0:
256,192,86681,1,0,0:0:0:0:
142,192,86863,1,0,0:0:0:0:
312,192,86863,1,2,2:0:0:0:
483,192,87045,1,0,0:0:0:0:
312,192,87045,1,0,0:0:0:0:
28,192,87226,1,0,0:0:0:0:
256,192,87226,1,8,0:0:0:0:
426,192,87226,1,0,0:0:0:0:
142,192,87408,1,0,0:0:0:0:
312,192,87408,1,0,0:0:0:0:
312,192,87590,1,0,0:0:0:0:
142,192,87590,1,2,2:0:0:0:
28,192,87954,1,0,0:0:0:0:
256,192,87954,1,8,0:0:0:0:
483,192,87954,1,0,0:0:0:0:
199,192,88135,1,0,0:0:0:0:
369,192,88135,1,0,0:0:0:0:
426,192,88226,1,0,0:0:0:0:
142,192,88317,1,2,2:0:0:0:
312,192,88317,1,0,0:0:0:0:
85,192,88408,1,0,0:0:0:0:
256,192,88499,1,0,0:0:0:0:
426,192,88499,1,0,0:0:0:0:
28,192,88681,1,0,0:0:0:0:
199,192,88681,1,8,0:0:0:0:
369,192,88681,1,0,0:0:0:0:
199,192,89045,1,2,2:0:0:0:
142,192,89045,1,0,0:0:0:0:
28,192,89408,1,0,0:0:0:0:
312,192,89408,1,8,0:0:0:0:
483,192,89408,1,0,0:0:0:0:
199,192,89772,1,2,2:0:0:0:
85,192,89772,1,0,0:0:0:0:
483,192,89954,1,0,0:0:0:0:
369,192,90045,1,0,0:0:0:0:
142,192,90135,1,0,0:0:0:0:
256,192,90135,1,8,0:0:0:0:
312,192,90226,1,0,0:0:0:0:
369,192,90317,1,0,0:0:0:0:
256,192,90408,1,0,0:0:0:0:
199,192,90499,1,2,2:0:0:0:
85,192,90499,1,0,0:0:0:0:
312,192,90590,1,0,0:0:0:0:
426,192,90681,1,0,0:0:0:0:
199,192,90772,1,0,0:0:0:0:
28,192,90863,1,0,0:0:0:0:
142,192,90863,1,8,0:0:0:0:
256,192,90954,1,0,0:0:0:0:
369,192,91045,1,0,0:0:0:0:
312,192,91135,1,0,0:0:0:0:
142,192,91226,1,2,2:0:0:0:
256,192,91226,1,0,0:0:0:0:
369,192,91317,1,0,0:0:0:0:
483,192,91408,1,0,0:0:0:0:
426,192,91499,1,0,0:0:0:0:
256,192,91590,1,8,0:0:0:0:
369,192,91590,1,0,0:0:0:0:
142,192,91681,1,0,0:0:0:0:
28,192,91772,1,0,0:0:0:0:
85,192,91863,1,0,0:0:0:0:
256,192,91954,1,2,2:0:0:0:
142,192,91954,1,0,0:0:0:0:
426,192,92045,1,0,0:0:0:0:
312,192,92135,1,0,0:0:0:0:
28,192,92317,1,0,0:0:0:0:
142,192,92317,1,2,0:0:0:0:
483,192,92317,1,0,0:0:0:0:
369,192,92317,1,0,0:0:0:0:
199,192,92681,1,0,0:0:0:0:
312,192,92681,1,2,2:0:0:0:
85,192,92681,1,0,0:0:0:0:
369,192,92863,1,0,0:0:0:0:
483,192,92863,1,0,0:0:0:0:
312,192,92954,1,0,0:0:0:0:
28,192,93045,1,0,0:0:0:0:
142,192,93045,1,8,0:0:0:0:
256,192,93045,1,0,0:0:0:0:
312,192,93226,1,0,0:0:0:0:
483,192,93226,1,0,0:0:0:0:
256,192,93317,1,0,0:0:0:0:
199,192,93408,1,2,2:0:0:0:
28,192,93408,1,0,0:0:0:0:
85,192,93408,1,0,0:0:0:0:
483,192,93590,1,0,0:0:0:0:
369,192,93590,1,0,0:0:0:0:
312,192,93681,1,0,0:0:0:0:
28,192,93772,1,0,0:0:0:0:
142,192,93772,1,8,0:0:0:0:
256,192,93772,1,0,0:0:0:0:
483,192,93954,1,0,0:0:0:0:
369,192,93954,1,0,0:0:0:0:
312,192,94045,1,0,0:0:0:0:
142,192,94135,1,0,0:0:0:0:
256,192,94135,1,2,2:0:0:0:
28,192,94135,1,0,0:0:0:0:
426,192,94317,1,0,0:0:0:0:
483,192,94317,1,0,0:0:0:0:
256,192,94408,1,0,0:0:0:0:
312,192,94408,1,0,0:0:0:0:
85,192,94499,1,8,0:0:0:0:
142,192,94499,1,0,0:0:0:0:
256,192,94681,1,0,0:0:0:0:
312,192,94681,1,0,0:0:0:0:
369,192,94863,128,4,95226:0:0:0:0:
483,192,94863,128,2,95226:0:0:0:0:
85,192,95045,1,0,0:0:0:0:
28,192,95045,1,0,0:0:0:0:
199,192,95045,1,8,0:0:0:0:
28,192,95226,1,0,0:0:0:0:
85,192,95226,1,0,0:0:0:0:
199,192,95226,1,8,0:0:0:0:
85,192,95408,1,0,0:0:0:0:
28,192,95408,1,0,0:0:0:0:
199,192,95408,1,8,0:0:0:0:
28,192,95590,1,0,0:0:0:0:
85,192,95590,1,4,0:0:0:0:
483,192,95590,1,0,0:0:0:0:
369,192,95590,1,2,2:0:0:0:
369,192,95772,1,0,0:0:0:0:
483,192,95772,1,0,0:0:0:0:
256,192,95954,1,0,0:0:0:0:
142,192,95954,1,0,0:0:0:0:
28,192,95954,1,8,0:0:0:0:
199,192,96135,1,0,0:0:0:0:
85,192,96135,1,0,0:0:0:0:
426,192,96317,1,0,0:0:0:0:
312,192,96317,1,2,2:0:0:0:
483,192,96499,1,0,0:0:0:0:
369,192,96499,1,0,0:0:0:0:
28,192,96681,1,0,0:0:0:0:
85,192,96681,1,8,0:0:0:0:
312,192,96863,1,0,0:0:0:0:
199,192,96863,1,0,0:0:0:0:
369,192,97045,1,2,2:0:0:0:
483,192,97045,1,0,0:0:0:0:
369,192,97226,1,0,0:0:0:0:
483,192,97226,1,0,0:0:0:0:
28,192,97408,1,0,0:0:0:0:
85,192,97408,1,8,0:0:0:0:
369,192,97590,1,0,0:0:0:0:
483,192,97590,1,0,0:0:0:0:
199,192,97772,1,2,2:0:0:0:
312,192,97772,1,0,0:0:0:0:
312,192,97954,1,0,0:0:0:0:
199,192,97954,1,0,0:0:0:0:
142,192,98135,1,0,0:0:0:0:
256,192,98135,1,0,0:0:0:0:
483,192,98135,1,8,0:0:0:0:
142,192,98317,1,0,0:0:0:0:
256,192,98317,1,0,0:0:0:0:
199,192,98499,1,2,2:0:0:0:
28,192,98499,1,0,0:0:0:0:
199,192,98681,1,0,0:0:0:0:
28,192,98681,1,0,0:0:0:0:
483,192,98863,1,0,0:0:0:0:
426,192,98863,1,8,0:0:0:0:
142,192,99045,1,0,0:0:0:0:
312,192,99045,1,0,0:0:0:0:
199,192,99226,1,2,2:0:0:0:
28,192,99226,1,0,0:0:0:0:
199,192,99408,1,0,0:0:0:0:
28,192,99408,1,0,0:0:0:0:
483,192,99590,1,0,0:0:0:0:
426,192,99590,1,8,0:0:0:0:
28,192,99772,1,0,0:0:0:0:
199,192,99772,1,0,0:0:0:0:
142,192,99954,1,0,0:0:0:0:
312,192,99954,1,2,2:0:0:0:
312,192,100135,1,0,0:0:0:0:
142,192,100135,1,0,0:0:0:0:
483,192,100317,1,0,0:0:0:0:
426,192,100317,1,8,0:0:0:0:
85,192,100499,1,0,0:0:0:0:
256,192,100499,1,0,0:0:0:0:
142,192,100681,1,0,0:0:0:0:
312,192,100681,1,2,2:0:0:0:
142,192,100863,1,0,0:0:0:0:
312,192,100863,1,0,0:0:0:0:
369,192,101045,1,0,0:0:0:0:
199,192,101045,1,0,0:0:0:0:
28,192,101045,1,8,0:0:0:0:
369,192,101226,1,0,0:0:0:0:
199,192,101226,1,0,0:0:0:0:
312,192,101408,1,2,2:0:0:0:
483,192,101408,1,0,0:0:0:0:
312,192,101590,1,0,0:0:0:0:
483,192,101590,1,0,0:0:0:0:
256,192,101772,1,8,0:0:0:0:
142,192,101772,1,0,0:0:0:0:
28,192,101772,1,0,0:0:0:0:
85,192,101954,1,0,0:0:0:0:
199,192,101954,1,0,0:0:0:0:
426,192,102135,1,0,0:0:0:0:
312,192,102135,1,2,2:0:0:0:
483,192,102317,1,0,0:0:0:0:
369,192,102317,1,0,0:0:0:0:
28,192,102499,1,0,0:0:0:0:
85,192,102499,1,8,0:0:0:0:
199,192,102681,1,0,0:0:0:0:
312,192,102681,1,0,0:0:0:0:
483,192,102863,1,0,0:0:0:0:
369,192,102863,1,2,2:0:0:0:
369,192,103045,1,0,0:0:0:0:
483,192,103045,1,0,0:0:0:0:
28,192,103226,1,0,0:0:0:0:
85,192,103226,1,8,0:0:0:0:
369,192,103408,1,0,0:0:0:0:
483,192,103408,1,0,0:0:0:0:
85,192,103590,1,2,2:0:0:0:
199,192,103590,1,0,0:0:0:0:
142,192,103772,1,0,0:0:0:0:
28,192,103772,1,0,0:0:0:0:
312,192,103954,1,0,0:0:0:0:
199,192,103954,1,8,0:0:0:0:
483,192,103954,1,0,0:0:0:0:
256,192,104135,1,0,0:0:0:0:
369,192,104135,1,0,0:0:0:0:
312,192,104317,1,2,0:0:0:0:
426,192,104317,1,8,0:0:0:0:
483,192,104317,1,0,0:0:0:0:
85,192,104499,1,8,0:0:0:0:
28,192,104499,1,0,0:0:0:0:
199,192,104499,1,2,0:0:0:0:
312,192,105045,1,2,0:0:0:0:
483,192,105045,1,0,0:0:0:0:
426,192,105045,1,8,0:0:0:0:
28,192,105226,1,0,0:0:0:0:
199,192,105226,1,2,0:0:0:0:
85,192,105226,1,8,0:0:0:0:
426,192,105590,1,8,0:0:0:0:
312,192,105590,1,2,0:0:0:0:
483,192,105590,1,0,0:0:0:0:
28,192,105954,1,0,0:0:0:0:
85,192,105954,1,8,0:0:0:0:
199,192,105954,1,2,0:0:0:0:
483,192,106135,1,0,0:0:0:0:
426,192,106135,1,8,0:0:0:0:
312,192,106135,1,2,0:0:0:0:
142,192,106317,1,8,0:0:0:0:
256,192,106317,1,2,0:0:0:0:
369,192,106317,1,0,0:0:0:0:
85,192,107045,1,0,0:0:0:0:
256,192,107045,1,8,0:0:0:0:
426,192,107045,1,2,0:0:0:0:
142,192,107408,1,0,0:0:0:0:
256,192,107408,1,8,0:0:0:0:
369,192,107408,1,2,0:0:0:0:
85,192,107590,1,0,0:0:0:0:
256,192,107590,1,8,0:0:0:0:
426,192,107590,1,2,0:0:0:0:
28,192,107772,1,0,0:0:0:0:
483,192,107772,1,2,0:0:0:0:
256,192,107772,1,8,0:0:0:0:
28,192,108681,1,0,0:0:0:0:
256,192,108681,1,0,0:0:0:0:
369,192,108681,1,2,2:0:0:0:
483,192,108681,1,4,0:0:0:0:
85,192,108863,1,0,0:0:0:0:
312,192,109045,1,0,0:0:0:0:
426,192,109045,1,0,0:0:0:0:
28,192,109045,1,8,0:0:0:0:
199,192,109135,1,0,0:0:0:0:
85,192,109226,1,0,0:0:0:0:
256,192,109408,1,0,0:0:0:0:
483,192,109408,1,2,2:0:0:0:
369,192,109408,1,0,0:0:0:0:
85,192,109590,1,0,0:0:0:0:
312,192,109772,1,0,0:0:0:0:
28,192,109772,1,0,0:0:0:0:
426,192,109772,1,8,0:0:0:0:
199,192,109863,1,0,0:0:0:0:
85,192,109954,1,0,0:0:0:0:
256,192,110135,1,0,0:0:0:0:
312,192,110135,1,0,0:0:0:0:
426,192,110135,1,2,0:0:0:0:
85,192,110317,1,0,0:0:0:0:
199,192,110499,1,0,0:0:0:0:
256,192,110499,1,8,0:0:0:0:
369,192,110499,1,2,0:0:0:0:
426,192,110681,1,0,0:0:0:0:
312,192,110863,1,2,0:0:0:0:
256,192,110863,1,0,0:0:0:0:
142,192,110863,1,0,0:0:0:0:
369,192,111045,1,0,0:0:0:0:
256,192,111226,1,8,0:0:0:0:
199,192,111226,1,2,0:0:0:0:
85,192,111226,1,0,0:0:0:0:
28,192,111408,1,0,0:0:0:0:
483,192,111408,1,0,0:0:0:0:
85,192,111590,1,0,0:0:0:0:
199,192,111590,1,2,2:0:0:0:
426,192,111590,1,0,0:0:0:0:
369,192,111772,1,0,0:0:0:0:
483,192,111772,1,0,0:0:0:0:
28,192,111954,1,0,0:0:0:0:
142,192,111954,1,0,0:0:0:0:
256,192,111954,1,8,0:0:0:0:
369,192,112135,1,0,0:0:0:0:
483,192,112135,1,0,0:0:0:0:
426,192,112317,1,0,0:0:0:0:
199,192,112317,1,2,2:0:0:0:
85,192,112317,1,0,0:0:0:0:
483,192,112499,1,0,0:0:0:0:
369,192,112499,1,0,0:0:0:0:
28,192,112681,1,0,0:0:0:0:
142,192,112681,1,0,0:0:0:0:
256,192,112681,1,8,0:0:0:0:
369,192,112863,1,0,0:0:0:0:
483,192,112863,1,0,0:0:0:0:
199,192,113045,1,0,0:0:0:0:
256,192,113045,1,2,2:0:0:0:
312,192,113045,1,0,0:0:0:0:
369,192,113226,1,0,0:0:0:0:
426,192,113226,1,2,2:0:0:0:
483,192,113226,1,0,0:0:0:0:
256,192,113408,1,2,2:0:0:0:
312,192,113408,1,8,0:0:0:0:
199,192,113408,1,0,0:0:0:0:
142,192,113590,1,0,0:0:0:0:
85,192,113590,1,2,2:0:0:0:
28,192,113590,1,0,0:0:0:0:
199,192,113772,1,0,0:0:0:0:
256,192,113772,1,2,2:0:0:0:
312,192,113772,1,0,0:0:0:0:
483,192,113954,1,0,0:0:0:0:
426,192,113954,1,2,2:0:0:0:
369,192,113954,1,0,0:0:0:0:
312,192,114135,1,8,0:0:0:0:
256,192,114135,1,2,2:0:0:0:
199,192,114135,1,0,0:0:0:0:
142,192,114317,1,0,0:0:0:0:
85,192,114317,1,2,2:0:0:0:
28,192,114317,1,0,0:0:0:0:
28,192,114499,1,0,0:0:0:0:
256,192,114499,1,2,2:0:0:0:
142,192,114499,1,0,0:0:0:0:
426,192,114681,1,0,0:0:0:0:
483,192,114863,1,0,0:0:0:0:
199,192,114863,1,8,0:0:0:0:
85,192,114863,1,0,0:0:0:0:
312,192,114954,1,0,0:0:0:0:
426,192,115045,1,0,0:0:0:0:
256,192,115226,1,2,2:0:0:0:
28,192,115226,1,0,0:0:0:0:
142,192,115226,1,0,0:0:0:0:
426,192,115408,1,0,0:0:0:0:
85,192,115590,1,0,0:0:0:0:
199,192,115590,1,8,0:0:0:0:
483,192,115590,1,0,0:0:0:0:
312,192,115681,1,0,0:0:0:0:
426,192,115772,1,0,0:0:0:0:
142,192,115954,1,0,0:0:0:0:
256,192,115954,1,2,2:0:0:0:
28,192,115954,1,2,1:0:0:0:
369,192,116135,1,0,0:0:0:0:
199,192,116317,1,0,0:0:0:0:
85,192,116317,1,2,1:0:0:0:
312,192,116317,1,8,0:0:0:0:
426,192,116499,1,0,0:0:0:0:
256,192,116681,1,0,0:0:0:0:
369,192,116681,1,2,2:0:0:0:
142,192,116681,1,2,1:0:0:0:
85,192,116863,1,0,0:0:0:0:
312,192,117045,1,0,0:0:0:0:
199,192,117045,1,2,1:0:0:0:
426,192,117045,1,8,0:0:0:0:
483,192,117226,1,0,0:0:0:0:
142,192,117226,1,0,0:0:0:0:
85,192,117408,1,0,0:0:0:0:
426,192,117408,1,0,0:0:0:0:
199,192,117408,1,2,2:0:0:0:
483,192,117590,1,0,0:0:0:0:
369,192,117590,1,0,0:0:0:0:
142,192,117772,1,0,0:0:0:0:
28,192,117772,1,0,0:0:0:0:
256,192,117772,1,8,0:0:0:0:
369,192,117954,1,0,0:0:0:0:
483,192,117954,1,0,0:0:0:0:
199,192,118135,1,2,2:0:0:0:
426,192,118135,1,0,0:0:0:0:
85,192,118135,1,0,0:0:0:0:
369,192,118317,1,0,0:0:0:0:
483,192,118317,1,0,0:0:0:0:
142,192,118499,1,0,0:0:0:0:
28,192,118499,1,0,0:0:0:0:
256,192,118499,1,8,0:0:0:0:
369,192,118681,1,0,0:0:0:0:
483,192,118681,1,0,0:0:0:0:
199,192,118863,1,0,0:0:0:0:
256,192,118863,1,4,0:0:0:0:
85,192,118863,1,2,0:0:0:0:
28,192,118863,1,0,0:0:0:0:
199,192,119226,1,0,0:0:0:0:
312,192,119226,1,4,0:0:0:0:
142,192,119226,1,2,0:0:0:0:
369,192,119226,1,0,0:0:0:0:
426,192,119590,1,0,0:0:0:0:
312,192,119590,1,4,0:0:0:0:
256,192,119590,1,2,0:0:0:0:
483,192,119590,1,0,0:0:0:0:
369,192,119954,1,0,0:0:0:0:
142,192,119954,1,2,0:0:0:0:
312,192,119954,1,4,0:0:0:0:
199,192,119954,1,0,0:0:0:0:
256,192,120135,1,0,0:0:0:0:
28,192,120317,1,0,0:0:0:0:
483,192,120317,1,2,2:0:0:0:
142,192,120317,1,4,0:0:0:0:
85,192,120317,1,0,0:0:0:0:
199,192,120499,1,0,0:0:0:0:
426,192,120499,1,0,0:0:0:0:
142,192,120681,1,8,0:0:0:0:
483,192,120681,1,0,0:0:0:0:
28,192,120681,1,0,0:0:0:0:
256,192,120772,1,0,0:0:0:0:
369,192,120863,1,0,0:0:0:0:
28,192,121045,1,0,0:0:0:0:
483,192,121045,1,0,0:0:0:0:
142,192,121045,1,2,2:0:0:0:
199,192,121226,1,0,0:0:0:0:
426,192,121226,1,0,0:0:0:0:
483,192,121408,1,0,0:0:0:0:
142,192,121408,1,8,0:0:0:0:
28,192,121408,1,0,0:0:0:0:
256,192,121499,1,0,0:0:0:0:
369,192,121590,1,0,0:0:0:0:
142,192,121772,1,0,0:0:0:0:
199,192,121772,1,2,0:0:0:0:
483,192,121772,1,0,0:0:0:0:
426,192,121772,1,0,0:0:0:0:
312,192,121954,1,0,0:0:0:0:
85,192,122135,1,8,0:0:0:0:
142,192,122135,1,2,0:0:0:0:
369,192,122135,1,0,0:0:0:0:
426,192,122135,1,0,0:0:0:0:
256,192,122317,1,0,0:0:0:0:
28,192,122499,1,0,0:0:0:0:
85,192,122499,1,2,0:0:0:0:
312,192,122499,1,0,0:0:0:0:
369,192,122499,1,0,0:0:0:0:
199,192,122681,1,0,0:0:0:0:
369,192,122863,1,0,0:0:0:0:
426,192,122863,1,0,0:0:0:0:
142,192,122863,1,2,0:0:0:0:
85,192,122863,1,8,0:0:0:0:
312,192,123045,1,0,0:0:0:0:
199,192,123045,1,0,0:0:0:0:
256,192,123226,1,2,2:0:0:0:
28,192,123226,1,0,0:0:0:0:
426,192,123226,1,0,0:0:0:0:
85,192,123408,1,0,0:0:0:0:
142,192,123408,1,0,0:0:0:0:
312,192,123590,1,8,0:0:0:0:
483,192,123590,1,0,0:0:0:0:
28,192,123590,1,0,0:0:0:0:
199,192,123772,1,0,0:0:0:0:
256,192,123772,1,0,0:0:0:0:
312,192,123954,1,2,2:0:0:0:
28,192,123954,1,0,0:0:0:0:
426,192,123954,1,0,0:0:0:0:
85,192,124135,1,0,0:0:0:0:
142,192,124135,1,0,0:0:0:0:
312,192,124317,1,8,0:0:0:0:
483,192,124317,1,0,0:0:0:0:
28,192,124317,1,0,0:0:0:0:
256,192,124499,1,0,0:0:0:0:
199,192,124499,1,0,0:0:0:0:
28,192,124681,1,0,0:0:0:0:
85,192,124681,1,2,2:0:0:0:
369,192,124681,1,0,0:0:0:0:
199,192,124863,1,0,0:0:0:0:
256,192,124863,1,2,2:0:0:0:
312,192,124863,1,0,0:0:0:0:
142,192,125045,1,8,0:0:0:0:
483,192,125045,1,0,0:0:0:0:
426,192,125045,1,2,2:0:0:0:
199,192,125226,1,0,0:0:0:0:
312,192,125226,1,0,0:0:0:0:
256,192,125226,1,2,2:0:0:0:
85,192,125408,1,2,2:0:0:0:
369,192,125408,1,0,0:0:0:0:
28,192,125408,1,0,0:0:0:0:
256,192,125590,1,2,2:0:0:0:
199,192,125590,1,0,0:0:0:0:
312,192,125590,1,0,0:0:0:0:
142,192,125772,1,8,0:0:0:0:
483,192,125772,1,0,0:0:0:0:
426,192,125772,1,2,2:0:0:0:
312,192,125954,1,0,0:0:0:0:
199,192,125954,1,0,0:0:0:0:
256,192,125954,1,0,0:0:0:0:
28,192,126135,1,0,0:0:0:0:
85,192,126135,1,2,2:0:0:0:
369,192,126135,1,0,0:0:0:0:
426,192,126317,1,0,0:0:0:0:
483,192,126317,1,0,0:0:0:0:
142,192,126317,1,0,0:0:0:0:
199,192,126499,1,0,0:0:0:0:
312,192,126499,1,8,0:0:0:0:
142,192,126590,1,0,0:0:0:0:
369,192,126590,1,0,0:0:0:0:
85,192,126681,1,0,0:0:0:0:
426,192,126681,1,0,0:0:0:0:
28,192,126863,1,0,0:0:0:0:
199,192,126863,1,0,0:0:0:0:
369,192,126863,1,2,2:0:0:0:
483,192,127045,1,0,0:0:0:0:
312,192,127045,1,0,0:0:0:0:
142,192,127045,1,0,0:0:0:0:
85,192,127226,1,0,0:0:0:0:
426,192,127226,1,8,0:0:0:0:
142,192,127317,1,0,0:0:0:0:
369,192,127317,1,0,0:0:0:0:
199,192,127408,1,0,0:0:0:0:
312,192,127408,1,0,0:0:0:0:
28,192,127590,1,0,0:0:0:0:
85,192,127590,1,2,0:0:0:0:
256,192,127590,1,2,2:0:0:0:
483,192,127590,1,0,0:0:0:0:
426,192,127590,1,0,0:0:0:0:
199,192,127772,1,0,0:0:0:0:
312,192,127772,1,0,0:0:0:0:
256,192,127954,1,2,2:0:0:0:
85,192,127954,1,2,0:0:0:0:
142,192,127954,1,0,0:0:0:0:
369,192,127954,1,0,0:0:0:0:
426,192,127954,1,8,0:0:0:0:
199,192,128135,1,0,0:0:0:0:
312,192,128135,1,0,0:0:0:0:
256,192,128317,1,2,2:0:0:0:
142,192,128317,1,0,0:0:0:0:
369,192,128317,1,0,0:0:0:0:
483,192,128317,1,0,0:0:0:0:
28,192,128317,1,2,0:0:0:0:
199,192,128499,1,0,0:0:0:0:
312,192,128499,1,0,0:0:0:0:
28,192,128681,1,2,0:0:0:0:
483,192,128681,1,8,0:0:0:0:
85,192,128681,1,0,0:0:0:0:
426,192,128681,1,0,0:0:0:0:
256,192,128863,1,0,0:0:0:0:
142,192,128863,1,0,0:0:0:0:
369,192,128863,1,0,0:0:0:0:
199,192,129045,1,0,0:0:0:0:
312,192,129045,1,2,2:0:0:0:
28,192,129226,1,0,0:0:0:0:
142,192,129226,1,0,0:0:0:0:
256,192,129408,1,8,0:0:0:0:
426,192,129408,1,0,0:0:0:0:
483,192,129408,1,0,0:0:0:0:
85,192,129590,1,0,0:0:0:0:
199,192,129590,1,0,0:0:0:0:
369,192,129772,1,0,0:0:0:0:
256,192,129772,1,2,2:0:0:0:
28,192,129954,1,0,0:0:0:0:
142,192,129954,1,0,0:0:0:0:
256,192,130135,1,8,0:0:0:0:
426,192,130135,1,0,0:0:0:0:
483,192,130135,1,0,0:0:0:0:
85,192,130317,1,0,0:0:0:0:
199,192,130317,1,0,0:0:0:0:
369,192,130499,1,0,0:0:0:0:
256,192,130499,1,2,2:0:0:0:
142,192,130681,1,0,0:0:0:0:
28,192,130681,1,0,0:0:0:0:
483,192,130863,1,0,0:0:0:0:
312,192,130863,1,8,0:0:0:0:
426,192,130863,1,0,0:0:0:0:
199,192,131045,1,0,0:0:0:0:
85,192,131045,1,0,0:0:0:0:
312,192,131226,1,2,2:0:0:0:
426,192,131226,1,0,0:0:0:0:
142,192,131408,1,8,0:0:0:0:
28,192,131408,1,0,0:0:0:0:
369,192,131408,1,0,0:0:0:0:
483,192,131590,1,0,0:0:0:0:
28,192,131590,1,0,0:0:0:0:
142,192,131590,1,8,0:0:0:0:
142,192,131772,1,8,0:0:0:0:
28,192,131772,1,0,0:0:0:0:
369,192,131772,1,0,0:0:0:0:
85,192,131954,1,10,0:0:0:0:
199,192,131954,1,0,0:0:0:0:
312,192,131954,1,4,0:0:0:0:
426,192,132135,1,10,0:0:0:0:
312,192,132317,1,0,2:0:0:0:
199,192,132317,1,0,2:0:0:0:
483,192,132317,1,0,0:0:0:0:
85,192,132317,1,0,2:0:0:0:
426,192,132499,1,10,0:0:0:0:
312,192,132681,1,0,0:0:0:0:
199,192,132681,1,4,0:0:0:0:
85,192,132681,1,10,0:0:0:0:
426,192,133045,1,0,0:0:0:0:
312,192,133045,1,4,0:0:0:0:
199,192,133045,1,0,0:0:0:0:
142,192,133408,1,0,2:0:0:0:
369,192,133408,1,0,2:0:0:0:
28,192,133408,128,0,141045:2:0:0:0:
483,192,133408,128,0,141045:2:0:0:0:
256,192,133408,128,4,141045:1:0:0:0:
