osu file format v14

[General]
AudioFilename: BREEZEFull_dance_ver..mp3
AudioLeadIn: 0
PreviewTime: -1
Countdown: 1
SampleSet: Normal
StackLeniency: 0.7
Mode: 0
LetterboxInBreaks: 1
WidescreenStoryboard: 0

[Editor]
DistanceSpacing: 1.5
BeatDivisor: 4
GridSize: 4
TimelineZoom: 2.599999

[Metadata]
Title:BREEZE
TitleUnicode:BREEZE
Artist:Saiya
ArtistUnicode:Saiya
Creator:Monkey
Version:Hard
Source:Original song (by Saiya)
Tags:Breeze, Saiya, dance, Nico
BeatmapID:840507
BeatmapSetID:384669

[Difficulty]
HPDrainRate:6
CircleSize:4
OverallDifficulty:5
ApproachRate:9
SliderMultiplier:1.4
SliderTickRate:1

[Events]
//Background and Video events
//Break Periods
//Storyboard Layer 0 (Background)
//Storyboard Layer 1 (Fail)
//Storyboard Layer 2 (Pass)
//Storyboard Layer 3 (Foreground)
//Storyboard Sound Samples

[TimingPoints]
17961.6188864336,458.015267175573,4,1,0,70,1,0
40747,-66.6666666666667,4,1,0,70,0,0
41663,-100,4,1,0,70,0,0
56320,-200,4,1,0,70,0,0
56778,-100,4,1,0,70,0,0
64335,-66.6666666666667,4,1,0,70,0,0

[HitObjects]
160,32,1931,5,0,0:0:0:0:
256,192,2389,1,0,0:0:0:0:
332,36,2847,1,0,0:0:0:0:
220,116,3305,2,0,B|144:140|0:192|188:320|312:320|512:192|360:144|268:116,1,560
256,192,5824,1,0,0:0:0:0:
120,140,6511,1,0,0:0:0:0:
88,52,6740,1,0,0:0:0:0:
248,144,6969,1,0,0:0:0:0:
268,72,7198,2,0,L|292:8,1,35
396,184,7541,1,0,0:0:0:0:
348,284,7770,2,0,L|404:308,1,35
184,220,8114,2,0,P|200:296|160:320,1,105
28,160,8801,2,0,P|64:68|100:52,1,140
52,312,9488,5,0,0:0:0:0:
96,332,9602,1,0,0:0:0:0:
136,308,9717,1,0,0:0:0:0:
216,296,9831,1,0,0:0:0:0:
272,304,9946,1,0,0:0:0:0:
320,276,10060,1,0,0:0:0:0:
400,284,10175,1,0,0:0:0:0:
428,244,10289,1,0,0:0:0:0:
416,164,10404,1,0,0:0:0:0:
380,80,10633,2,0,L|316:132,1,70
312,136,10976,1,0,0:0:0:0:
296,56,11091,2,0,L|236:104,1,70
96,272,11549,2,0,L|160:320,1,70
152,314,11892,1,0,0:0:0:0:
172,240,12007,2,0,L|252:288,1,70
308,176,12465,5,0,0:0:0:0:
424,200,12694,1,0,0:0:0:0:
424,200,12808,1,0,0:0:0:0:
420,160,12923,1,0,0:0:0:0:
416,264,13152,1,0,0:0:0:0:
256,296,13381,2,0,L|216:304,2,35
100,160,13839,1,0,0:0:0:0:
100,160,13953,1,0,0:0:0:0:
100,160,14068,1,0,0:0:0:0:
216,148,14297,2,0,P|312:200|400:156,1,210
216,148,15213,2,0,P|140:184|16:136,1,210
72,80,16129,1,0,0:0:0:0:
344,80,16587,1,0,0:0:0:0:
96,180,17045,2,0,P|184:144|316:188,1,210
256,192,17961,12,0,19335,0:0:0:0:
108,140,19793,6,0,L|12:144,1,70
40,256,20251,2,0,L|100:296,1,70
320,80,20709,2,0,L|328:160,1,70
404,248,21167,2,0,L|428:164,1,70
220,188,21625,1,0,0:0:0:0:
220,188,21740,1,0,0:0:0:0:
224,192,21854,1,0,0:0:0:0:
52,116,22083,1,0,0:0:0:0:
52,116,22312,1,0,0:0:0:0:
380,44,22541,1,0,0:0:0:0:
380,44,22656,1,0,0:0:0:0:
384,48,22770,1,0,0:0:0:0:
272,292,22999,2,0,L|352:328,1,70
168,208,23457,6,0,L|160:248,2,35
236,128,23915,2,0,L|276:100,2,35
372,248,24373,2,0,P|340:160|352:128,1,105
341,153,24831,1,0,0:0:0:0:
341,153,24946,1,0,0:0:0:0:
320,104,25060,1,0,0:0:0:0:
320,108,25175,1,0,0:0:0:0:
320,104,25289,1,0,0:0:0:0:
76,136,25518,1,0,0:0:0:0:
76,136,25633,1,0,0:0:0:0:
144,280,25976,1,0,0:0:0:0:
216,188,26205,2,0,L|284:240,1,70
184,48,26663,2,0,L|104:96,1,70
48,128,27121,5,0,0:0:0:0:
68,148,27236,1,0,0:0:0:0:
80,164,27350,1,0,0:0:0:0:
96,184,27465,1,0,0:0:0:0:
116,204,27579,1,0,0:0:0:0:
288,224,27808,1,0,0:0:0:0:
360,112,28037,2,0,L|392:84,4,35
360,112,28724,1,0,0:0:0:0:
360,288,28953,1,0,0:0:0:0:
336,264,29068,1,0,0:0:0:0:
336,224,29182,1,0,0:0:0:0:
336,188,29297,1,0,0:0:0:0:
308,164,29412,1,0,0:0:0:0:
196,84,29641,1,0,0:0:0:0:
184,248,29870,5,0,0:0:0:0:
172,296,29984,1,0,0:0:0:0:
128,320,30099,1,0,0:0:0:0:
84,300,30213,1,0,0:0:0:0:
72,248,30328,1,0,0:0:0:0:
120,140,30557,1,0,0:0:0:0:
256,144,30786,2,0,P|352:196|440:152,1,210
256,144,31702,2,0,P|180:180|56:132,1,210
180,120,32618,2,0,P|256:60|336:128,1,210
224,220,33534,1,0,0:0:0:0:
224,220,33648,1,0,0:0:0:0:
176,296,33877,1,0,0:0:0:0:
316,184,34106,2,0,L|368:204,2,35
320,76,34478,2,0,P|380:84|408:108,1,96.25
406,105,34908,1,0,0:0:0:0:
308,232,35137,1,0,0:0:0:0:
164,232,35366,1,0,0:0:0:0:
80,328,35595,2,0,L|4:312,1,70
7,187,36053,1,0,0:0:0:0:
7,187,36167,2,0,L|63:95,1,105
280,104,36740,1,0,0:0:0:0:
352,324,36969,1,0,0:0:0:0:
104,232,37198,5,0,0:0:0:0:
340,124,37427,1,0,0:0:0:0:
300,328,37656,1,0,0:0:0:0:
132,184,37885,1,0,0:0:0:0:
196,72,38114,2,0,L|236:76,1,35
224,288,38343,2,0,L|172:288,1,35
324,168,38572,2,0,L|324:212,1,35
100,148,38801,1,0,0:0:0:0:
100,148,38915,1,0,0:0:0:0:
100,148,39030,1,0,0:0:0:0:
320,268,39259,1,0,0:0:0:0:
320,72,39488,1,0,0:0:0:0:
320,268,39717,1,0,0:0:0:0:
196,60,39946,6,0,P|244:132|304:168,1,140
88,224,40633,1,0,0:0:0:0:
88,224,40862,2,0,P|172:284|296:276,1,210
280,160,41549,1,0,0:0:0:0:
388,72,41778,2,0,P|392:148|368:212,1,140
364,216,42465,1,0,0:0:0:0:
252,128,42694,1,0,0:0:0:0:
252,148,42808,1,0,0:0:0:0:
252,176,42923,1,0,0:0:0:0:
252,204,43037,1,0,0:0:0:0:
252,240,43152,1,0,0:0:0:0:
252,128,43381,1,0,0:0:0:0:
384,64,43610,5,0,0:0:0:0:
368,120,43724,1,0,0:0:0:0:
400,144,43839,1,0,0:0:0:0:
416,196,43953,1,0,0:0:0:0:
352,296,44297,1,0,0:0:0:0:
320,320,44412,1,0,0:0:0:0:
256,304,44526,2,0,L|204:276,2,35
108,308,44984,5,0,0:0:0:0:
160,108,45213,1,0,0:0:0:0:
160,108,45328,1,0,0:0:0:0:
256,56,45671,1,0,0:0:0:0:
256,56,45786,1,0,0:0:0:0:
360,112,46015,2,0,L|336:224,1,113.75
256,268,46587,1,0,0:0:0:0:
84,156,46816,1,0,0:0:0:0:
256,268,47045,1,0,0:0:0:0:
84,156,47274,1,0,0:0:0:0:
208,72,47732,5,0,0:0:0:0:
320,96,47961,2,0,L|372:96,2,35
304,112,48305,2,0,L|304:160,1,35
200,244,48648,1,0,0:0:0:0:
284,272,48877,1,0,0:0:0:0:
368,304,49106,1,0,0:0:0:0:
436,136,49335,1,0,0:0:0:0:
404,216,49450,1,0,0:0:0:0:
120,144,49793,2,0,L|44:272,1,140
152,332,50480,1,0,0:0:0:0:
184,288,50595,1,0,0:0:0:0:
244,268,50710,1,0,0:0:0:0:
376,224,50938,6,0,L|344:176,1,35
308,112,51167,2,0,L|344:84,1,35
152,76,51396,2,0,L|200:84,1,35
80,192,51625,2,0,L|96:224,1,35
228,304,51854,2,0,L|200:336,1,35
256,192,52083,1,0,0:0:0:0:
408,96,52312,1,0,0:0:0:0:
256,192,52541,1,0,0:0:0:0:
124,72,52770,2,0,L|80:60,4,35
256,196,53457,1,0,0:0:0:0:
368,80,53686,2,0,L|400:56,4,35
276,236,54373,1,0,0:0:0:0:
116,84,54602,5,0,0:0:0:0:
276,236,54831,1,0,0:0:0:0:
256,60,55060,1,0,0:0:0:0:
168,244,55289,1,0,0:0:0:0:
180,176,55404,1,0,0:0:0:0:
284,96,55633,1,0,0:0:0:0:
308,160,55747,1,0,0:0:0:0:
400,292,55976,2,0,L|432:220,1,70
380,108,56434,1,0,0:0:0:0:
248,56,56663,1,0,0:0:0:0:
248,56,56778,1,0,0:0:0:0:
236,280,57121,2,0,L|168:144,1,140
112,144,57808,1,0,0:0:0:0:
104,172,57923,1,0,0:0:0:0:
92,216,58037,1,0,0:0:0:0:
160,348,58266,5,0,0:0:0:0:
340,344,58495,1,0,0:0:0:0:
116,332,58724,1,0,0:0:0:0:
384,328,58953,1,0,0:0:0:0:
72,348,59182,1,0,0:0:0:0:
416,360,59412,1,0,0:0:0:0:
112,368,59641,1,0,0:0:0:0:
368,368,59870,1,0,0:0:0:0:
256,192,60099,1,0,0:0:0:0:
120,96,60557,1,0,0:0:0:0:
360,96,61015,2,0,L|376:60,2,35
256,200,61473,2,0,L|200:200,2,35
208,112,61931,5,0,0:0:0:0:
264,68,62045,1,0,0:0:0:0:
200,48,62160,1,0,0:0:0:0:
96,200,62389,2,0,L|168:256,1,70
288,288,62847,1,0,0:0:0:0:
288,288,62961,1,0,0:0:0:0:
452,300,63190,1,0,0:0:0:0:
456,168,63419,1,0,0:0:0:0:
340,112,63648,1,0,0:0:0:0:
380,64,63763,1,0,0:0:0:0:
312,56,63878,1,0,0:0:0:0:
284,100,63992,1,0,0:0:0:0:
244,64,64107,1,0,0:0:0:0:
220,112,64221,1,0,0:0:0:0:
88,192,64450,2,0,P|124:288|256:332,1,210.000008010865
420,216,65137,5,0,0:0:0:0:
368,256,65366,1,0,0:0:0:0:
336,100,65595,2,0,L|284:104,3,52.5000020027161
128,108,66167,1,0,0:0:0:0:
348,176,66396,2,0,P|292:60|232:44,1,157.500006008148
84,160,67083,2,0,P|148:248|228:300,1,157.500006008148
344,280,67656,1,0,0:0:0:0:
400,252,67770,1,0,0:0:0:0:
344,220,67885,1,0,0:0:0:0:
196,268,68114,1,0,0:0:0:0:
196,268,68228,1,0,0:0:0:0:
196,268,68343,1,0,0:0:0:0:
96,148,68572,2,0,L|152:116,1,52.5000020027161
280,60,68915,2,0,B|264:112|264:112|208:144,1,105.000004005432
216,140,69259,1,0,0:0:0:0:
312,228,69488,1,0,0:0:0:0:
256,344,69717,1,0,0:0:0:0:
352,324,69946,1,0,0:0:0:0:
392,280,70060,1,0,0:0:0:0:
428,228,70175,5,0,0:0:0:0:
428,120,70404,1,0,0:0:0:0:
424,64,70518,1,0,0:0:0:0:
268,68,70747,1,0,0:0:0:0:
128,136,70976,1,0,0:0:0:0:
60,276,71205,1,0,0:0:0:0:
208,328,71434,1,0,0:0:0:0:
320,216,71663,1,0,0:0:0:0:
420,336,71892,1,0,0:0:0:0:
420,336,72007,1,0,0:0:0:0:
368,188,72236,1,0,0:0:0:0:
384,112,72350,1,0,0:0:0:0:
420,40,72465,1,0,0:0:0:0:
264,48,72694,5,0,0:0:0:0:
240,124,72808,1,0,0:0:0:0:
184,180,72923,1,0,0:0:0:0:
324,112,73152,1,0,0:0:0:0:
296,184,73266,1,0,0:0:0:0:
256,252,73381,1,0,0:0:0:0:
384,160,73610,1,0,0:0:0:0:
364,228,73724,1,0,0:0:0:0:
340,296,73839,1,0,0:0:0:0:
236,352,74068,1,0,0:0:0:0:
168,352,74182,2,0,L|32:356,1,105.000004005432
196,116,74755,6,0,L|244:88,3,52.5000020027161
216,164,75213,2,0,L|264:184,3,52.5000020027161
188,196,75671,2,0,L|152:236,3,52.5000020027161
132,160,76129,2,0,L|56:132,3,52.5000020027161
196,288,76587,2,0,L|84:320,1,105.000004005432
64,168,77045,1,0,0:0:0:0:
128,204,77160,1,0,0:0:0:0:
128,140,77274,1,0,0:0:0:0:
304,76,77503,2,0,L|352:104,1,52.5000020027161
444,148,77732,1,0,0:0:0:0:
396,224,77847,2,0,L|360:328,1,105.000004005432
192,340,78305,2,0,L|128:320,5,52.5000020027161
72,284,78992,1,0,0:0:0:0:
64,212,79106,2,0,P|132:116|236:112,1,210.000008010865
328,116,79793,5,0,0:0:0:0:
368,168,80022,1,0,0:0:0:0:
240,168,80251,1,0,0:0:0:0:
208,212,80480,1,0,0:0:0:0:
204,216,80595,1,0,0:0:0:0:
288,312,80824,2,0,L|376:256,1,105.000004005432
448,180,81167,1,0,0:0:0:0:
312,48,81396,2,0,L|348:92,4,52.5000020027161
160,112,82083,1,0,0:0:0:0:
304,156,82312,1,0,0:0:0:0:
304,156,82427,1,0,0:0:0:0:
304,156,82541,1,0,0:0:0:0:
428,196,82770,6,0,L|436:284,2,52.5000020027161
240,312,83228,1,0,0:0:0:0:
240,312,83343,2,0,P|224:252|176:216,1,105.000004005432
168,68,83801,2,0,P|92:60|8:132,1,157.500006008148
200,164,84373,2,0,B|252:52|344:48|428:60|504:244,1,420.000016021729
276,268,85518,1,0,0:0:0:0:
276,336,85747,1,0,0:0:0:0:
152,240,85976,1,0,0:0:0:0:
232,248,86091,1,0,0:0:0:0:
200,92,86320,1,0,0:0:0:0:
356,72,86549,2,0,P|424:100|472:196,1,157.500006008148
360,256,87121,1,0,0:0:0:0:
360,256,87236,1,0,0:0:0:0:
360,256,87350,1,0,0:0:0:0:
208,208,87579,6,0,L|160:248,4,52.5000020027161
236,64,88266,1,0,0:0:0:0:
344,152,88495,2,0,L|392:216,3,52.5000020027161
416,248,88953,1,0,0:0:0:0:
264,204,89182,1,0,0:0:0:0:
264,204,89412,1,0,0:0:0:0:
84,56,89870,2,0,L|140:136,1,52.5000020027161
156,148,90213,1,0,0:0:0:0:
316,244,90442,1,0,0:0:0:0:
252,76,90671,1,0,0:0:0:0:
200,244,90900,1,0,0:0:0:0:
344,148,91129,1,0,0:0:0:0:
256,192,91244,12,0,92618,0:0:0:0:
