osu file format v12

[General]
AudioFilename: 01 staple stable.mp3
AudioLeadIn: 2000
PreviewTime: 149013
Countdown: 0
SampleSet: Soft
StackLeniency: 0.7
Mode: 0
LetterboxInBreaks: 0

[Editor]
Bookmarks: 90990,103083,179362,198432,220292,227734
DistanceSpacing: 1
BeatDivisor: 4
GridSize: 4

[Metadata]
Title:staple stable
TitleUnicode:staple stable
Artist:Saitou Chiwa
ArtistUnicode:斎藤 千和
Creator:Fumika
Version:Insane
Source:Bakemonogatari
Tags:Senjougahara Hitagi opening
BeatmapID:227913
BeatmapSetID:82333

[Difficulty]
HPDrainRate:7
CircleSize:4
OverallDifficulty:7
ApproachRate:8
SliderMultiplier:1.76
SliderTickRate:1

[Events]
//Background and Video events
0,0,"Hitagi.jpg",0,0
//Break Periods
2,90957,102333
2,153515,226571
2,243981,264310
//Storyboard Layer 0 (Background)
//Storyboard Layer 1 (Fail)
//Storyboard Layer 2 (Pass)
//Storyboard Layer 3 (Foreground)
//Storyboard Sound Samples
//Background Colour Transformations
3,100,163,162,255

[TimingPoints]
757.984732824428,465.116279069767,4,2,1,80,1,0
1223,-100,4,2,3,80,0,0
1339,-100,4,2,1,80,0,0
3083,-100,4,2,3,80,0,0
3199,-100,4,2,1,80,0,0
8664,-100,4,2,3,80,0,0
8781,-100,4,2,1,80,0,0
12385,-100,4,2,3,80,0,0
12502,-100,4,2,1,80,0,0
44944,-100,4,2,2,80,0,0
45060,-100,4,2,1,80,0,0
51455,-100,4,2,3,80,0,0
51571,-100,4,2,1,80,0,0
55176,-100,4,2,3,80,0,0
55292,-100,4,2,1,80,0,0
60292,-100,4,2,2,70,0,0
62153,-100,4,2,2,80,0,1
62618,-100,4,2,4,80,0,1
62734,-100,4,2,2,80,0,1
69478,-100,4,2,2,80,0,0
69595,-100,4,2,2,80,0,1
70060,-100,4,2,4,80,0,1
70176,-100,4,2,2,80,0,1
71920,-100,4,2,4,80,0,1
72037,-100,4,2,2,80,0,1
74711,-100,4,2,4,80,0,1
74827,-100,4,2,2,80,0,1
76920,-100,4,2,2,80,0,0
77037,-100,4,2,2,80,0,1
86339,-100,4,2,2,80,0,0
88316,-100,4,2,1,20,0,0
90757,-100,4,2,1,5,0,0
90990,-100,4,2,1,80,0,0
106339,-100,4,2,2,80,0,0
106455,-100,4,2,1,80,0,0
110060,-100,4,2,2,80,0,0
110176,-100,4,2,1,80,0,0
113781,-100,4,2,2,80,0,0
113897,-100,4,2,1,80,0,0
117502,-100,4,2,2,80,0,0
132502,-100,4,2,2,60,0,0
132851,-100,4,2,2,80,0,0
142618,-100,4,2,4,80,0,0
142734,-100,4,2,2,80,0,0
148897,-100,4,2,1,65,0,0
149595,-100,4,2,2,80,0,1
150060,-100,4,2,4,80,0,1
150176,-100,4,2,2,80,0,1
156920,-100,4,2,1,80,0,0
157037,-100,4,2,1,80,0,1
164362,-100,4,2,1,80,0,0
164478,-100,4,2,1,80,0,1
173781,-100,4,2,1,80,0,0
228199,-100,4,2,3,80,0,0
228316,-100,4,2,1,80,0,0
230060,-100,4,2,3,80,0,0
230176,-100,4,2,1,80,0,0
232851,-100,4,2,3,80,0,0
232967,-100,4,2,1,80,0,0
233316,-100,4,2,2,80,0,0
235176,-100,4,2,1,80,0,1
242502,-100,4,2,1,80,0,0
242618,-100,4,2,1,80,0,1
249944,-100,4,2,1,80,0,0
250060,-100,4,2,1,80,0,1
257502,-100,4,2,1,80,0,0
265060,-100,4,2,1,20,0,0
268432,-100,4,2,1,5,0,0

[Colours]
Combo1 : 128,128,192
Combo2 : 111,251,240
Combo3 : 11,234,145
Combo4 : 255,157,85
Combo5 : 250,156,242
Combo6 : 255,128,128
Combo7 : 128,128,255
Combo8 : 128,255,0

[HitObjects]
296,288,757,2,0,P|348:300|424:280,2,132,4|0|2,0:0|0:0|0:0,0:0:0:0:
244,216,1688,2,0,L|240:128,1,88,0|0,0:0|0:0,0:0:0:0:
271,46,2153,2,0,P|232:40|188:56,1,88,8|0,0:0|0:0,0:0:0:0:
132,124,2618,2,0,P|76:160|12:148,2,132,2|0|2,0:0|0:0|0:0,0:0:0:0:
60,76,3548,2,0,L|56:176,1,88,0|0,0:0|0:0,0:0:0:0:
72,252,4013,2,0,P|100:288|140:300,1,88,8|0,0:0|0:0,0:0:0:0:
180,284,4362,5,0,0:0:0:0:
180,284,4478,2,0,P|244:268|300:300,1,132,2|0,0:0|0:0,0:0:0:0:
328,332,4944,2,0,P|368:352|420:344,1,88,8|2,0:0|0:0,0:0:0:0:
440,200,5409,2,0,P|400:180|348:188,1,88,0|0,0:0|0:0,0:0:0:0:
384,268,5874,2,0,L|480:284,1,88,8|0,0:0|0:0,0:0:0:0:
296,248,6339,2,0,L|160:224,1,132,2|0,0:0|0:0,0:0:0:0:
124,208,6804,2,0,P|96:172|88:132,1,88,8|2,0:0|0:0,0:0:0:0:
176,136,7269,2,0,P|176:92|204:56,1,88,0|0,0:0|0:0,0:0:0:0:
220,48,7618,1,0,0:0:0:0:
240,40,7734,2,0,L|332:44,1,88,8|0,0:0|0:0,0:0:0:0:
436,120,8199,6,0,P|436:184|396:236,2,132,4|0|2,0:0|0:0|0:0,0:0:0:0:
324,188,9130,2,0,P|312:232|320:272,1,88,0|0,0:0|0:0,0:0:0:0:
268,344,9595,2,0,P|308:360|364:348,2,88,8|0|2,0:0|0:0|0:0,0:0:0:0:
164,260,10409,5,0,0:0:0:0:
164,260,10525,2,0,P|124:240|80:244,1,88,8|2,0:0|0:0,0:0:0:0:
108,328,10990,1,0,0:0:0:0:
108,328,11106,2,0,L|156:340,2,44
64,320,11455,2,0,P|20:296|4:252,1,88,8|0,0:0|0:0,0:0:0:0:
56,140,11920,6,0,B|84:96|84:96|88:60|88:60|112:12,2,132,2|0|2,0:0|0:0|0:0,0:0:0:0:
12,216,12851,2,0,P|56:228|100:216,1,88
128,188,13199,1,0,0:0:0:0:
160,156,13316,2,0,P|204:144|244:152,1,88,8|0,0:0|0:0,0:0:0:0:
320,196,13781,2,0,P|380:216|452:196,1,132,2|0,0:0|0:0,0:0:0:0:
464,160,14246,2,0,L|480:72,1,88,8|2,0:0|0:0,0:0:0:0:
320,196,14711,2,0,L|312:244,1,44
356,248,14944,2,0,L|300:316,1,88,0|8,0:0|0:0,0:0:0:0:
244,380,15409,1,0,0:0:0:0:
60,328,15641,5,4,0:0:0:0:
60,328,16106,2,0,P|44:288|56:232,1,88,8|0,0:0|0:0,0:0:0:0:
84,220,16455,2,0,P|108:156|92:92,1,132,2|0,0:0|0:0,0:0:0:0:
32,32,17037,2,0,P|68:12|120:12,1,88,8|0,0:0|0:0,0:0:0:0:
204,108,17502,2,0,P|268:128|332:108,1,132,2|0,0:0|0:0,0:0:0:0:
352,72,17967,2,0,L|340:168,1,88,8|0,0:0|0:0,0:0:0:0:
384,148,18316,2,0,L|328:268,1,132,2|0,0:0|0:0,0:0:0:0:
280,340,18897,2,0,P|320:356|368:344,1,88,8|0,0:0|0:0,0:0:0:0:
212,280,19362,6,0,P|144:264|84:284,1,132,4|0,0:0|0:0,0:0:0:0:
60,320,19827,2,0,L|72:228,1,88,8|0,0:0|0:0,0:0:0:0:
32,248,20176,2,0,L|84:124,1,132,2|0,0:0|0:0,0:0:0:0:
144,60,20757,2,0,P|188:48|228:56,1,88,8|0,0:0|0:0,0:0:0:0:
292,120,21223,1,2,0:0:0:0:
340,244,21571,5,0,0:0:0:0:
340,244,21688,2,0,P|380:264|432:252,1,88,8|0,0:0|0:0,0:0:0:0:
444,296,22037,2,0,L|452:156,1,132,2|0,0:0|0:0,0:0:0:0:
440,148,22502,1,0,0:0:0:0:
428,132,22618,2,0,L|424:220,1,88,8|0,0:0|0:0,0:0:0:0:
256,208,23083,6,0,L|260:120,1,88,4|0,0:0|0:0,0:0:0:0:
200,52,23548,2,0,P|160:32|112:32,1,88,8|0,0:0|0:0,0:0:0:0:
80,52,23897,1,2,0:0:0:0:
80,52,24246,2,0,L|76:152,1,88,0|8,0:0|0:0,0:0:0:0:
92,228,24711,1,0,0:0:0:0:
144,300,24944,2,0,P|204:328|280:312,1,132,2|0,0:0|0:0,0:0:0:0:
284,360,25409,6,0,L|292:264,1,88,8|0,0:0|0:0,0:0:0:0:
296,228,25757,2,0,P|316:168|388:152,1,132,2|0,0:0|0:0,0:0:0:0:
384,236,26339,2,0,P|424:252|476:244,1,88,8|0,0:0|0:0,0:0:0:0:
504,220,26688,1,0,0:0:0:0:
504,220,26804,2,0,P|460:212|412:224,1,88,4|0,0:0|0:0,0:0:0:0:
364,340,27269,1,8,0:0:0:0:
280,236,27502,5,2,0:0:0:0:
276,324,27734,1,0,0:0:0:0:
324,164,27967,5,0,0:0:0:0:
364,240,28199,1,8,0:0:0:0:
200,276,28432,5,0,0:0:0:0:
236,148,28664,1,4,0:0:0:0:
128,220,29013,5,0,0:0:0:0:
128,220,29130,2,0,P|88:236|44:232,1,88,8|0,0:0|0:0,0:0:0:0:
16,104,29595,5,2,0:0:0:0:
44,96,29711,1,8,0:0:0:0:
72,88,29827,1,8,0:0:0:0:
104,80,29944,1,0,0:0:0:0:
136,72,30060,2,0,P|180:72|220:92,1,88,8|0,0:0|0:0,0:0:0:0:
320,224,30525,6,0,P|276:224|236:204,1,88,4|0,0:0|0:0,0:0:0:0:
220,164,30874,1,0,0:0:0:0:
220,164,30990,2,0,L|216:260,1,88,8|0,0:0|0:0,0:0:0:0:
176,272,31339,2,0,L|184:112,1,132,2|0,0:0|0:0,0:0:0:0:
348,176,31920,2,0,L|344:272,1,88,8|0,0:0|0:0,0:0:0:0:
412,112,32385,2,0,P|372:88|328:88,1,88,4|0,0:0|0:0,0:0:0:0:
296,116,32734,1,0,0:0:0:0:
264,144,32851,6,0,L|176:152,1,88,8|0,0:0|0:0,0:0:0:0:
132,160,33199,2,0,P|88:204|84:276,1,132,2|0,0:0|0:0,0:0:0:0:
208,316,33781,2,0,P|236:284|244:236,1,88,8|0,0:0|0:0,0:0:0:0:
224,200,34130,1,0,0:0:0:0:
224,200,34246,2,0,B|220:152|256:120,1,88,4|0,0:0|0:0,0:0:0:0:
408,188,34711,6,0,P|364:200|316:192,1,88,8|0,0:0|0:0,0:0:0:0:
296,160,35060,2,0,P|360:144|424:156,1,132,2|0,0:0|0:0,0:0:0:0:
456,328,35641,2,0,L|440:236,1,88,8|0,0:0|0:0,0:0:0:0:
372,296,36106,2,0,P|332:312|284:308,1,88,4|0,0:0|0:0,0:0:0:0:
260,276,36455,5,0,0:0:0:0:
260,276,36571,2,0,P|220:260|172:264,1,88,8|0,0:0|0:0,0:0:0:0:
172,308,36920,2,0,L|184:168,1,132,2|0,0:0|0:0,0:0:0:0:
188,132,37385,1,0,0:0:0:0:
188,132,37502,2,0,L|196:36,2,88,8|0|4,0:0|0:0|0:0,0:0:0:0:
112,84,38199,2,0,P|68:80|16:112,1,88,0|8,0:0|0:0,0:0:0:0:
28,232,38664,5,0,0:0:0:0:
44,272,38781,2,0,P|112:272|168:244,1,132,2|0,0:0|0:0,0:0:0:0:
208,168,39362,2,0,P|244:196|256:244,1,88,8|0,0:0|0:0,0:0:0:0:
212,360,39827,6,0,P|256:372|304:360,1,88,4|0,0:0|0:0,0:0:0:0:
332,336,40176,1,0,0:0:0:0:
332,336,40292,2,0,L|364:216,1,88,8|0,0:0|0:0,0:0:0:0:
396,264,40641,2,0,P|364:208|380:144,1,132,2|0,0:0|0:0,0:0:0:0:
452,196,41223,6,0,L|336:212,1,88,8|0,0:0|0:0,0:0:0:0:
324,192,41571,1,0,0:0:0:0:
284,176,41688,2,0,L|168:192,1,88,4|0,0:0|0:0,0:0:0:0:
164,216,42037,1,0,0:0:0:0:
164,216,42153,2,0,P|124:204|96:168,1,88,8|2,0:0|0:0,0:0:0:0:
8,180,42618,2,0,P|12:136|44:100,1,88
192,32,43083,2,0,P|188:76|156:112,1,88,8|0,0:0|0:0,0:0:0:0:
120,120,43432,5,0,0:0:0:0:
120,120,43548,2,0,L|220:128,1,88,4|0,0:0|0:0,0:0:0:0:
224,140,43897,1,2,0:0:0:0:
240,152,44013,2,0,L|328:144,1,88,8|4,0:0|0:0,0:0:0:0:
492,180,44478,1,0,0:0:0:0:
396,88,44711,1,2,0:0:0:0:
404,120,44827,1,0,0:0:0:0:
412,156,44944,2,0,L|400:244,1,88,8|0,0:0|0:0,0:0:0:0:
300,332,45409,6,0,P|256:344|200:328,1,88,4|0,0:0|0:0,0:0:0:0:
124,244,45874,1,8,0:0:0:0:
212,248,46106,1,0,0:0:0:0:
212,248,46223,2,0,P|256:200|248:120,1,132,2|2,0:0|0:0,0:0:0:0:
264,48,46804,2,0,P|216:52|180:88,1,88,8|2,0:0|0:0,0:0:0:0:
180,164,47269,1,2,0:0:0:0:
212,248,47502,2,0,L|272:264,1,44,0|2,0:0|0:0,0:0:0:0:
124,244,47851,2,0,L|64:228,1,44,0|2,0:0|0:0,0:0:0:0:
12,176,48199,5,0,0:0:0:0:
88,68,48432,1,2,0:0:0:0:
180,164,48664,1,8,0:0:0:0:
240,96,48897,1,2,0:0:0:0:
240,96,49013,1,0,0:0:0:0:
240,96,49130,2,0,P|280:76|328:80,1,88,4|2,0:0|0:0,0:0:0:0:
352,244,49595,6,0,P|312:264|264:260,1,88,8|0,0:0|0:0,0:0:0:0:
268,216,49944,2,0,L|272:352,1,132,2|2,0:0|0:0,0:0:0:0:
184,336,50525,2,0,L|180:216,1,88,8|0,0:0|0:0,0:0:0:0:
352,244,50990,2,0,L|360:372,1,88,2|0,0:0|0:0,0:0:0:0:
388,364,51339,2,0,P|432:376|484:348,1,88,2|0,0:0|0:0,0:0:0:0:
496,324,51688,2,0,L|488:196,1,88,2|0,0:0|0:0,0:0:0:0:
420,184,52153,5,2,0:0:0:0:
512,44,52385,1,8,0:0:0:0:
384,72,52618,1,2,0:0:0:0:
348,68,52734,1,0,0:0:0:0:
312,64,52851,2,0,L|212:88,1,88,4|0,0:0|0:0,0:0:0:0:
76,176,53316,5,8,0:0:0:0:
96,184,53432,1,0,0:0:0:0:
116,192,53548,1,2,0:0:0:0:
136,200,53664,2,0,L|272:168,1,132,0|2,0:0|0:0,0:0:0:0:
352,152,54246,2,0,P|356:196|324:240,1,88,8|0,0:0|0:0,0:0:0:0:
208,344,54711,6,0,P|204:300|236:256,1,88,2|0,0:0|0:0,0:0:0:0:
188,240,55060,2,0,P|228:220|276:224,1,88,2|0,0:0|0:0,0:0:0:0:
268,176,55409,2,0,P|304:204|312:256,1,88,2|0,0:0|0:0,0:0:0:0:
300,332,55874,2,0,P|336:352|396:344,1,88,2|8,0:0|0:0,0:0:0:0:
468,248,56339,5,2,0:0:0:0:
468,248,56455,1,0,0:0:0:0:
468,248,56571,2,0,P|492:160|464:72,1,176,4|8,0:0|0:0,0:0:0:0:
300,84,57269,2,0,P|276:172|304:260,1,176,2|2,0:0|0:0,0:0:0:0:
298,251,57967,1,8,0:0:0:0:
384,276,58199,1,2,0:0:0:0:
220,304,58432,6,0,P|176:304|136:280,1,88,4|2,0:0|0:0,0:0:0:0:
176,120,58897,2,0,P|220:120|260:144,1,88,8|2,0:0|0:0,0:0:0:0:
92,156,59362,2,0,P|84:112|100:68,1,88,0|2,0:0|0:0,0:0:0:0:
300,268,59827,2,0,P|308:312|292:356,1,88,8|2,0:0|0:0,0:0:0:0:
140,288,60292,6,0,L|92:288,1,44,8|8,0:0|0:0,0:0:0:0:
60,124,60641,2,0,L|0:100,1,44,8|8,0:0|0:0,0:0:0:0:
152,208,60990,2,0,L|212:232,1,44,8|8,0:0|0:0,0:0:0:0:
124,72,61339,2,0,L|172:72,1,44,8|8,0:0|0:0,0:0:0:0:
268,156,61688,5,2,0:0:0:0:
300,172,61804,1,0,0:0:0:0:
332,188,61920,1,2,0:0:0:0:
364,204,62037,1,0,0:0:0:0:
396,220,62153,2,0,P|420:256|416:312,1,88,4|2,0:0|0:0,0:0:0:0:
456,304,62502,2,0,L|344:328,1,88,0|2,0:0|0:0,0:0:0:0:
336,328,62851,2,0,P|292:328|256:304,1,88,4|0,0:0|0:0,0:0:0:0:
180,196,63316,1,2,0:0:0:0:
304,152,63548,6,0,P|348:152|384:176,1,88,8|2,0:0|0:0,0:0:0:0:
392,220,63897,1,0,0:0:0:0:
392,220,64013,2,0,L|400:128,1,88,4|2,0:0|0:0,0:0:0:0:
404,88,64362,1,0,0:0:0:0:
280,40,64595,1,2,0:0:0:0:
248,68,64711,2,0,P|208:84|160:76,1,88,4|0,0:0|0:0,0:0:0:0:
96,24,65176,1,2,0:0:0:0:
32,84,65409,5,8,0:0:0:0:
32,84,65525,1,0,0:0:0:0:
32,84,65641,2,0,P|12:128|12:176,1,88,2|4,0:0|0:0,0:0:0:0:
112,300,66106,1,2,0:0:0:0:
192,264,66339,1,8,0:0:0:0:
192,264,66455,1,0,0:0:0:0:
192,264,66571,2,0,P|212:220|212:172,1,88,2|4,0:0|0:0,0:0:0:0:
148,64,67037,1,2,0:0:0:0:
148,64,67153,2,0,L|184:88,1,44,0|8,0:0|0:0,0:0:0:0:
292,168,67502,1,2,0:0:0:0:
424,64,67734,5,4,0:0:0:0:
376,140,67967,1,8,0:0:0:0:
256,88,68199,1,8,0:0:0:0:
360,228,68432,5,4,0:0:0:0:
356,316,68664,2,0,L|380:364,2,44,0|8|2,0:0|0:0|0:0,0:0:0:0:
276,212,69130,5,8,0:0:0:0:
240,188,69246,1,0,0:0:0:0:
196,184,69362,1,2,0:0:0:0:
156,200,69478,1,0,0:0:0:0:
124,232,69595,6,0,L|120:324,1,88,4|2,0:0|0:0,0:0:0:0:
100,360,69944,2,0,P|56:368|8:352,1,88,0|2,0:0|0:0,0:0:0:0:
4,316,70292,2,0,L|12:136,1,176,4|2,0:0|0:0,0:0:0:0:
52,64,70990,2,0,P|96:48|140:52,1,88,8|2,0:0|0:0,0:0:0:0:
168,80,71339,1,0,0:0:0:0:
200,112,71455,2,0,P|244:124|296:112,1,88,4|2,0:0|0:0,0:0:0:0:
300,76,71804,2,0,P|344:64|392:72,1,88,0|2,0:0|0:0,0:0:0:0:
388,24,72153,2,0,L|392:212,1,176,4|2,0:0|0:0,0:0:0:0:
460,256,72851,2,0,L|512:248,2,44,8|0|2,0:0|0:0|0:0,0:0:0:0:
328,260,73316,6,0,P|284:252|244:264,1,88,4|2,0:0|0:0,0:0:0:0:
120,376,73781,1,8,0:0:0:0:
120,376,73897,1,0,0:0:0:0:
120,376,74013,1,2,0:0:0:0:
156,296,74246,2,0,P|168:252|160:204,1,88,2|0,0:0|0:0,0:0:0:0:
128,184,74595,2,0,P|108:248|132:328,1,132,2|2,0:0|0:0,0:0:0:0:
240,372,75176,5,4,0:0:0:0:
224,240,75409,1,8,0:0:0:0:
156,296,75641,1,8,0:0:0:0:
320,336,75874,1,4,0:0:0:0:
304,204,76106,2,0,L|284:152,2,44,0|8|2,0:0|0:0|0:0,0:0:0:0:
416,340,76571,5,8,0:0:0:0:
428,308,76688,1,0,1:0:0:0:
440,276,76804,1,0,1:0:0:0:
452,244,76920,1,0,1:0:0:0:
464,212,77037,6,0,B|472:164|444:128,1,88,4|2,0:0|0:0,0:0:0:0:
284,176,77502,2,0,B|276:224|304:260,1,88,8|2,0:0|0:0,0:0:0:0:
184,204,77967,2,0,P|140:196|96:208,1,88,0|2,0:0|0:0,0:0:0:0:
0,120,78432,2,0,P|44:128|88:116,1,88,8|2,0:0|0:0,0:0:0:0:
152,56,78897,5,4,0:0:0:0:
240,72,79130,1,2,0:0:0:0:
280,148,79362,2,0,P|320:164|368:156,1,88,8|2,0:0|0:0,0:0:0:0:
428,4,79827,2,0,P|412:44|420:92,1,88,0|2,0:0|0:0,0:0:0:0:
480,152,80292,1,8,0:0:0:0:
468,284,80525,1,2,0:0:0:0:
340,320,80757,6,0,P|296:320|256:296,1,88,4|8,0:0|0:0,0:0:0:0:
184,188,81223,1,8,0:0:0:0:
304,136,81455,2,0,P|348:136|388:160,1,88,4|8,0:0|0:0,0:0:0:0:
460,268,81920,1,0,1:0:0:0:
340,320,82153,6,0,B|292:324|260:296|260:296|208:276|152:296,1,176,4|2,0:0|0:0,0:0:0:0:
96,336,82851,1,0,1:0:0:0:
28,280,83083,2,0,P|12:236|16:196,1,88,8|2,0:0|0:0,0:0:0:0:
44,68,83548,2,0,L|36:8,2,44,8|0|2,0:0|0:0|0:0,0:0:0:0:
88,144,84013,1,8,0:0:0:0:
120,156,84130,1,0,0:0:0:0:
156,156,84246,1,2,0:0:0:0:
192,148,84362,1,0,0:0:0:0:
220,128,84478,6,0,P|264:116|312:128,1,88,4|2,0:0|0:0,0:0:0:0:
368,60,84944,2,0,P|392:96|392:144,1,88,8|2,0:0|0:0,0:0:0:0:
436,128,85292,2,0,L|328:244,1,132,0|2,0:0|0:0,0:0:0:0:
240,304,85874,2,0,P|196:316|152:308,2,88,8|2|4,0:0|0:0|0:0,0:0:0:0:
240,304,86804,5,4,0:0:0:0:
300,368,87037,2,0,P|324:328|324:284,1,88,0|2,0:0|0:0,0:0:0:0:
404,248,87502,2,0,P|372:212|328:200,1,88,0|2,0:0|0:0,0:0:0:0:
248,216,87967,1,0,0:0:0:0:
240,304,88199,1,2,0:0:0:0:
256,192,88316,12,0,90757,0:0:0:0:
288,112,103083,5,4,0:0:0:0:
160,88,103432,1,0,0:0:0:0:
116,92,103548,2,0,P|80:120|68:160,1,88,8|0,0:0|0:0,0:0:0:0:
36,128,103897,2,0,L|72:256,1,132,2|0,0:0|0:0,0:0:0:0:
136,316,104478,2,0,P|180:332|228:320,1,88,0|0,1:0|0:0,0:0:0:0:
256,196,104944,2,0,P|300:188|340:200,1,88,2|0,0:0|0:0,0:0:0:0:
352,244,105292,5,0,0:0:0:0:
352,244,105409,2,0,P|396:260|456:248,1,88,8|0,0:0|0:0,0:0:0:0:
444,300,105757,2,0,L|460:160,1,132,2|0,0:0|0:0,0:0:0:0:
476,36,106339,2,0,P|432:20|372:32,1,88,8|0,0:0|0:0,0:0:0:0:
356,48,106688,5,0,0:0:0:0:
356,48,106804,2,0,L|340:192,1,132,4|0,0:0|0:0,0:0:0:0:
384,168,107269,2,0,L|332:248,1,88,8|0,0:0|0:0,0:0:0:0:
380,252,107618,2,0,L|248:292,1,132,2|0,0:0|0:0,0:0:0:0:
168,312,108199,2,0,P|124:308|88:280,1,88,0|0,1:0|0:0,0:0:0:0:
52,156,108664,2,0,P|116:164|160:212,1,132,2|0,0:0|0:0,0:0:0:0:
172,256,109130,6,0,L|208:172,1,88,8|0,0:0|0:0,0:0:0:0:
232,212,109478,2,0,L|220:60,1,132,2|0,0:0|0:0,0:0:0:0:
236,64,109944,1,0,0:0:0:0:
252,48,110060,2,0,L|260:144,1,88
424,164,110525,6,0,L|416:68,1,88,4|0,0:0|0:0,0:0:0:0:
336,184,110990,2,0,P|352:224|392:248,1,88,8|0,0:0|0:0,0:0:0:0:
432,248,111339,1,2,0:0:0:0:
432,248,111688,2,0,P|448:288|440:336,1,88,0|0,0:0|1:0,0:0:0:0:
368,376,112153,1,0,0:0:0:0:
280,368,112385,2,0,P|256:308|268:236,1,132,2|0,0:0|0:0,0:0:0:0:
280,200,112851,2,0,P|292:160|284:112,1,88,8|0,0:0|0:0,0:0:0:0:
328,124,113199,2,0,L|184:72,1,132,2|0,0:0|0:0,0:0:0:0:
76,108,113781,2,0,P|48:144|48:188,1,88,8|0,0:0|0:0,0:0:0:0:
68,224,114130,5,0,0:0:0:0:
68,224,114246,2,0,L|160:260,1,88,4|0,0:0|0:0,0:0:0:0:
172,264,114595,1,0,0:0:0:0:
192,272,114711,2,0,P|236:280|276:268,1,88,8|2,0:0|0:0,0:0:0:0:
320,192,115176,1,0,0:0:0:0:
448,228,115409,5,0,0:0:0:0:
332,112,115641,1,0,1:0:0:0:
228,196,115874,1,0,0:0:0:0:
368,272,116106,1,4,0:0:0:0:
412,148,116455,5,2,0:0:0:0:
412,148,116571,2,0,P|420:104|404:60,1,88,8|0,0:0|0:0,0:0:0:0:
240,40,117037,5,2,0:0:0:0:
204,36,117153,1,0,0:0:0:0:
168,32,117269,2,0,L|112:28,2,44,2|0|8,0:0|0:0|0:0,0:0:0:0:
344,24,117967,6,0,P|344:76|320:112,1,88,4|0,0:0|0:0,0:0:0:0:
312,120,118316,1,0,0:0:0:0:
300,136,118432,2,0,P|284:176|288:224,1,88,8|0,0:0|0:0,0:0:0:0:
332,228,118781,2,0,P|268:220|204:244,1,132,2|0,0:0|0:0,0:0:0:0:
240,372,119362,2,0,P|284:376|328:360,1,88,8|0,0:0|0:0,0:0:0:0:
164,320,119827,6,0,P|100:312|40:340,1,132,4|0,0:0|0:0,0:0:0:0:
16,376,120292,2,0,L|20:288,1,88,8|0,0:0|0:0,0:0:0:0:
24,244,120641,2,0,P|68:200|136:184,1,132,2|0,0:0|0:0,0:0:0:0:
256,240,121223,2,0,P|300:240|344:216,1,88,8|0,0:0|0:0,0:0:0:0:
352,180,121571,5,0,0:0:0:0:
352,180,121688,2,0,P|284:180|228:208,1,132,4|0,0:0|0:0,0:0:0:0:
208,248,122153,2,0,P|172:272|124:272,1,88,8|0,0:0|0:0,0:0:0:0:
136,316,122502,2,0,L|28:220,1,132,2|0,0:0|0:0,0:0:0:0:
160,116,123083,2,0,L|232:176,1,88,8|0,0:0|0:0,0:0:0:0:
96,168,123548,6,0,P|80:128|84:84,1,88,4|0,0:0|0:0,0:0:0:0:
96,64,123897,1,0,0:0:0:0:
108,48,124013,2,0,L|200:36,1,88,8|0,0:0|0:0,0:0:0:0:
232,60,124362,2,0,L|372:68,1,132,2|0,0:0|0:0,0:0:0:0:
444,32,124944,2,0,P|452:76|436:120,1,88,8|0,0:0|0:0,0:0:0:0:
360,276,125409,6,0,P|344:216|360:148,1,132,4|0,0:0|0:0,0:0:0:0:
332,184,125874,2,0,P|288:200|248:196,1,88,8|0,0:0|0:0,0:0:0:0:
208,172,126223,2,0,P|136:152|80:168,1,132,2|0,0:0|0:0,0:0:0:0:
52,340,126804,2,0,L|68:240,1,88,8|0,0:0|0:0,0:0:0:0:
132,368,127269,6,0,P|172:384|232:372,1,88,4|0,0:0|0:0,0:0:0:0:
252,352,127618,1,0,0:0:0:0:
252,352,127734,2,0,P|292:336|344:344,1,88,8|0,0:0|0:0,0:0:0:0:
368,372,128083,2,0,P|432:356|456:300,1,132,2|0,0:0|0:0,0:0:0:0:
492,220,128664,2,0,P|448:212|400:228,1,88,8|0,0:0|0:0,0:0:0:0:
244,180,129130,6,0,P|288:188|336:172,1,88,4|0,0:0|0:0,0:0:0:0:
352,140,129478,1,0,0:0:0:0:
352,140,129595,2,0,L|356:40,1,88,8|2,0:0|0:0,0:0:0:0:
192,24,130060,2,0,L|188:124,1,88
60,220,130525,2,0,L|64:120,1,88,8|0,0:0|0:0,0:0:0:0:
68,88,130874,5,0,0:0:0:0:
68,88,130990,2,0,P|108:76|160:92,1,88,4|0,0:0|0:0,0:0:0:0:
168,100,131339,1,2,0:0:0:0:
184,112,131455,2,0,P|224:128|280:112,1,88,8|4,0:0|0:0,0:0:0:0:
416,40,131920,1,0,0:0:0:0:
508,136,132153,1,2,0:0:0:0:
348,92,132385,5,8,0:0:0:0:
340,128,132502,1,0,3:0:0:0:
332,164,132618,2,0,L|344:256,1,88,0|4,1:0|0:0,0:0:0:0:
356,340,133083,1,2,0:0:0:0:
428,228,133316,1,8,0:0:0:0:
272,304,133548,1,0,0:0:0:0:
240,316,133664,2,0,P|176:312|128:264,1,132,2|2,0:0|0:0,0:0:0:0:
40,268,134246,2,0,P|52:220|84:192,1,88,8|0,0:0|0:0,0:0:0:0:
168,184,134711,5,2,0:0:0:0:
244,228,134944,1,0,0:0:0:0:
264,240,135060,2,0,P|284:248|328:244,1,44,2|8,0:0|0:0,0:0:0:0:
328,248,135292,2,0,L|380:244,1,44,0|2,0:0|0:0,0:0:0:0:
484,172,135641,1,0,0:0:0:0:
460,256,135874,5,2,0:0:0:0:
452,88,136106,1,8,0:0:0:0:
328,136,136339,1,2,0:0:0:0:
308,140,136455,1,0,0:0:0:0:
288,144,136571,2,0,P|232:144|200:128,1,88,4|0,0:0|0:0,0:0:0:0:
80,84,137037,6,0,P|68:128|80:172,1,88,8|0,0:0|0:0,0:0:0:0:
120,184,137385,2,0,P|144:240|124:312,1,132,2|2,0:0|0:0,0:0:0:0:
56,252,137967,2,0,L|144:248,1,88,8|2,0:0|0:0,0:0:0:0:
260,188,138432,2,0,L|360:204,1,88,0|0,0:0|0:0,0:0:0:0:
392,212,138781,2,0,L|460:224,2,44,2|8|0,0:0|0:0|0:0,0:0:0:0:
364,176,139130,2,0,P|352:136|360:92,1,88,2|0,0:0|0:0,0:0:0:0:
420,28,139595,5,2,0:0:0:0:
288,44,139827,1,8,0:0:0:0:
436,124,140059,1,2,0:0:0:0:
444,160,140176,1,0,0:0:0:0:
452,196,140292,2,0,P|448:244|416:280,1,88,4|0,0:0|0:0,0:0:0:0:
256,332,140757,5,8,0:0:0:0:
260,312,140874,1,0,0:0:0:0:
264,292,140990,1,2,0:0:0:0:
268,272,141106,2,0,P|296:224|388:212,1,132,0|2,0:0|0:0,0:0:0:0:
356,292,141688,2,0,P|312:272|288:236,1,88,8|0,0:0|0:0,0:0:0:0:
280,152,142153,6,0,L|184:180,1,88,2|0,0:0|0:0,0:0:0:0:
188,132,142502,2,0,L|128:220,1,88,2|0,0:0|0:0,0:0:0:0:
108,172,142851,2,0,L|108:268,1,88,2|0,0:0|0:0,0:0:0:0:
68,336,143316,2,0,P|112:348|156:336,1,88,2|8,0:0|0:0,0:0:0:0:
232,232,143781,5,2,0:0:0:0:
244,212,143897,1,0,0:0:0:0:
256,192,144013,2,0,P|340:168|424:196,1,176,4|8,0:0|0:0,0:0:0:0:
420,328,144711,2,0,P|336:352|252:324,1,176,2|2,0:0|0:0,0:0:0:0:
254,325,145409,1,8,0:0:0:0:
248,236,145641,1,2,0:0:0:0:
128,288,145874,6,0,P|84:276|56:244,1,88,4|2,0:0|0:0,0:0:0:0:
168,60,146339,2,0,P|212:72|240:104,1,88,8|2,0:0|0:0,0:0:0:0:
124,212,146804,2,0,L|172:132,1,88,0|2,0:0|0:0,0:0:0:0:
304,220,147269,6,0,L|256:300,2,88,8|2|4,0:0|0:0|1:2,0:0:0:0:
460,140,148199,1,8,0:0:0:0:
448,120,148316,1,2,0:0:0:0:
304,220,148548,5,8,0:0:0:0:
308,200,148664,1,2,0:0:0:0:
312,180,148781,6,0,L|360:168,2,44,8|8|8,0:0|0:0|0:0,0:0:0:0:
276,188,149130,1,10,0:0:0:0:
244,196,149246,1,0,0:0:0:0:
212,204,149362,1,2,0:0:0:0:
176,212,149478,1,0,0:0:0:0:
140,220,149595,6,0,P|104:244|84:284,1,88,4|0,0:0|0:0,0:0:0:0:
52,296,149944,2,0,L|136:336,1,88,2|0,0:0|0:0,0:0:0:0:
164,348,150292,2,0,L|276:336,1,88,4|0,0:0|0:0,0:0:0:0:
336,360,150757,1,2,0:0:0:0:
452,300,150990,6,0,P|480:268|488:224,1,88,8|0,0:0|0:0,0:0:0:0:
472,184,151339,1,2,0:0:0:0:
472,184,151455,2,0,L|428:108,1,88,4|2,0:0|0:0,0:0:0:0:
404,72,151804,1,0,0:0:0:0:
276,36,152037,1,2,0:0:0:0:
232,44,152153,2,0,P|192:80|184:128,1,88,4|0,0:0|0:0,0:0:0:0:
232,184,152618,1,2,0:0:0:0:
192,264,152851,5,8,0:0:0:0:
192,264,152967,1,0,0:0:0:0:
192,264,153083,2,0,P|156:288|112:292,1,88,2|4,0:0|0:0,0:0:0:0:
284,268,227734,5,2,0:0:0:0:
216,324,227967,1,0,0:0:0:0:
200,336,228083,2,0,P|156:336|120:312,1,88,2|0,0:0|0:0,0:0:0:0:
104,352,228432,2,0,L|100:220,1,132,2|0,0:0|0:0,0:0:0:0:
100,176,228897,1,2,0:0:0:0:
136,48,229130,1,8,0:0:0:0:
240,128,229362,5,2,0:0:0:0:
240,128,229478,1,0,0:0:0:0:
240,128,229595,2,0,P|284:140|340:128,1,88,2|0,0:0|0:0,0:0:0:0:
368,120,229944,2,0,P|412:112|456:124,1,88,2|0,0:0|0:0,0:0:0:0:
452,80,230292,2,0,L|460:232,1,132,2|0,0:0|0:0,0:0:0:0:
464,256,230757,1,2,0:0:0:0:
412,328,230990,2,0,L|416:380,2,44,8|0|2,0:0|0:0|0:0,0:0:0:0:
336,220,231455,6,0,P|256:196|168:220,1,176,2|8,0:0|0:0,0:0:0:0:
152,248,232037,1,0,0:0:0:0:
152,248,232153,1,2,0:0:0:0:
128,332,232385,2,0,P|88:304|68:248,1,88,2|0,0:0|0:0,0:0:0:0:
32,292,232734,2,0,L|48:152,1,132,2|0,0:0|0:0,0:0:0:0:
60,72,233316,6,0,P|72:52|92:32,1,44,8|8,0:0|0:0,0:0:0:0:
232,136,233664,2,0,P|220:156|200:176,1,44,8|8,0:0|0:0,0:0:0:0:
368,104,234013,2,0,L|416:100,1,44,8|8,0:0|0:0,0:0:0:0:
160,108,234362,2,0,L|112:112,1,44,8|8,0:0|0:0,0:0:0:0:
20,260,234711,5,2,0:0:0:0:
56,264,234827,1,0,0:0:0:0:
92,268,234944,1,2,0:0:0:0:
128,272,235060,1,0,0:0:0:0:
164,276,235176,6,0,P|208:268|240:240,1,88,4|0,0:0|0:0,0:0:0:0:
272,256,235525,2,0,L|288:156,1,88
292,136,235874,2,0,P|364:96|448:132,1,176
416,292,236571,2,0,P|376:308|328:296,1,88
296,276,236920,5,0,0:0:0:0:
296,276,237037,2,0,P|256:268|212:280,1,88
180,308,237385,2,0,L|88:288,1,88
84,332,237734,2,0,L|60:200,1,132
52,160,238199,1,0,0:0:0:0:
112,40,238432,5,0,0:0:0:0:
128,56,238548,1,0,0:0:0:0:
144,72,238664,2,0,P|188:88|232:80,1,88
296,24,239130,1,0,0:0:0:0:
456,100,239362,5,0,0:0:0:0:
456,100,239478,1,0,0:0:0:0:
456,100,239595,1,0,0:0:0:0:
500,176,239827,2,0,P|500:220|472:260,1,88
436,244,240176,2,0,P|368:228|296:248,1,132
156,316,240757,5,0,0:0:0:0:
276,372,240990,1,0,0:0:0:0:
200,220,241223,1,0,0:0:0:0:
48,292,241455,5,0,0:0:0:0:
32,204,241688,2,0,L|0:168,2,44
200,220,242153,5,0,0:0:0:0:
244,212,242269,1,0,0:0:0:0:
276,184,242385,1,0,0:0:0:0:
288,140,242502,1,0,0:0:0:0:
280,96,242618,6,0,L|220:32,1,88
176,32,242967,2,0,P|136:48|108:88,1,88
108,128,243316,2,0,L|228:264,1,176
256,192,265060,12,0,268432,0:0:0:0:
