osu file format v11

[General]
AudioFilename: Nisemonogatari_-_Futakotome.mp3
AudioLeadIn: 3000
PreviewTime: 43798
Countdown: 0
SampleSet: Soft
StackLeniency: 0.7
Mode: 0
LetterboxInBreaks: 0

[Editor]
DistanceSpacing: 1
BeatDivisor: 4
GridSize: 4

[Metadata]
Title:Futakotome
TitleUnicode:二言目
Artist:Saitou Chiwa
ArtistUnicode:斎藤千和
Creator:Frostmourne
Version:Normal
Source:Nisemonogatari
Tags:0OoMickeyoO0 Mickey opening Senjougahara Hitagi
BeatmapID:170464
BeatmapSetID:56362

[Difficulty]
HPDrainRate:3
CircleSize:3
OverallDifficulty:3
ApproachRate:4
SliderMultiplier:0.9
SliderTickRate:1

[Events]
//Background and Video events
0,0,"Hitagiismoe.jpg"
//Break Periods
2,91498,100887
2,206043,217250
//Storyboard Layer 0 (Background)
//Storyboard Layer 1 (Fail)
//Storyboard Layer 2 (Pass)
//Storyboard Layer 3 (Foreground)
//Storyboard Sound Samples
//Background Colour Transformations
3,100,163,162,255

[TimingPoints]
389,454.545454545455,4,2,1,30,1,0
14934,-100,4,2,2,40,0,0
29479,-100,4,2,2,50,0,0
44025,-100,4,2,1,70,0,0
60389,-100,4,2,1,30,0,0
60843,-100,4,2,1,45,0,0
61298,-100,4,2,1,60,0,0
61752,-100,4,2,1,75,0,0
62207,-100,4,2,1,90,0,1
87661,-100,4,2,1,70,0,0
102207,-100,4,2,1,70,0,0
102434,-100,4,2,1,30,0,0
116752,-100,4,2,2,40,0,0
131298,-100,4,2,1,50,0,0
147661,-100,4,2,1,30,0,0
148116,-100,4,2,1,45,0,0
148570,-100,4,2,1,60,0,0
149025,-100,4,2,1,75,0,0
149479,-100,4,2,1,90,0,1
174934,-100,4,2,1,50,0,1
176752,-100,4,2,2,30,0,0
191298,-100,4,2,1,30,0,0
205843,-100,4,2,1,30,0,0
218570,-100,4,2,1,50,0,0
220389,-100,4,2,1,90,0,1
245843,-100,4,2,1,30,0,0
260389,-100,4,2,1,10,0,0

[Colours]
Combo1 : 255,128,255
Combo2 : 255,255,0
Combo3 : 128,128,255

[HitObjects]
104,252,389,2,0,B|148:308|224:304,1,135,2|2,0:0|0:0,0:0:0
348,260,1752,1,0,0:0:0
432,292,2207,2,0,B|479:270|484:225,2,90
268,220,4025,6,0,B|200:240|180:320,1,135,2|2,0:0|0:0,0:0:0
85,218,5389,2,0,B|56:175|72:123,2,90,0|0|0,0:0|0:0|0:0,0:0:0
244,136,7207,1,0,0:0:0
336,116,7661,6,0,B|384:172|464:144,2,135,2|2|0,0:0|0:0|0:0,0:0:0
284,40,9479,1,0,0:0:0
104,36,10389,2,0,B|40:108|88:208,1,180,0|2,0:0|0:0,0:0:0
168,308,11979,6,0,B|276:368|388:312,1,225,2|0,0:0|0:0,0:0:0
464,152,14025,1,0,0:0:0
432,68,14479,2,0,B|380:88|376:144,1,90,0|10,0:0|0:0,0:0:0
320,204,15389,6,0,B|224:228,1,90,8|10,0:0|0:0,0:0:0
144,248,16298,2,0,B|72:260|20:208,2,135,8|0|8,0:0|0:0|0:0,0:0:0
76,76,18570,6,0,B|220:60,1,135,10|0,0:0|0:0,0:0:0
344,48,19934,1,8,0:0:0
384,128,20389,6,0,B|404:176|464:172,1,90,10|8,0:0|0:0,0:0:0
504,96,21298,2,0,B|484:48|424:52,1,90,8|8,0:0|0:0,0:0:0
344,48,22207,6,0,B|248:48,1,90,10|8,0:0|0:0,0:0:0
196,116,23116,2,0,B|108:92,1,90,8|8,0:0|0:0,0:0:0
32,136,24025,1,10,0:0:0
100,300,24934,6,0,B|88:252|124:212,1,90,8|8,0:0|0:0,0:0:0
208,184,25843,2,0,B|316:164,1,90,10|8,0:0|0:0,0:0:0
316,256,26752,2,0,B|208:276,1,90,8|8,0:0|0:0,0:0:0
144,304,27661,5,10,0:0:0
60,268,28116,2,0,B|44:224,1,45,8|2,0:0|0:0,0:0:0
40,92,29025,2,0,B|76:60|124:68,1,90,8|10,0:0|0:0,0:0:0
192,124,29934,5,8,0:0:0
256,60,30389,1,10,0:0:0
336,100,30843,2,0,B|388:96,1,45,8|2,0:0|0:0,0:0:0
468,68,31525,2,0,B|480:120|448:156,1,90,2|0,0:0|0:0,0:0:0
428,192,32207,2,0,B|392:284,1,90,10|8,0:0|0:0,0:0:0
324,332,33116,6,0,B|232:360|152:304,1,180,10|8,0:0|0:0,0:0:0
128,128,34934,2,0,B|220:100|300:156,1,180,8|8,0:0|0:0,0:0:0
332,240,36298,2,0,B|244:256,1,90,8|8,0:0|0:0,0:0:0
152,252,37207,6,0,B|104:252,2,45,8|0|10,0:0|0:0|0:0,0:0:0
192,172,38116,2,0,B|220:72,1,90,8|10,0:0|0:0,0:0:0
345,45,39252,2,0,B|388:37,1,45,0|10,0:0|0:0,0:0:0
471,73,39934,1,8,0:0:0
468,164,40389,6,0,B|400:196|340:156,1,135,10|0,0:0|0:0,0:0:0
244,60,41752,1,8,0:0:0
164,20,42207,2,0,B|128:88|180:152,1,135,10|2,0:0|0:0,0:0:0
304,188,43570,1,2,0:0:0
348,268,44025,6,0,B|316:296|264:284,1,90,4|8,0:0|0:0,0:0:0
192,228,44934,2,0,B|164:196|176:144,1,90,2|8,0:0|0:0,0:0:0
268,156,45843,2,0,B|364:172,1,90,2|8,0:0|0:0,0:0:0
384,84,46752,2,0,B|288:68,1,90,2|8,0:0|0:0,0:0:0
208,84,47661,5,2,0:0:0
124,116,48116,2,0,B|80:88|88:32,2,90,8|2|8,0:0|0:0|0:0,0:0:0
180,188,49479,1,2,0:0:0
248,248,49934,1,8,0:0:0
268,160,50389,2,0,B|316:152|352:184,1,90,2|8,0:0|0:0,0:0:0
436,212,51298,6,0,B|484:208|508:160,1,90,2|8,0:0|0:0,0:0:0
424,120,52207,2,0,B|455:83|438:32,1,90,2|8,0:0|0:0,0:0:0
352,64,53116,2,0,B|256:88|176:36,1,180,2|2,0:0|0:0,0:0:0
92,20,54479,2,0,B|92:112,1,90,8|2,0:0|0:0,0:0:0
92,200,55389,5,8,0:0:0
232,312,56298,1,8,0:0:0
392,232,57207,1,8,0:0:0
452,64,58116,1,8,0:0:0
380,120,58570,6,0,B|348:84|364:28,2,90,2|2|2,0:0|0:0|0:0,0:0:0
460,160,59934,2,0,B|440:208|388:208,1,90,2|8,0:0|3:0,0:0:0
308,176,60843,5,0,0:0:0
220,180,61298,2,0,B|168:188|136:152,1,90
120,68,62207,5,4,0:0:0
208,64,62661,2,0,B|268:52,1,45,8|2,0:0|0:0,0:0:0
336,84,63343,1,2,0:0:0
420,48,63798,2,0,B|480:112|444:216,1,180,2|2,0:0|0:0,0:0:0
236,336,65389,1,8,0:0:0
152,308,65843,6,0,B|104:216,1,90,2|8,0:0|0:0,0:0:0
76,256,66525,2,0,B|28:164,1,90,2|0,0:0|0:0,0:0:0
68,92,67434,2,0,B|124:48|196:72,1,135,2|8,0:0|0:0,0:0:0
264,132,68570,1,2,0:0:0
316,60,69025,2,0,B|424:40,1,90,8|4,0:0|0:0,0:0:0
452,120,69934,5,8,0:0:0
416,144,70161,1,2,0:0:0
468,220,70616,2,0,B|452:324,1,90,2|2,0:0|0:0,0:0:0
364,328,71525,2,0,B|364:376,2,45,0|8|2,0:0|0:0|0:0,0:0:0
232,308,72661,1,8,0:0:0
148,340,73116,6,0,B|59:308,1,90,2|8,0:0|0:0,0:0:0
44,268,73798,1,2,0:0:0
104,200,74252,1,2,0:0:0
188,236,74707,6,0,B|224:233|246:206|246:206|267:179|309:180,1,135,2|8,0:0|0:0,0:0:0
392,200,75843,1,2,0:0:0
428,284,76298,1,8,0:0:0
360,344,76752,1,4,0:0:0
180,352,77661,6,0,B|132:368|96:336,1,90,2|8,0:0|0:0,0:0:0
64,252,78570,1,2,0:0:0
128,188,79025,2,0,B|176:152,1,45,8|2,0:0|0:0,0:0:0
248,132,79707,2,0,B|248:40,2,90,2|2|2,0:0|0:0|0:0,0:0:0
368,200,81298,2,0,B|428:200,1,45,2|0,0:0|0:0,0:0:0
440,288,81979,6,0,B|296:356|276:192|136:264,1,315,2|8,0:0|0:0,0:0:0
92,336,84025,1,4,0:0:0
48,256,84479,6,0,B|48:148,1,90,8|0,0:0|0:0,0:0:0
96,92,85389,2,0,B|140:80,1,45,8|2,0:0|0:0,0:0:0
216,124,86070,2,0,B|288:148|344:100,1,135,2|2,0:0|0:0,0:0:0
428,68,87207,1,8,0:0:0
464,148,87661,5,2,0:0:0
392,204,88116,2,0,B|344:204,1,45,0|2,0:0|0:0,0:0:0
256,192,88570,12,2,91298,0:0:0
152,295,102207,6,0,B|48:279,2,90,2|0|0,0:0|0:0|0:0,0:0:0
228,340,103570,2,0,B|288:336,1,45,0|2,0:0|0:0,0:0:0
448,196,104934,5,0,0:0:0
404,116,105389,1,0,0:0:0
316,120,105843,2,0,B|220:124|164:40,1,180,2|0,0:0|0:0,0:0:0
100,208,107661,1,2,0:0:0
160,276,108116,2,0,B|208:268|248:288|248:288|312:208|412:220,1,270,0|2,0:0|0:0,0:0:0
464,152,109934,5,0,0:0:0
408,80,110389,1,2,0:0:0
320,108,110843,1,0,0:0:0
264,36,111298,1,2,0:0:0
192,152,111979,6,0,B|160:120,1,45,0|2,0:0|0:0,0:0:0
108,192,112661,2,0,B|60:176,2,45,0|0|2,0:0|0:0|0:0,0:0:0
284,228,114025,6,0,B|472:244,1,180,0|2,0:0|0:0,0:0:0
320,352,115843,2,0,B|132:336,1,180,0|10,0:0|0:0,0:0:0
68,284,117207,6,0,B|40:192,1,90,8|10,0:0|0:0,0:0:0
104,132,118116,2,0,B|184:56,1,90,8|10,0:0|0:0,0:0:0
348,96,119479,2,0,B|400:92|416:40,2,90,10|8|10,0:0|0:0|0:0,0:0:0
268,52,120843,5,8,0:0:0
104,132,121752,1,8,0:0:0
188,292,122661,1,8,0:0:0
268,248,123116,2,0,B|368:240|432:308,1,180,8|10,0:0|0:0,0:0:0
480,232,124479,6,0,B|496:128,1,90,8|10,0:0|0:0,0:0:0
404,124,125389,1,8,0:0:0
320,152,125843,2,0,B|224:156,1,90,10|8,0:0|0:0,0:0:0
140,168,126752,1,10,0:0:0
68,224,127207,2,0,B|36:184|52:136,1,90,8|10,0:0|0:0,0:0:0
116,76,128116,5,8,0:0:0
288,36,129025,1,8,0:0:0
340,108,129479,2,0,B|376:84|376:44,2,67.5,10|2|2,0:0|0:0|0:0,0:0:0
244,204,130843,6,0,B|148:216,1,90,2|4,0:0|0:0,0:0:0
72,256,131752,6,0,B|20:204|48:128,2,135,8|2|0,0:0|0:0|0:0,0:0:0
144,312,133570,2,0,B|244:312,2,90,8|2|8,0:0|0:0|0:0,0:0:0
156,224,134934,5,0,0:0:0
248,224,135389,2,0,B|396:224,2,135,8|2|2,0:0|0:0|0:0,0:0:0
156,224,137207,2,0,B|116:160|156:96,2,135,8|2|2,0:0|0:0|0:0,0:0:0
248,224,139025,6,0,B|304:224,1,45,8|2,0:0|0:0,0:0:0
292,132,139707,2,0,B|240:132,1,45,0|10,0:0|0:0,0:0:0
160,160,140389,2,0,B|108:108|140:32,2,135,0|2|8,0:0|0:0|0:0,0:0:0
212,232,142207,6,0,B|252:260|304:248,1,90,2|8,0:0|0:0,0:0:0
388,244,143116,2,0,B|436:235|464:190,1,90,0|8,0:0|0:0,0:0:0
412,120,144025,2,0,B|324:80,1,90,2|8,0:0|0:0,0:0:0
292,164,144934,2,0,B|196:140,1,90,0|8,0:0|0:0,0:0:0
128,92,145843,5,2,0:0:0
80,168,146298,1,2,0:0:0
132,240,146752,1,2,0:0:0
80,312,147207,1,2,0:0:0
256,192,147661,12,4,149479,0:0:0
384,264,150161,6,0,B|428:232|412:168,1,90,2|2,0:0|0:0,0:0:0
344,128,151070,2,0,B|320:28,2,90,0|2|2,0:0|0:0|0:0,0:0:0
280,248,152661,1,8,0:0:0
200,288,153116,6,0,B|128:316|74:260,1,135,2|2,0:0|0:0,0:0:0
52,176,154252,1,2,0:0:0
140,160,154707,6,0,B|168:120|140:72,2,90,0|2|2,0:0|0:0|0:0,0:0:0
100,180,155843,2,0,B|72:220|100:268,1,90,0|2,0:0|0:0,0:0:0
132,348,156752,1,4,0:0:0
220,324,157207,6,0,B|272:324,1,45,8|2,0:0|0:0,0:0:0
356,332,157889,2,0,B|436:284,2,90,2|2|2,0:0|0:0|0:0,0:0:0
328,248,159252,2,0,B|316:200|332:160|332:160|332:104,1,135,2|8,0:0|0:0,0:0:0
244,100,160389,5,2,0:0:0
124,164,161070,1,2,0:0:0
44,120,161525,1,2,0:0:0
24,208,161979,6,0,B|112:260,1,90,0|2,0:0|0:0,0:0:0
140,280,162661,2,0,B|192:280,2,45,8|0|2,0:0|0:0|0:0,0:0:0
64,332,163570,1,8,0:0:0
144,372,164025,1,4,0:0:0
212,204,164934,5,2,0:0:0
156,80,165616,2,0,B|136:32,1,45,0|2,0:0|0:0,0:0:0
60,84,166298,2,0,B|16:164|64:260,1,180,8|8,0:0|0:0,0:0:0
132,312,167661,1,2,0:0:0
304,360,168570,5,2,0:0:0
344,340,168798,2,0,B|376:300|348:248,1,90,0|2,0:0|0:0,0:0:0
224,208,169934,5,10,0:0:0
196,124,170389,1,2,0:0:0
280,96,170843,1,10,0:0:0
308,180,171298,1,4,0:0:0
304,268,171752,6,0,B|352:271|383:230,1,90,8|0,0:0|0:0,0:0:0
412,148,172661,1,8,0:0:0
420,104,172889,1,2,0:0:0
332,80,173343,2,0,B|264:56|204:104,1,135,2|0,0:0|0:0,0:0:0
132,156,174479,1,8,0:0:0
96,240,174934,6,0,B|120:280|188:284,1,90,2|0,0:0|0:0,0:0:0
216,276,175616,2,0,B|320:232|328:336|436:288,1,225,2|10,0:0|0:0,0:0:0
464,208,177207,6,0,B|464:112,1,90,8|8,0:0|0:0,0:0:0
376,112,178116,2,0,B|376:208,1,90,8|8,0:0|0:0,0:0:0
312,264,179025,2,0,B|268:280|224:256,1,90,8|8,0:0|0:0,0:0:0
212,168,179934,2,0,B|160:172|140:220,1,90,8|8,0:0|0:0,0:0:0
128,304,180843,5,10,0:0:0
60,248,181298,1,10,0:0:0
60,160,181752,1,10,0:0:0
132,104,182207,1,10,0:0:0
220,96,182661,2,0,B|269:85|309:119,2,90,10|10|10,0:0|0:0|0:0,0:0:0
244,184,184025,6,0,B|256:232|228:280,1,90,10|8,0:0|0:0,0:0:0
172,336,184934,2,0,B|204:368|260:356,1,90,8|8,0:0|0:0,0:0:0
328,304,185843,2,0,B|379:292|411:324,2,90,8|8|8,0:0|0:0|0:0,0:0:0
248,260,187207,2,0,B|276:215|321:215,1,90,8|8,0:0|0:0,0:0:0
412,200,188116,5,10,0:0:0
480,140,188570,1,10,0:0:0
464,52,189025,2,0,B|428:24|376:44,1,90,10|10,0:0|0:0,0:0:0
304,92,189934,1,10,0:0:0
228,136,190389,2,0,B|160:72,1,90,10|10,0:0|0:0,0:0:0
84,24,191298,5,2,0:0:0
28,96,191752,2,0,B|4:136|24:188,1,90,8|0,0:0|0:0,0:0:0
48,268,192661,2,0,B|76:352,1,90,8|0,0:0|0:0,0:0:0
164,336,193570,2,0,B|212:324|252:352,1,90,8|0,0:0|0:0,0:0:0
332,316,194479,1,8,0:0:0
416,348,194934,6,0,B|476:272|452:176,1,180,0|2,0:0|0:0,0:0:0
368,212,196298,2,0,B|276:212,1,90,8|0,0:0|0:0,0:0:0
280,120,197207,2,0,B|372:120,1,90,8|0,0:0|0:0,0:0:0
444,68,198116,1,8,0:0:0
364,28,198570,6,0,B|228:28,1,135
100,72,199934,1,8,0:0:0
20,32,200389,2,0,B|-4:76|24:120,1,90,2|8,0:0|0:0,0:0:0
44,156,201070,2,0,B|104:192|176:172,1,135,2|8,0:0|0:0,0:0:0
256,132,202207,6,0,B|304:120|344:148,1,90,2|8,0:0|0:0,0:0:0
380,172,202889,2,0,B|424:40,1,135,2|8,0:0|0:0,0:0:0
500,88,204025,2,0,B|500:240,1,135,2|2,0:0|0:0,0:0:0
440,344,205389,2,0,B|396:364|352:340,1,90,8|0,0:0|0:0,0:0:0
208,292,218570,6,0,B|112:256,1,90,0|2,0:0|0:0,0:0:0
160,180,219479,2,0,B|256:216,1,90,0|2,0:0|0:0,0:0:0
324,256,220389,6,0,B|372:268|416:240,1,90,4|8,0:0|0:0,0:0:0
440,212,221070,2,0,B|464:312,2,90,2|2|2,0:0|0:0|0:0,0:0:0
424,124,222434,2,0,B|420:76,2,45,2|8|2,0:0|0:0|0:0,0:0:0
292,100,223570,1,8,0:0:0
224,156,224025,6,0,B|160:132|144:56,1,135,2|2,0:0|0:0,0:0:0
56,80,225161,2,0,B|24:176,1,90,0|2,0:0|0:0,0:0:0
88,232,226070,2,0,B|134:252,1,45,0|8,0:0|0:0,0:0:0
172,264,226525,2,0,B|224:264,1,45,2|0,0:0|0:0,0:0:0
304,236,227207,1,8,0:0:0
380,280,227661,1,4,0:0:0
464,244,228116,6,0,B|476:196,1,45,8|2,0:0|0:0,0:0:0
420,128,228798,1,2,0:0:0
332,140,229252,2,0,B|280:152|248:108,2,90,0|2|0,0:0|0:0|0:0,0:0:0
420,40,230843,1,8,0:0:0
500,80,231298,6,0,B|540:144|500:208,1,135,2|2,0:0|0:0,0:0:0
460,288,232434,1,2,0:0:0
384,336,232889,2,0,B|261:264,1,135,0|8,0:0|0:0,0:0:0
284,176,234025,5,2,0:0:0
372,200,234479,1,8,0:0:0
440,140,234934,1,4,0:0:0
392,64,235389,6,0,B|300:40,1,90,8|2,0:0|0:0,0:0:0
176,80,236525,2,0,B|176:128,1,45,0|2,0:0|0:0,0:0:0
228,200,237207,1,8,0:0:0
272,216,237434,1,2,0:0:0
348,168,237889,2,0,B|396:168,1,45,0|8,0:0|0:0,0:0:0
460,228,238570,6,0,B|440:332,1,90,2|8,0:0|0:0,0:0:0
360,348,239479,2,0,B|260:328|240:224,1,180,2|2,0:0|0:0,0:0:0
160,268,240843,6,0,B|136:220|164:176,1,90,10|2,0:0|0:0,0:0:0
232,124,241752,2,0,B|280:100|324:128,1,90,10|4,0:0|0:0,0:0:0
336,212,242661,6,0,B|412:240|460:184,2,135,8|2|2,0:0|0:0|0:0,0:0:0
256,256,244479,1,8,0:0:0
184,312,244934,2,0,B|76:324,2,90,2|8|0,0:0|0:0|0:0,0:0:0
212,180,246525,1,2,0:0:0
256,192,246752,12,2,249479,0:0:0
116,256,250161,6,0,B|200:328|332:308,1,225,2|0,0:0|0:0,0:0:0
456,180,252207,1,0,0:0:0
316,68,253116,2,0,B|240:52|192:100,1,135,2|2,0:0|0:0,0:0:0
292,304,254934,6,0,B|384:280,1,90
360,192,255843,2,0,B|176:244,1,180,0|2,0:0|0:0,0:0:0
128,120,257434,2,0,B|352:56,1,225,2|0,0:0|0:0,0:0:0
484,172,259479,2,0,B|508:216|484:260,2,90
