osu file format v11

[General]
AudioFilename: Nisemonogatari_-_Futakotome.mp3
AudioLeadIn: 3000
PreviewTime: 43798
Countdown: 0
SampleSet: Soft
StackLeniency: 0.7
Mode: 0
LetterboxInBreaks: 0

[Editor]
DistanceSpacing: 1
BeatDivisor: 4
GridSize: 4

[Metadata]
Title:Futakotome
TitleUnicode:二言目
Artist:Saitou Chiwa
ArtistUnicode:斎藤千和
Creator:Frostmourne
Version:Insane
Source:Nisemonogatari
Tags:0OoMickeyoO0 Mickey opening Senjougahara Hitagi
BeatmapID:170799
BeatmapSetID:56362

[Difficulty]
HPDrainRate:7
CircleSize:4
OverallDifficulty:7
ApproachRate:8
SliderMultiplier:1.8
SliderTickRate:1

[Events]
//Background and Video events
0,0,"Hitagiismoe.jpg"
//Break Periods
2,91498,101002
2,206043,217820
//Storyboard Layer 0 (Background)
//Storyboard Layer 1 (Fail)
//Storyboard Layer 2 (Pass)
//Storyboard Layer 3 (Foreground)
//Storyboard Sound Samples
//Background Colour Transformations
3,100,163,162,255

[TimingPoints]
389,454.545454545455,4,2,1,30,1,0
389,-133.333333333333,4,2,1,30,0,0
14934,-100,4,2,2,45,0,0
44025,-100,4,2,1,70,0,0
60389,-100,4,2,1,30,0,0
60843,-100,4,2,1,45,0,0
61298,-100,4,2,1,60,0,0
61752,-100,4,2,1,75,0,0
62207,-100,4,2,1,90,0,1
87661,-100,4,2,1,70,0,0
102207,-133.333333333333,4,2,1,20,0,0
116752,-100,4,2,2,40,0,0
131298,-100,4,2,1,70,0,0
147661,-100,4,2,1,30,0,0
148116,-100,4,2,1,45,0,0
148570,-100,4,2,1,60,0,0
149025,-100,4,2,1,75,0,0
149479,-100,4,2,1,90,0,1
174934,-133.333333333333,4,2,1,50,0,1
176127,-100,4,2,1,50,0,1
176752,-100,4,2,2,30,0,0
191298,-100,4,2,1,30,0,0
205843,-100,4,2,1,30,0,0
218570,-100,4,2,0,50,0,0
220389,-100,4,2,1,90,0,1
245843,-100,4,2,1,30,0,0
249479,-133.333333333333,4,2,1,30,0,0
260161,-100,4,2,1,30,0,0
260389,-100,4,2,1,10,0,0

[Colours]
Combo1 : 255,128,255
Combo2 : 255,255,0
Combo3 : 128,128,255

[HitObjects]
108,260,389,2,0,B|156:316|252:296,1,135.000005149842,2|0,0:0|0:0,0:0:0
312,336,1070,2,0,B|352:204,1,135.000005149842,2|0,0:0|0:0,0:0:0
352,120,1752,2,0,B|392:112|412:144,1,67.5000025749208
428,224,2207,5,2,0:0:0
428,224,2320,1,0,0:0:0
428,224,2434,1,0,0:0:0
492,172,2661,2,0,B|500:96,1,67.5000025749208
436,52,3116,1,2,0:0:0
356,32,3343,1,0,0:0:0
356,32,3457,1,0,0:0:0
356,32,3570,2,0,B|277:54,1,67.5000025749208,2|0,0:0|0:0,0:0:0
152,184,4025,6,0,B|212:228|280:192,1,135.000005149842,2|0,0:0|0:0,0:0:0
280,112,4707,2,0,B|220:68|152:104,1,135.000005149842,2|0,0:0|0:0,0:0:0
80,144,5389,2,0,B|36:180,2,33.7500012874604
92,244,5843,1,2,0:0:0
92,244,5957,1,0,0:0:0
92,244,6070,2,0,B|124:320,1,67.5000025749208
236,348,6525,6,0,B|204:272,1,67.5000025749208,2|0,0:0|0:0,0:0:0
256,156,6979,2,0,B|288:232,1,67.5000025749208,2|0,0:0|0:0,0:0:0
320,308,7434,1,2,0:0:0
320,308,7661,6,0,B|372:364|448:332,1,135.000005149842,2|0,0:0|0:0,0:0:0
476,180,8343,2,0,B|424:124|348:156,1,135.000005149842,2|0,0:0|0:0,0:0:0
398,245,9025,1,0,0:0:0
398,245,9252,1,0,0:0:0
276,184,9479,6,0,B|248:160,2,33.7500012874604,2|0|0,0:0|0:0|0:0,0:0:0
224,248,9934,2,0,B|168:296,1,67.5000025749208,0|0,0:0|0:0,0:0:0
104,332,10389,2,0,B|68:292|88:236,1,101.250003862381,2|2,0:0|0:0,0:0:0
212,64,11070,2,0,B|180:132,1,67.5000025749208,2|2,0:0|0:0,0:0:0
108,96,11525,6,0,B|92:64,2,33.7500012874604,0|2|0,0:0|0:0|0:0,0:0:0
168,200,11979,2,0,B|220:252|296:220,1,135.000005149842,2|2,0:0|0:0,0:0:0
344,112,12661,2,0,B|292:60|219:95,1,135.000005149842,0|2,0:0|0:0,0:0:0
208,88,13229,1,0,0:0:0
196,84,13343,2,0,B|128:52,1,67.5000025749208,0|0,0:0|0:0,0:0:0
256,192,13798,12,8,14934,0:0:0
440,268,15389,6,0,B|388:320|316:296,1,135,8|0,0:0|0:0,0:0:0
292,336,15843,2,0,B|272:288|308:244,1,90,8|2,0:0|0:0,0:0:0
356,180,16298,1,8,0:0:0
280,240,16525,2,0,B|188:276|108:220,1,180,2|0,0:0|0:0,0:0:0
108,220,17207,1,8,0:0:0
44,304,17434,6,0,B|8:216,1,90,2|8,0:0|0:0,0:0:0
74,137,17889,2,0,B|110:225,1,90,2|8,0:0|0:0,0:0:0
144,304,18343,5,2,0:0:0
184,144,18570,1,8,0:0:0
228,224,18798,6,0,B|324:260|404:192,2,180
184,144,19934,2,0,B|152:56,1,90,8|0,0:0|0:0,0:0:0
240,32,20389,1,8,0:0:0
240,32,20502,1,2,0:0:0
240,32,20616,2,0,B|292:20|320:64,1,90,2|8,0:0|0:0,0:0:0
384,124,21070,2,0,B|432:144|468:104,2,90,2|8|2,0:0|0:0|0:0,0:0:0
408,36,21752,5,8,0:0:0
296,152,21979,1,2,0:0:0
408,36,22207,1,8,0:0:0
344,296,22661,6,0,B|396:244|472:264,1,135,8|2,0:0|0:0,0:0:0
476,308,23116,2,0,B|496:216,1,90,8|2,0:0|0:0,0:0:0
484,132,23570,2,0,B|436:140|420:192,1,90,8|2,0:0|0:0,0:0:0
356,124,24025,6,0,B|272:96|176:124,1,180,8|8,0:0|0:0,0:0:0
144,208,24707,2,0,B|56:164,1,90,2|8,0:0|0:0,0:0:0
24,248,25161,2,0,B|112:292,1,90,2|8,0:0|0:0,0:0:0
192,316,25616,5,2,0:0:0
256,184,25843,1,8,0:0:0
344,300,26070,1,2,0:0:0
52,88,26525,6,0,B|4:168|52:260,1,180
136,224,27207,2,0,B|184:244|224:212,1,90,8|0,0:0|0:0,0:0:0
292,160,27661,5,10,0:0:0
196,92,27889,2,0,B|152:108,1,45,0|2,0:0|0:0,0:0:0
136,224,28229,1,0,0:0:0
136,224,28343,1,2,0:0:0
40,60,28570,2,0,B|72:20|125:40,1,90,8|0,0:0|0:0,0:0:0
197,92,29025,6,0,B|221:84,8,22.5,8|0|0|0|0|0|0|0|10,0:0|0:0|0:0|0:0|0:0|0:0|0:0|0:0|0:0,0:0:0
424,96,29934,6,0,B|468:144|456:224|412:260,1,180,8|10,0:0|0:0,0:0:0
336,212,30616,2,0,B|312:304,1,90,2|8,0:0|0:0,0:0:0
236,344,31070,2,0,B|188:364|152:328,2,90,2|8|0,0:0|0:0|0:0,0:0:0
212,256,31752,1,8,0:0:0
124,244,31979,6,0,B|96:204|116:156,1,90,2|8,0:0|0:0,0:0:0
240,64,32434,2,0,B|268:104|248:152,1,90,2|8,0:0|0:0,0:0:0
212,256,32889,5,2,0:0:0
156,80,33116,1,10,0:0:0
288,224,33343,2,0,B|392:244|448:160,1,180
492,88,34025,6,0,B|400:76,1,90,8|0,0:0|0:0,0:0:0
328,24,34479,2,0,B|300:64|320:112,1,90,8|0,0:0|0:0,0:0:0
236,144,34934,1,8,0:0:0
236,145,35048,1,2,0:0:0
236,144,35161,2,0,B|208:52,1,90,2|8,0:0|0:0,0:0:0
124,84,35616,1,0,0:0:0
124,83,35730,1,2,0:0:0
124,84,35843,2,0,B|152:176,1,90,8|0,0:0|0:0,0:0:0
204,332,36298,5,8,0:0:0
300,192,36525,1,2,0:0:0
376,344,36752,1,8,0:0:0
408,260,36979,6,0,B|460:272|464:336,1,90,2|8,0:0|0:0,0:0:0
376,344,37434,2,0,B|284:316,1,90,0|10,0:0|0:0,0:0:0
204,332,37889,2,0,B|176:292|200:248,2,90,2|8|2,0:0|0:0|0:0,0:0:0
120,364,38570,6,0,B|84:276|132:188,1,180,8|8,0:0|0:0,0:0:0
248,92,39252,2,0,B|356:104,1,90,0|10,0:0|0:0,0:0:0
396,244,39707,2,0,B|288:232,1,90,0|10,0:0|0:0,0:0:0
180,144,40161,2,0,B|148:108|168:56,1,90,2|8,0:0|0:0,0:0:0
180,144,40616,6,0,B|252:212|348:180,2,180
104,100,41752,2,0,B|80:144|104:188,1,90,8|0,0:0|0:0,0:0:0
144,268,42207,6,0,B|240:316,1,90,10|0,0:0|0:0,0:0:0
244,320,42548,2,0,B|284:288|360:300,1,90,2|0,0:0|0:0,0:0:0
332,320,42889,2,0,B|408:144,1,180,2|2,0:0|0:0,0:0:0
460,84,43570,6,0,B|484:84,7,22.5
460,84,44025,6,0,B|368:84,1,90,4|2,0:0|0:0,0:0:0
256,112,44479,1,8,0:0:0
132,188,44707,6,0,B|224:220,1,90,2|0,0:0|0:0,0:0:0
208,308,45161,2,0,B|260:324|292:276,1,90,2|8,0:0|0:0,0:0:0
304,192,45616,5,2,0:0:0
360,340,45843,1,0,0:0:0
460,216,46070,1,2,0:0:0
404,144,46298,6,0,B|440:108|492:128,1,90,8|2,0:0|0:0,0:0:0
460,216,46752,1,2,0:0:0
360,60,46979,2,0,B|248:84,1,90,2|8,0:0|0:0,0:0:0
96,136,47434,5,2,0:0:0
96,136,47548,1,0,0:0:0
96,136,47661,2,0,B|208:160,1,90,2|2,0:0|0:0,0:0:0
244,220,48116,1,8,0:0:0
300,288,48343,6,0,B|264:328|200:300,1,90,2|0,0:0|0:0,0:0:0
372,344,48798,2,0,B|412:308|384:244,1,90,2|8,0:0|0:0,0:0:0
328,196,49252,5,2,0:0:0
148,352,49479,2,0,B|120:312|144:260,1,90,0|2,0:0|0:0,0:0:0
212,112,49934,1,8,0:0:0
212,112,50161,6,0,B|244:28,1,90,2|2,0:0|0:0,0:0:0
232,196,50616,2,0,B|184:212|148:176,1,90,2|8,0:0|0:0,0:0:0
120,52,51070,5,2,0:0:0
120,52,51184,1,0,0:0:0
120,52,51298,2,0,B|152:12|208:28,1,90,0|2,0:0|0:0,0:0:0
288,44,51752,1,8,0:0:0
408,184,51979,6,0,B|300:184,1,90,2|0,0:0|0:0,0:0:0
392,60,52434,2,0,B|484:96,1,90,2|8,0:0|0:0,0:0:0
440,276,52889,5,2,0:0:0
264,216,53116,2,0,B|232:176|252:128,2,90,0|2|8,0:0|0:0|0:0,0:0:0
316,288,53798,5,2,0:0:0
360,212,54025,1,2,0:0:0
256,356,54252,2,0,B|288:392|340:376,1,90,2|8,0:0|0:0,0:0:0
316,288,54707,5,2,0:0:0
168,356,54934,2,0,B|120:368|84:332,1,90,0|2,0:0|0:0,0:0:0
192,184,55389,1,8,0:0:0
288,196,55616,5,2,0:0:0
140,264,55843,2,0,B|92:276|56:240,1,90,0|2,0:0|0:0,0:0:0
164,92,56298,1,8,0:0:0
316,288,56525,5,2,0:0:0
168,356,56752,2,0,B|120:368|84:332,1,90,0|2,0:0|0:0,0:0:0
192,184,57207,1,8,0:0:0
288,196,57434,5,2,0:0:0
140,264,57661,2,0,B|92:276|56:240,1,90,0|2,0:0|0:0,0:0:0
164,92,58116,1,8,0:0:0
260,280,58343,5,2,0:0:0
260,280,58457,1,0,0:0:0
260,280,58570,2,0,B|304:300|344:264,1,90,2|0,0:0|0:0,0:0:0
288,196,59025,5,2,0:0:0
404,328,59252,2,0,B|440:296|428:244,1,90,0|2,0:0|0:0,0:0:0
288,196,59707,5,0,0:0:0
512,244,59934,2,0,B|514:195|469:167,1,90,2|0,0:0|0:0,0:0:0
256,192,60389,12,4,62207,0:0:0
156,228,62434,6,0,B|80:228,2,45,2|2|8,0:0|0:0|0:0,0:0:0
224,288,62889,2,0,B|324:288,1,90,2|0,0:0|0:0,0:0:0
370,204,63343,2,0,B|280:204,1,90,2|8,0:0|0:0,0:0:0
452,164,63798,2,0,B|472:120|452:76,1,90,0|2,0:0|0:0,0:0:0
380,120,64252,5,0,0:0:0
444,248,64479,1,8,0:0:0
312,68,64707,2,0,B|224:36|136:84,1,180,2|2,0:0|0:0,0:0:0
380,120,65389,5,8,0:0:0
216,260,65616,1,2,0:0:0
216,260,65729,1,0,0:0:0
216,260,65843,1,2,0:0:0
276,64,66070,5,0,0:0:0
416,212,66298,1,8,0:0:0
216,260,66525,2,0,B|112:264|60:184,1,180,2|2,0:0|0:0,0:0:0
140,140,67207,5,8,0:0:0
172,340,67434,2,0,B|256:376|348:344,1,180,0|0,0:0|0:0,0:0:0
408,180,68116,1,8,0:0:0
391,268,68343,2,0,B|343:260|323:212,1,90,2|0,0:0|0:0,0:0:0
444,96,68798,1,2,0:0:0
216,176,69025,1,8,0:0:0
208,156,69139,1,0,0:0:0
200,136,69252,1,0,0:0:0
192,116,69366,1,0,0:0:0
184,96,69479,6,0,B|88:68,1,90,4|0,0:0|0:0,0:0:0
20,24,69934,1,8,0:0:0
16,132,70161,2,0,B|112:160,1,90,2|0,0:0|0:0,0:0:0
212,192,70616,2,0,B|128:236,1,90,2|8,0:0|0:0,0:0:0
296,220,71070,5,0,0:0:0
296,220,71184,1,0,0:0:0
296,220,71298,1,2,0:0:0
192,296,71525,2,0,B|108:340,1,90,0|8,0:0|0:0,0:0:0
27,308,71979,2,0,B|92:264|228:276|272:352,1,270,2|8,0:0|0:0,0:0:0
380,300,72889,5,0,0:0:0
380,300,73002,1,0,0:0:0
380,300,73116,1,2,0:0:0
468,292,73343,2,0,B|476:344|436:372,1,90,0|8,0:0|0:0,0:0:0
360,212,73798,1,2,0:0:0
292,272,74025,5,0,0:0:0
304,48,74252,1,2,0:0:0
304,48,74707,6,0,B|416:48,1,90,0|2,0:0|0:0,0:0:0
340,248,75161,2,0,B|240:248,1,90,0|8,0:0|0:0,0:0:0
204,48,75616,5,0,0:0:0
128,216,75843,1,2,0:0:0
472,92,76298,1,8,0:0:0
220,332,76752,6,0,B|176:372|96:376|40:332,2,180,4|8|2,0:0|0:0|0:0,0:0:0
360,80,78116,2,0,B|400:112|384:164,1,90,8|0,0:0|0:0,0:0:0
296,140,78570,2,0,B|237:151|167:113|141:47,1,180,2|8,0:0|0:0,0:0:0
244,32,79252,2,0,B|168:96|148:24|64:80,1,180,2|2,0:0|0:0,0:0:0
74,73,79934,1,8,0:0:0
20,144,80161,6,0,B|96:200|192:184,1,180,2|2,0:0|0:0,0:0:0
208,272,80843,2,0,B|284:224,1,90,8|0,0:0|0:0,0:0:0
304,312,81298,5,2,0:0:0
268,140,81525,2,0,B|320:128|352:168,1,90,2|8,0:0|0:0,0:0:0
128,236,81979,2,0,B|68:220,2,45,2|0|2,0:0|0:0|0:0,0:0:0
234,221,82434,5,0,0:0:0
332,84,82661,2,0,B|315:129|265:141,1,90,10|0,0:0|0:0,0:0:0
252,304,83116,2,0,B|220:267|235:217,1,90,2|0,0:0|0:0,0:0:0
112,100,83570,2,0,B|159:108|180:155,1,90,10|0,0:0|0:0,0:0:0
252,304,84025,1,4,0:0:0
184,44,84479,5,8,0:0:0
112,100,84707,1,2,0:0:0
112,100,84820,1,0,0:0:0
112,100,84934,1,0,0:0:0
28,136,85161,1,0,0:0:0
40,48,85389,5,8,0:0:0
100,200,85616,2,0,B|175:253|271:221,1,180,2|2,0:0|0:0,0:0:0
348,272,86298,2,0,B|393:175,1,90,8|0,0:0|0:0,0:0:0
248,348,86752,6,0,B|152:379|76:326,2,180,2|8|2,0:0|0:0|0:0,0:0:0
428,292,87889,1,0,0:0:0
428,292,88002,1,0,0:0:0
428,292,88116,2,0,B|452:248|428:204,1,90,0|2,0:0|0:0,0:0:0
256,192,88570,12,2,91298,0:0:0
140,272,101752,5,8,0:0:0
140,272,102207,6,0,B|204:316|268:264,1,135.000005149842,2|0,0:0|0:0,0:0:0
372,96,103116,2,0,B|392:28,2,67.5000025749208
344,172,103798,1,0,0:0:0
344,172,104707,6,0,B|256:156,1,67.5000025749208
204,124,105161,2,0,B|168:56,1,67.5000025749208
88,200,105616,2,0,B|123:131,1,67.5000025749208,0|2,0:0|0:0,0:0:0
118,139,106070,1,0,0:0:0
384,276,106525,6,0,B|452:276,2,67.5000025749208
192,220,107434,1,0,0:0:0
192,220,107661,2,0,B|120:200|72:260,1,135.000005149842,2|0,0:0|0:0,0:0:0
136,308,108343,2,0,B|216:320,1,67.5000025749208
268,272,108798,2,0,B|292:204,2,67.5000025749208
268,272,109479,1,2,0:0:0
188,72,109934,6,0,B|248:28|316:56,1,135.000005149842
376,112,110616,2,0,B|444:68,2,67.5000025749208
376,112,111298,1,2,0:0:0
376,112,111979,6,0,B|376:208,1,67.5000025749208
300,212,112434,2,0,B|300:144,1,67.5000025749208
224,112,112889,2,0,B|224:208,1,67.5000025749208,0|2,0:0|0:0,0:0:0
224,260,113343,1,0,0:0:0
224,260,113798,6,0,B|132:280,1,67.5000025749208
88,236,114252,1,0,0:0:0
88,236,114707,1,0,0:0:0
56,160,114934,5,2,0:0:0
56,160,115048,1,2,0:0:0
56,160,115161,2,0,B|44:80,1,67.5000025749208,0|0,0:0|0:0,0:0:0
168,172,115616,2,0,B|197:96,1,67.5000025749208,0|0,0:0|0:0,0:0:0
256,240,116070,2,0,B|319:189,2,67.5000025749208
204,337,116752,6,0,B|292:373|376:321,1,180,8|8,0:0|0:0,0:0:0
280,140,117661,2,0,B|184:132,1,90,8|0,0:0|0:0,0:0:0
156,48,118116,2,0,B|104:40|72:80,1,90,8|2,0:0|0:0,0:0:0
72,168,118570,2,0,B|72:212,2,45,8|2|0,0:0|0:0|0:0,0:0:0
164,168,119025,1,8,0:0:0
228,100,119252,6,0,B|280:100|304:140,1,90,2|8,0:0|0:0,0:0:0
364,72,119707,2,0,B|400:108|389:154,1,90,2|8,0:0|0:0,0:0:0
476,132,120161,1,2,0:0:0
328,224,120389,6,0,B|280:232|244:196,1,90,8|0,0:0|0:0,0:0:0
245,197,121070,1,0,0:0:0
168,240,121298,1,8,0:0:0
80,228,121525,2,0,B|32:188|32:108|68:64,1,180
152,92,122207,2,0,B|200:124|288:100|303:43,1,180,8|8,0:0|0:0,0:0:0
476,220,123116,6,0,B|476:320,1,90,8|0,0:0|0:0,0:0:0
388,308,123570,2,0,B|388:208,1,90,8|0,0:0|0:0,0:0:0
300,240,124025,6,0,B|248:248|220:204,1,90,10|0,0:0|0:0,0:0:0
180,128,124479,2,0,B|136:156|136:208,1,90,8|2,0:0|0:0,0:0:0
48,188,124934,2,0,B|36:238|73:275,1,90,8|2,0:0|0:0,0:0:0
148,316,125389,1,8,0:0:0
148,316,125616,2,0,B|228:364|324:320,1,180,2|0,0:0|0:0,0:0:0
396,268,126298,1,8,0:0:0
440,192,126525,6,0,B|476:104,1,90,2|8,0:0|0:0,0:0:0
384,100,126979,2,0,B|356:12,1,90,2|8,0:0|0:0,0:0:0
272,48,127434,2,0,B|300:136,1,90,2|10,0:0|0:0,0:0:0
292,224,127889,6,0,B|244:264|160:248|132:192,2,180
356,288,129025,2,0,B|448:288,2,90,8|0|10,0:0|0:0|0:0,0:0:0
252,172,129707,5,0,0:0:0
252,172,129820,1,2,0:0:0
428,136,130048,2,0,B|472:124,1,45,0|2,0:0|0:0,0:0:0
252,172,130389,6,0,B|204:164|192:112,1,90,8|0,0:0|0:0,0:0:0
240,36,130843,2,0,B|272:36,7,22.5
240,36,131298,6,0,B|140:40,1,90,4|2,0:0|0:0,0:0:0
92,108,131752,1,8,0:0:0
212,240,131979,6,0,B|136:192,1,90,2|0,0:0|0:0,0:0:0
188,116,132434,2,0,B|264:164,1,90,2|8,0:0|0:0,0:0:0
216,332,132889,5,2,0:0:0
300,364,133116,2,0,B|320:320|292:280,1,90,0|2,0:0|0:0,0:0:0
212,240,133570,1,8,0:0:0
388,252,133798,5,2,0:0:0
212,240,134025,2,0,B|176:204|192:156,1,90,2|0,0:0|0:0,0:0:0
320,76,134479,1,8,0:0:0
388,252,134707,6,0,B|346:281|301:257,1,90,2|0,0:0|0:0,0:0:0
320,76,135161,1,2,0:0:0
320,76,135389,1,8,0:0:0
280,336,135616,6,0,B|232:352|196:320,1,90,2|0,0:0|0:0,0:0:0
172,152,136070,1,2,0:0:0
172,152,136298,1,8,0:0:0
396,120,136525,6,0,B|420:76|396:32,1,90,2|0,0:0|0:0,0:0:0
236,92,136979,2,0,B|212:136|236:180,1,90,2|8,0:0|0:0,0:0:0
380,244,137434,6,0,B|284:244,1,90,2|0,0:0|0:0,0:0:0
316,40,137889,2,0,B|408:40,1,90,2|8,0:0|0:0,0:0:0
488,172,138343,5,2,0:0:0
488,172,138457,1,2,0:0:0
488,172,138570,2,0,B|468:260,1,90,0|2,0:0|0:0,0:0:0
404,324,139025,1,8,0:0:0
308,152,139252,6,0,B|400:152,1,90,2|0,0:0|0:0,0:0:0
320,284,139707,2,0,B|228:284,1,90,2|8,0:0|0:0,0:0:0
52,276,140161,6,0,B|52:186,1,90,2|0,0:0|0:0,0:0:0
140,212,140616,2,0,B|140:302,1,90,2|8,0:0|0:0,0:0:0
160,128,141070,5,2,0:0:0
336,196,141298,2,0,B|328:244|280:260,1,90,2|2,0:0|0:0,0:0:0
228,80,141752,1,8,0:0:0
412,152,141979,5,2,0:0:0
412,152,142093,1,0,0:0:0
412,152,142207,2,0,B|436:200|408:240,1,90,2|2,0:0|0:0,0:0:0
280,260,142661,1,8,0:0:0
188,136,142889,6,0,B|92:152,1,90,2|0,0:0|0:0,0:0:0
248,236,143343,1,2,0:0:0
256,64,143570,1,8,0:0:0
100,152,143798,5,2,0:0:0
100,152,143912,1,0,0:0:0
100,152,144026,2,0,B|76:200|104:240,1,90,2|2,0:0|0:0,0:0:0
232,260,144479,1,8,0:0:0
324,136,144707,6,0,B|420:152,1,90,2|0,0:0|0:0,0:0:0
264,236,145161,1,2,0:0:0
256,64,145388,1,8,0:0:0
220,148,145616,5,0,0:0:0
416,104,145843,2,0,B|436:152|396:192,1,90,2|0,0:0|0:0,0:0:0
324,136,146298,5,2,0:0:0
264,236,146525,1,0,0:0:0
324,136,146752,1,2,0:0:0
360,275,146979,1,0,0:0:0
324,136,147207,1,2,0:0:0
452,249,147434,1,0,0:0:0
272,64,147661,6,0,B|228:88|236:144,1,90
144,148,148116,2,0,B|129:196|175:230,1,90
244,284,148570,5,0,0:0:0
324,136,148798,1,0,0:0:0
433,263,149025,2,0,B|412:176,1,90
308,120,149479,6,0,B|356:172|432:144,1,135,4|0,0:0|0:0,0:0:0
448,104,149934,2,0,B|460:200,2,90,8|2|0,0:0|0:0|0:0,0:0:0
272,292,150616,2,0,B|324:272|328:212,1,90,2|8,0:0|0:0,0:0:0
248,184,151070,2,0,B|152:196|80:136,1,180,2|2,0:0|0:0,0:0:0
48,52,151752,5,8,0:0:0
32,208,151979,2,0,B|64:244|112:252,1,90,2|0,0:0|0:0,0:0:0
224,311,152434,2,0,B|188:338|140:336,1,90,2|8,0:0|0:0,0:0:0
296,256,152889,5,0,0:0:0
296,256,153002,1,0,0:0:0
296,256,153116,1,2,0:0:0
272,144,153343,1,0,0:0:0
272,144,153570,1,8,0:0:0
324,344,153798,2,0,B|232:364|152:308,1,180,2|2,0:0|0:0,0:0:0
64,316,154479,1,8,0:0:0
104,236,154707,6,0,B|148:212|192:232,1,90,0|2,0:0|0:0,0:0:0
64,316,155161,1,0,0:0:0
272,212,155389,2,0,B|255:166|206:152,1,90,8|2,0:0|0:0,0:0:0
44,180,155843,5,0,0:0:0
468,204,156298,1,8,0:0:0
36,92,156752,6,0,B|124:124|220:100,1,180,4|8,0:0|0:0,0:0:0
288,52,157434,1,2,0:0:0
288,52,157548,1,0,0:0:0
288,52,157661,2,0,B|336:44|372:72,1,90,0|2,0:0|0:0,0:0:0
312,140,158116,1,8,0:0:0
449,28,158343,6,0,B|492:108|456:204,1,180,2|2,0:0|0:0,0:0:0
312,140,159025,1,8,0:0:0
456,202,159252,2,0,B|416:288,1,90,2|0,0:0|0:0,0:0:0
340,236,159707,1,2,0:0:0
340,236,159820,1,2,0:0:0
340,236,159934,1,8,0:0:0
296,316,160161,5,2,0:0:0
296,316,160275,1,0,0:0:0
296,316,160389,1,2,0:0:0
168,220,160616,1,0,0:0:0
256,228,160843,1,8,0:0:0
124,296,161070,5,2,0:0:0
208,112,161298,1,0,0:0:0
208,300,161525,2,0,B|164:328|124:296,1,90,2|8,0:0|0:0,0:0:0
312,140,161979,2,0,B|408:136|472:216,1,180,2|0,0:0|0:0,0:0:0
246,208,162661,5,8,0:0:0
376,64,162889,2,0,B|425:64|456:94,1,90,2|0,0:0|0:0,0:0:0
355,348,163343,1,0,0:0:0
334,356,163457,1,0,0:0:0
312,362,163570,1,8,0:0:0
289,363,163684,1,0,0:0:0
266,363,163798,1,0,0:0:0
246,360,163911,1,0,0:0:0
223,358,164025,2,0,B|124:340,1,90,4|0,0:0|0:0,0:0:0
92,264,164479,6,0,B|147:251|186:177|167:116,1,180,8|2,0:0|0:0,0:0:0
224,276,165161,2,0,B|316:272,1,90,0|8,0:0|0:0,0:0:0
370,74,165616,1,0,0:0:0
248,188,165843,6,0,B|184:200|120:144|128:68,1,180,2|8,0:0|0:0,0:0:0
204,36,166525,2,0,B|284:8|296:112|384:68,1,180,2|0,0:0|0:0,0:0:0
460,76,167207,1,8,0:0:0
399,179,167434,2,0,B|488:160,1,90,2|0,0:0|0:0,0:0:0
332,240,167889,5,2,0:0:0
332,240,168002,1,0,0:0:0
332,240,168116,1,8,0:0:0
399,179,168343,1,2,0:0:0
416,268,168570,5,0,0:0:0
252,208,168798,2,0,B|272:160|320:156,1,90,2|8,0:0|0:0,0:0:0
260,296,169252,5,2,0:0:0
260,296,169366,1,0,0:0:0
260,296,169479,2,0,B|156:296,1,90,2|0,0:0|0:0,0:0:0
212,76,169934,2,0,B|308:76,1,90,10|0,0:0|0:0,0:0:0
320,156,170389,5,2,0:0:0
320,156,170616,1,0,0:0:0
208,24,170843,2,0,B|112:24,1,90,10|0,0:0|0:0,0:0:0
144,212,171298,1,4,0:0:0
468,204,171752,5,8,0:0:0
475,184,171866,1,0,0:0:0
478,162,171979,1,2,0:0:0
476,142,172093,1,0,0:0:0
470,121,172207,1,0,0:0:0
384,92,172434,6,0,B|304:32,2,90,2|8|0,0:0|0:0|0:0,0:0:0
244,268,173116,1,2,0:0:0
240,144,173343,2,0,B|300:136|364:184|368:244,1,180,0|0,0:0|0:0,0:0:0
460,324,174025,6,0,B|504:240,1,90,2|0,0:0|0:0,0:0:0
484,108,174479,2,0,B|440:192,1,90,8|0,0:0|0:0,0:0:0
356,324,174934,6,0,B|280:328|244:264,1,135.000005149842,2|0,0:0|0:0,0:0:0
204,344,175616,2,0,B|147:293|167:222,1,135.000005149842,0|0,0:0|0:0,0:0:0
172,208,176127,6,0,B|184:168,11,22.5,0|0|0|0|0|0|0|0|0|0|0|10,0:0|0:0|0:0|0:0|0:0|0:0|0:0|0:0|0:0|0:0|0:0|0:0,0:0:0
452,232,177207,6,0,B|484:193|468:140,1,90,8|0,0:0|0:0,0:0:0
452,232,177661,2,0,B|447:181|398:155,1,90,8|0,0:0|0:0,0:0:0
336,216,178116,2,0,B|304:128,1,90,8|0,0:0|0:0,0:0:0
220,156,178570,2,0,B|252:244,1,90,8|0,0:0|0:0,0:0:0
308,308,179025,2,0,B|392:352|484:320,2,180,8|8|8,0:0|0:0|0:0,0:0:0
96,328,180389,6,0,B|36:140,1,180,8|10,0:0|0:0,0:0:0
240,68,181298,2,0,B|328:32|424:72,2,180,10|10|10,0:0|0:0|0:0,0:0:0
208,284,182661,2,0,B|140:196,1,90,10|0,0:0|0:0,0:0:0
228,160,183116,2,0,B|296:248,1,90,10|0,0:0|0:0,0:0:0
356,280,183570,2,0,B|400:304|452:284,1,90,10|0,0:0|0:0,0:0:0
404,208,184025,6,0,B|404:116,1,90,10|0,0:0|0:0,0:0:0
348,48,184479,2,0,B|256:48,1,90,8|0,0:0|0:0,0:0:0
176,88,184934,2,0,B|76:104|16:24,2,180,8|8|8,0:0|0:0|0:0,0:0:0
256,132,186070,2,0,B|348:132,2,90,0|8|0,0:0|0:0|0:0,0:0:0
196,200,186752,2,0,B|8:200,1,180,8|8,0:0|0:0,0:0:0
268,260,187661,6,0,B|368:284|448:244,2,180,8|10|10,0:0|0:0|0:0,0:0:0
196,200,188798,1,0,0:0:0
240,120,189025,1,10,0:0:0
324,156,189252,2,0,B|348:104|316:64,1,90,0|10,0:0|0:0,0:0:0
240,120,189707,2,0,B|144:120,1,90,0|10,0:0|0:0,0:0:0
88,184,190161,5,0,0:0:0
88,184,190275,1,0,0:0:0
88,184,190389,1,10,0:0:0
48,104,190616,1,0,0:0:0
108,40,190843,1,10,0:0:0
192,68,191070,1,0,0:0:0
278,48,191298,6,0,B|378:40|438:116,2,180,2|8|0,0:0|0:0|0:0,0:0:0
216,112,192434,1,2,0:0:0
304,132,192661,2,0,B|340:172|324:224,1,90,8|2,0:0|0:0,0:0:0
240,192,193116,2,0,B|237:245|189:271,1,90,0|2,0:0|0:0,0:0:0
124,320,193570,2,0,B|188:384|292:360,1,180,8|2,0:0|0:0,0:0:0
304,132,194479,1,8,0:0:0
304,132,194934,6,0,B|392:80|504:124,1,180,2|10,0:0|0:0,0:0:0
476,204,195616,1,0,0:0:0
416,272,195843,2,0,B|324:244,1,90,2|0,0:0|0:0,0:0:0
268,320,196298,2,0,B|244:232,1,90,10|0,0:0|0:0,0:0:0
156,252,196752,6,0,B|180:340,2,90,2|0|10,0:0|0:0|0:0,0:0:0
96,184,197434,1,0,0:0:0
28,128,197661,2,0,B|-4:164|12:212,1,90,2|0,0:0|0:0,0:0:0
96,184,198116,2,0,B|128:148|112:100,1,90,10|0,0:0|0:0,0:0:0
48,40,198570,6,0,B|136:0|232:32,1,180,2|8,0:0|0:0,0:0:0
288,92,199252,2,0,B|328:180|296:276,1,180,2|0,0:0|0:0,0:0:0
256,348,199934,1,8,0:0:0
216,268,200161,1,0,0:0:0
352,356,200389,6,0,B|411:274|394:184,1,180,2|8,0:0|0:0,0:0:0
380,96,201070,2,0,B|264:52|252:188|124:132,1,270,2|8,0:0|0:0,0:0:0
172,56,201979,1,0,0:0:0
64,196,202207,6,0,B|144:252|244:228,1,180,2|8,0:0|0:0,0:0:0
224,320,202889,2,0,B|320:303|373:215,1,180,2|0,0:0|0:0,0:0:0
304,164,203570,1,8,0:0:0
304,164,203684,1,0,0:0:0
304,164,203798,1,0,0:0:0
420,304,204025,6,0,B|476:224|452:124,1,180,2|8,0:0|0:0,0:0:0
372,92,204707,1,2,0:0:0
304,164,204934,1,0,0:0:0
240,76,205161,1,0,0:0:0
184,168,205389,1,8,0:0:0
132,56,205616,1,0,0:0:0
132,56,205729,1,0,0:0:0
132,56,205843,1,0,0:0:0
116,280,218570,6,0,B|96:172,1,90
188,188,219025,2,0,B|200:96,1,90,8|0,0:0|0:0,0:0:0
288,88,219479,1,0,0:0:0
368,128,219707,1,8,0:0:0
368,128,219820,1,8,0:0:0
368,128,219934,1,2,0:0:0
368,128,220389,6,0,B|416:136|452:100,1,90,4|0,0:0|0:0,0:0:0
384,44,220843,1,8,0:0:0
340,212,221070,2,0,B|248:240,1,90,2|0,0:0|0:0,0:0:0
96,344,221525,2,0,B|188:316,1,90,2|8,0:0|0:0,0:0:0
52,208,221979,5,0,0:0:0
52,208,222093,1,0,0:0:0
52,208,222207,2,0,B|24:164|40:120,1,90,2|0,0:0|0:0,0:0:0
176,236,222661,1,8,0:0:0
120,72,222889,1,2,0:0:0
120,72,223002,1,0,0:0:0
120,72,223116,2,0,B|204:28|300:60,1,180,0|8,0:0|0:0,0:0:0
412,196,223798,5,0,0:0:0
412,196,223911,1,0,0:0:0
412,196,224025,2,0,B|386:156|411:99,1,90,2|0,0:0|0:0,0:0:0
460,36,224479,1,8,0:0:0
416,288,224707,2,0,B|364:292|336:256,1,90,2|0,0:0|0:0,0:0:0
492,236,225161,1,2,0:0:0
492,236,225389,1,8,0:0:0
320,104,225616,5,0,0:0:0
320,104,225729,1,0,0:0:0
320,104,225843,2,0,B|268:100|232:136,1,90,2|0,0:0|0:0,0:0:0
184,204,226298,1,8,0:0:0
296,24,226525,2,0,B|344:12|380:44,1,90,2|0,0:0|0:0,0:0:0
308,196,226979,5,2,0:0:0
468,72,227207,1,8,0:0:0
475,93,227320,1,0,0:0:0
480,115,227434,1,0,0:0:0
478,137,227548,1,0,0:0:0
476,160,227661,2,0,B|472:209|429:235,1,90,4|0,0:0|0:0,0:0:0
275,111,228116,5,8,0:0:0
308,196,228343,2,0,B|264:228|176:208|152:152,1,180,2|2,0:0|0:0,0:0:0
192,72,229025,1,8,0:0:0
52,232,229252,6,0,B|152:264,1,90,2|0,0:0|0:0,0:0:0
232,320,229707,2,0,B|132:348,1,90,2|8,0:0|0:0,0:0:0
320,360,230161,2,0,B|372:388|448:368|480:304,1,180,2|2,0:0|0:0,0:0:0
475,311,230843,1,8,0:0:0
392,184,231070,5,0,0:0:0
392,184,231184,1,0,0:0:0
392,184,231298,2,0,B|468:128,1,90,2|0,0:0|0:0,0:0:0
484,220,231752,5,8,0:0:0
312,224,231979,2,0,B|284:180|316:124,1,90,2|0,0:0|0:0,0:0:0
440,28,232434,2,0,B|468:72|436:128,1,90,2|8,0:0|0:0,0:0:0
360,328,232889,1,0,0:0:0
360,328,233002,1,0,0:0:0
360,328,233116,2,0,B|268:328,1,90,2|0,0:0|0:0,0:0:0
188,288,233570,5,8,0:0:0
228,112,233798,1,2,0:0:0
368,228,234025,1,2,0:0:0
101,325,234252,5,0,0:0:0
90,308,234366,1,0,0:0:0
83,287,234479,1,8,0:0:0
76,266,234593,1,0,0:0:0
77,243,234707,1,0,0:0:0
79,222,234820,1,0,0:0:0
84,200,234934,2,0,B|94:150|175:103|233:113,1,180,4|8,0:0|0:0,0:0:0
368,228,235616,6,0,B|280:205,1,90,0|2,0:0|0:0,0:0:0
256,292,236070,2,0,B|344:315,2,90,0|8|0,0:0|0:0|0:0,0:0:0
172,328,236752,6,0,B|143:371|55:391|3:355,1,180,2|8,0:0|0:0,0:0:0
35,163,237434,2,0,B|64:120|152:100|204:136,1,180,2|2,0:0|0:0,0:0:0
198,132,238116,2,0,B|276:88,1,90,8|0,0:0|0:0,0:0:0
352,136,238570,2,0,B|375:49,1,90,2|0,0:0|0:0,0:0:0
464,64,239025,2,0,B|440:150,1,90,8|0,0:0|0:0,0:0:0
404,232,239479,6,0,B|308:256,1,90,2|0,0:0|0:0,0:0:0
268,80,239934,1,8,0:0:0
176,236,240161,1,2,0:0:0
176,236,240275,1,0,0:0:0
176,236,240389,2,0,B|128:236|100:188,1,90,2|0,0:0|0:0,0:0:0
100,56,240843,6,0,B|132:20|184:32,1,90,10|0,0:0|0:0,0:0:0
328,148,241298,2,0,B|296:184|244:172,1,90,2|0,0:0|0:0,0:0:0
408,24,241752,2,0,B|456:21|484:66,1,90,10|0,0:0|0:0,0:0:0
336,280,242207,1,4,0:0:0
264,356,242434,5,0,0:0:0
416,340,242661,1,8,0:0:0
428,320,242775,1,0,0:0:0
438,299,242889,1,2,0:0:0
448,280,243002,1,0,0:0:0
456,260,243116,2,0,B|484:216|464:168,1,90
316,148,243570,2,0,B|220:148,2,90,8|0|2,0:0|0:0|0:0,0:0:0
440,80,244252,2,0,B|488:80,2,45,2|0|8,0:0|0:0|0:0,0:0:0
356,40,244707,6,0,B|248:56,1,90,0|2,0:0|0:0,0:0:0
128,96,245161,1,0,0:0:0
16,192,245389,2,0,B|112:224,1,90,8|0,0:0|0:0,0:0:0
288,328,245843,6,0,B|332:292|348:220|304:164,1,180
232,116,246525,1,0,0:0:0
256,192,246752,12,2,249479,0:0:0
104,280,250161,6,0,B|124:336|224:372|284:336,1,202.500007724762
412,188,251298,2,0,B|436:156,2,33.7500012874604,2|2|0,0:0|0:0|0:0,0:0:0
364,252,251752,1,0,0:0:0
308,192,251979,1,0,0:0:0
308,192,252207,2,0,B|228:192,1,67.5000025749208
252,96,252661,2,0,B|192:132,1,67.5000025749208
128,88,253116,6,0,B|88:148|120:216,1,135.000005149842,2|0,0:0|0:0,0:0:0
120,216,253798,2,0,B|252:252,1,135.000005149842,2|0,0:0|0:0,0:0:0
296,316,254479,2,0,B|356:272,1,67.5000025749208
408,216,254934,5,2,0:0:0
408,216,255048,1,2,0:0:0
408,216,255161,2,0,B|424:124,1,67.5000025749208
340,156,255616,2,0,B|328:88,1,67.5000025749208
256,128,256070,2,0,B|220:68,1,67.5000025749208
148,108,256525,1,0,0:0:0
80,60,256752,6,0,B|45:120|85:188,1,135.000005149842,2|0,0:0|0:0,0:0:0
176,332,257434,2,0,B|108:372|44:336,2,135.000005149842,2|0|0,0:0|0:0|0:0,0:0:0
220,264,258570,5,2,0:0:0
220,264,258684,1,2,0:0:0
220,264,258798,2,0,B|244:188,1,67.5000025749208
312,160,259252,2,0,B|328:192|312:228,1,67.5000025749208
404,224,259707,2,0,B|388:192|404:156,1,67.5000025749208
484,148,260161,6,0,B|484:252,1,90
