osu file format v12

[General]
AudioFilename: SaintRowIV Songs.mp3
AudioLeadIn: 0
PreviewTime: -1
Countdown: 1
SampleSet: None
StackLeniency: 0.7
Mode: 0
LetterboxInBreaks: 1
WidescreenStoryboard: 0

[Editor]
Bookmarks: 47354
DistanceSpacing: 0.8
BeatDivisor: 16
GridSize: 32

[Metadata]
Title:Saint Row Song
TitleUnicode:Saint Row Song
Artist:Saints Row IV
ArtistUnicode:Saints Row IV
Creator:DygnitarZ
Version:Insane
Source:
Tags:Saints Row IV, Game, Dubstep
BeatmapID:329299
BeatmapSetID:130582

[Difficulty]
HPDrainRate:8
CircleSize:4
OverallDifficulty:8
ApproachRate:9
SliderMultiplier:1.40000000596046
SliderTickRate:2

[Events]
//Background and Video events
//Break Periods
2,24428,25899
//Storyboard Layer 0 (Background)
//Storyboard Layer 1 (Fail)
//Storyboard Layer 2 (Pass)
//Storyboard Layer 3 (Foreground)
//Storyboard Sound Samples
//Background Colour Transformations
3,100,101,151,201

[TimingPoints]
0,333.333333333333,4,1,0,100,1,0
18124,-133.333333333333,4,1,0,100,0,0
19475,-100,4,1,0,100,0,0
21854,-133.333333333333,4,1,0,100,0,0
22124,-100,4,1,0,100,0,0
30706,-181.818181818181,4,1,0,100,0,0
32416,-100,4,1,0,100,0,0
33166,-66.6666666666667,4,1,0,100,0,0
42687,-76.9230769230769,4,1,0,100,0,0
45916,-90.9090909090909,4,1,0,100,0,0
46291,-133.333333333333,4,1,0,100,0,0
47694,-90.9090909090909,4,1,0,100,0,0

[Colours]
Combo1 : 155,255,45
Combo2 : 255,77,72
Combo3 : 170,255,242
Combo4 : 255,175,68
Combo5 : 91,173,255

[HitObjects]
256,192,12166,12,0,14833,0:0:0:0:
384,320,15499,5,0,0:0:0:0:
384,288,15611,5,0,0:0:0:0:
384,256,15722,1,0,0:0:0:0:
288,192,15944,5,0,0:0:0:0:
288,224,16056,5,0,0:0:0:0:
288,256,16167,1,0,0:0:0:0:
192,224,16388,5,0,0:0:0:0:
192,192,16500,5,0,0:0:0:0:
192,160,16611,1,0,0:0:0:0:
96,128,16833,5,0,0:0:0:0:
96,160,16945,5,0,0:0:0:0:
96,192,17056,1,0,0:0:0:0:
128,288,17291,1,0,0:0:0:0:
256,320,17541,1,0,0:0:0:0:
416,288,17749,1,0,0:0:0:0:
448,288,17874,5,0,0:0:0:0:
448,256,17999,5,0,0:0:0:0:
449,130,18249,2,0,L|449:98,4,17.5000000745057
303,67,18666,1,0,0:0:0:0:
97,123,18916,1,0,0:0:0:0:
72,279,19166,1,0,0:0:0:0:
128,320,19312,2,0,L|160:320,1,32.8125013913959
345,323,19624,2,0,L|409:323,2,52.5000002235172
428,204,20083,1,0,0:0:0:0:
288,96,20333,2,0,L|192:96,1,87.5000003725287
192,192,20749,2,0,L|96:192,1,87.5000003725287
128,288,21208,1,0,0:0:0:0:
288,320,21458,1,0,0:0:0:0:
320,320,21583,1,0,0:0:0:0:
352,320,21708,1,0,0:0:0:0:
443,225,21916,2,0,L|443:193,3,17.5000000745057
320,64,22166,2,0,L|224:64,1,87.5000003725287
128,160,22624,2,0,L|32:160,1,87.5000003725287
192,288,23083,1,0,0:0:0:0:
64,352,23312,1,0,0:0:0:0:
320,352,23520,2,0,P|384:320|384:288,1,105.000000447034
64,128,23979,2,0,P|96:64|128:64,1,105.000000447034
256,192,26499,12,0,28958,0:0:0:0:
416,288,29499,5,0,0:0:0:0:
416,256,29624,1,0,0:0:0:0:
416,224,29750,1,0,0:0:0:0:
416,192,29874,1,0,0:0:0:0:
410,159,29999,1,0,0:0:0:0:
401,127,30124,1,0,0:0:0:0:
379,103,30249,1,0,0:0:0:0:
343,81,30374,1,0,0:0:0:0:
305,73,30479,1,0,0:0:0:0:
262,77,30604,1,0,0:0:0:0:
228,93,30729,1,0,0:0:0:0:
213,127,30833,2,0,L|213:159,4,26.2500001117586
211,128,31374,2,0,L|179:128,3,28.8750010041296
32,256,31888,2,0,L|128:256,1,96.2500033470986
229,340,32479,1,0,0:0:0:0:
233,186,32666,1,0,0:0:0:0:
341,265,32854,1,0,0:0:0:0:
402,211,32979,2,0,L|404:231,3,17.5000000745057
448,160,33208,2,0,B|384:64|384:64|320:32|320:32|192:32|192:32|128:64|128:64|64:160|64:160|64:288|64:288|96:352|96:352|128:384|128:384|320:384|320:384|384:384|384:384|448:320|448:320|448:288|448:288|448:288|448:288|448:224,2,1181.25005009025
256,192,37291,12,0,42125,0:0:0:0:
48,331,43604,6,0,L|432:331,1,380.625016140192
464,313,44395,1,0,0:0:0:0:
483,284,44479,1,0,0:0:0:0:
493,255,44562,1,0,0:0:0:0:
498,218,44645,1,0,0:0:0:0:
500,186,44729,1,0,0:0:0:0:
499,156,44812,1,0,0:0:0:0:
498,125,44895,1,0,0:0:0:0:
497,97,44979,1,0,0:0:0:0:
496,69,45062,1,0,0:0:0:0:
495,38,45145,2,0,L|205:39,1,284.374988193065
179,41,45749,1,0,0:0:0:0:
148,51,45833,1,0,0:0:0:0:
127,63,45916,1,0,0:0:0:0:
106,84,45999,1,0,0:0:0:0:
95,109,46083,1,0,0:0:0:0:
86,139,46166,1,0,0:0:0:0:
84,172,46249,1,0,0:0:0:0:
82,203,46333,2,0,L|80:233,4,28.8750010041296
206,240,46770,1,0,0:0:0:0:
208,179,46854,2,0,L|208:148,2,26.2500011131167
251,133,47104,2,0,L|252:102,2,26.2500011131167
278,67,47374,1,0,0:0:0:0:
329,45,47479,1,0,0:0:0:0:
389,36,47604,1,0,0:0:0:0:
434,46,47729,2,0,P|476:209|288:354,1,433.125015061944
300,111,48915,2,0,P|126:142|208:280,1,394.625013723104
239,286,49853,1,0,0:0:0:0:
265,291,49936,1,0,0:0:0:0:
294,297,50019,1,0,0:0:0:0:
324,304,50103,1,0,0:0:0:0:
356,316,50186,2,0,L|383:327,3,28.8750010041296
