osu file format v5

[General]
AudioFilename: sm metal.mp3
AudioLeadIn: 0
PreviewTime: -1
Countdown: 1
SampleSet: Normal
StackLeniency: 0.7
Mode: 0
EditorBookmarks: 9174,23670,36206,50661,62206,73297

[Metadata]
Title:Moonlight Densetsu (Metal Version)
Artist:Sailor Moon - Animetal
Creator:kingcobra52
Version:Hard

[Difficulty]
HPDrainRate:6
CircleSize:5
OverallDifficulty:7
SliderMultiplier:1.6
SliderTickRate:1

[Events]
//Background and Video events
1,-1600,"sm.avi"
//Break Periods
//Storyboard Layer 0 (Background)
//Storyboard Layer 1 (Failing)
//Storyboard Layer 2 (Passing)
//Storyboard Layer 3 (Foreground)
//Storyboard Sound Samples
//Background Colour Transformations
3,100,163,162,255

[TimingPoints]
10585,363.671321171995,4,1,0,80

[Colours]
Combo1 : 255,128,0
Combo2 : 255,255,0
Combo3 : 0,0,255
Combo4 : 240,5,5
Combo5 : 0,179,0

[HitObjects]
104,72,10585,2,0,B|192:72,1,80
392,312,11676,2,0,B|304:312,1,80
312,248,12039,2,0,B|408:248,1,80
392,184,12403,2,2,B|296:184,1,80
264,64,12948,5,0
208,32,13130,1,0
152,64,13312,1,0
96,32,13494,2,0,B|5:56|28:188|120:208,1,240
248,208,14403,1,0
280,264,14585,1,0
312,208,14767,1,0
344,264,14949,2,2,B|448:128,1,160
272,40,15858,5,0
232,88,16040,1,0
192,136,16221,1,0
152,184,16403,2,0,B|60:266|140:327|240:352,1,240
352,320,17312,1,0
408,296,17494,1,0
456,256,17676,1,0
480,200,17858,2,2,B|480:32,1,160
288,40,18767,5,0
224,40,18949,1,0
224,104,19131,1,0
288,104,19313,2,2,B|296:184|200:240,1,160
80,240,20040,2,2,B|108:332|216:336,1,160
320,336,20767,1,4
448,336,21131,1,4
440,144,21676,5,0
384,104,21858,1,0
328,144,22040,1,0
256,192,22222,12,2,23495
136,160,24040,2,2,B|400:160,1,240
424,112,24768,1,0
376,80,24950,1,0
320,64,25131,1,0
192,56,25495,1,0
136,88,25677,1,0
32,184,26041,2,0,B|112:232,2,80
100,225,26586,2,0,B|128:296|272:288,1,160
432,264,27495,5,0
472,208,27677,1,0
432,152,27859,1,0
472,104,28041,1,0
344,104,28404,1,0
344,168,28586,1,0
224,104,28950,1,0
224,168,29132,1,0
288,280,29495,2,0,B|104:280,1,160
304,352,30405,5,0
368,344,30586,1,0
424,312,30768,1,0
464,264,30950,2,0,B|508:186|464:88,1,160
448,48,31496,1,0
320,40,31859,2,0,B|232:80,2,80
247,73,32405,2,0,B|80:72,1,160
64,264,33314,5,0
120,296,33496,1,0
176,264,33678,1,0
224,296,33859,2,0,B|300:326|384:288,1,160
440,264,34405,1,0
440,200,34587,1,0
440,136,34769,1,4
312,136,35132,1,4
184,136,35496,5,2
184,200,35678,2,2,B|96:200,1,80
104,264,36041,1,0
152,304,36223,5,0
208,336,36405,1,0
264,312,36587,1,0
328,336,36769,2,4,B|412:342|464:240,1,160
464,192,37314,2,4,B|470:108|368:56,1,160
320,48,37860,1,4
208,48,38224,1,0
88,112,38587,1,0
32,232,38951,1,0
72,280,39133,5,0
128,248,39315,1,0
184,216,39496,1,0
240,184,39678,2,0,B|336:136,1,80
344,200,40042,2,0,B|272:240,2,80
274,238,40587,2,0,B|233:345|351:363,1,160
392,360,41133,2,0,B|438:348|472:288,1,80
456,312,41497,1,0
448,120,42042,5,0
384,120,42224,1,0
328,80,42406,1,0
280,40,42588,2,4,B|160:40|112:88,1,160
80,128,43133,2,4,B|64:208|136:288,1,160
176,312,43679,1,0
232,288,43860,1,0
288,264,44042,1,0
408,208,44406,1,0
408,72,44770,1,0
344,96,44951,5,0
280,96,45133,1,0
224,128,45315,1,0
192,184,45497,2,0,B|88:216,1,80
120,272,45861,2,0,B|208:304,1,80
256,320,46224,1,2
320,336,46406,1,2
432,272,46770,1,2
256,192,46952,12,0,50588
112,72,50952,1,0
232,72,51316,2,0,B|408:72,2,160
232,192,52407,1,0
232,256,52589,2,0,B|320:304,1,80
432,304,53134,1,0
432,160,53498,1,0
432,88,53680,1,0
304,88,54043,1,0
240,88,54225,2,0,B|160:152,2,80
176,136,54771,1,0
136,200,54952,1,2
168,264,55134,1,2
296,344,55498,2,2,B|420:334|497:193|456:88,1,320
456,48,56407,2,2,B|392:48,2,40
464,112,56771,5,0
320,112,57134,2,0,B|184:208,2,160
328,240,58225,1,0
280,280,58407,2,0,B|200:336,1,80
168,280,58771,2,0,B|104:208,1,80
80,168,59135,1,0
80,104,59316,1,4
152,168,59589,1,4
224,104,59862,1,4
152,104,60044,1,0
152,40,60226,5,0
224,40,60407,1,0
352,40,60771,5,0
352,104,60953,1,0
352,232,61317,5,2
288,232,61498,1,2
224,232,61680,1,2
224,168,61862,5,2
160,168,62044,1,2
64,232,62408,5,0
88,288,62589,1,0
136,328,62771,1,0
192,336,62953,2,0,B|256:344|328:328|368:296,1,160
408,280,63499,1,0
464,176,63862,2,0,B|424:88,2,80
430,103,64408,2,0,B|384:42|315:23|256:64,1,160
152,72,65135,1,0
88,72,65317,5,0
120,128,65499,1,0
152,184,65681,1,0
88,184,65863,2,0,L|22:252|88:320,1,160
128,328,66408,1,0
192,328,66590,1,0
248,304,66772,2,0,L|336:264,1,80
368,232,67135,1,0
320,184,67317,2,0,L|264:120,1,80
240,64,67681,2,0,L|432:64,1,160
480,64,68226,5,0
480,128,68408,1,0
480,192,68590,1,0
480,256,68772,2,4,B|460:315|386:356|320:336,1,160
288,344,69317,2,4,B|205:331|173:283|168:248,1,160
192,192,69863,1,0
144,144,70045,1,0
192,104,70227,2,0,B|368:104,1,160
192,104,70954,1,0
144,64,71136,5,2
88,32,71318,1,2
32,64,71499,1,2
256,192,71681,12,2,73136
136,40,73500,1,0
232,128,73863,1,0
328,40,74227,1,0
232,128,74591,5,0
136,208,74954,1,0
232,128,75318,1,0
328,208,75682,1,0
232,288,76045,5,0
136,368,76409,1,0
232,288,76773,1,0
328,360,77136,1,0
456,352,77500,5,4
456,288,77682,1,4
456,64,78046,5,4
264,184,78409,5,4
72,64,78773,5,4
