osu file format v13

[General]
AudioFilename: Saiga Mitsuki & Yasumoto Hiroki - Sora no Tsubasa.mp3
AudioLeadIn: 1500
PreviewTime: 48482
Countdown: 3
SampleSet: Soft
StackLeniency: 0.7
Mode: 0
LetterboxInBreaks: 1
SkinPreference:okami
WidescreenStoryboard: 0

[Editor]
Bookmarks: 14516,26082,36925,43431,48492,60058,72347,83913,95480
DistanceSpacing: 1.2
BeatDivisor: 4
GridSize: 8
TimelineZoom: 1

[Metadata]
Title:Sora no Tsubasa (PV Size)
TitleUnicode:宙ノ翼 (PV Size)
Artist:Saiga Mitsuki & Yasumoto Hiroki
ArtistUnicode:斎賀みつき, 安元洋貴
Creator:Ruineko
Version:Normal
Source:幕末Rock 超魂(ウルトラソウル)
Tags:Bakumatsu Rock ULTRA SOUL Sora no Tsubasa Ii Naosuke Tokugawa Yoshinobu Saiga Mitsuki Yasumoto Hiroki
BeatmapID:596625
BeatmapSetID:226747

[Difficulty]
HPDrainRate:4
CircleSize:4
OverallDifficulty:4
ApproachRate:4
SliderMultiplier:1.4
SliderTickRate:1

[Events]
//Background and Video events
Video,0,"Sora no Tsubasa.avi"
0,0,"bg2.jpg",0,0
//Break Periods
//Storyboard Layer 0 (Background)
//Storyboard Layer 1 (Fail)
//Storyboard Layer 2 (Pass)
//Storyboard Layer 3 (Foreground)
//Storyboard Sound Samples

[TimingPoints]
2940,722.89156626506,4,1,0,100,1,0
14506,-100,4,1,0,70,0,0
36725,-100,4,1,0,100,0,0
47578,-100,4,2,1,5,0,0
47939,-100,4,1,0,100,0,0
49205,-100,4,1,0,100,0,1
60590,-100,4,1,0,100,0,0
60771,-100,4,1,0,100,0,1
72337,-100,4,1,0,100,0,0
83723,-100,4,1,0,100,0,0
83903,-100,4,1,0,100,0,1
95289,-100,4,1,0,25,0,0
104144,-100,4,2,1,5,0,0

[Colours]
Combo1 : 199,199,199
Combo2 : 216,189,5
Combo3 : 105,105,105
Combo4 : 249,254,186
SliderBorder : 255,235,202

[HitObjects]
256,192,2940,5,0,0:0:0:0:
133,306,3662,2,0,P|53:330|13:266,1,140,0|0,0:0|2:0,0:0:0:0:
18,211,4747,1,0,0:0:0:0:
39,129,5108,1,0,0:0:0:0:
97,68,5470,1,0,0:0:0:0:
178,47,5831,6,0,L|338:47,1,140,0|0,0:0|2:0,0:0:0:0:
393,85,6915,1,0,0:0:0:0:
310,231,7638,1,0,0:0:0:0:
255,294,8000,1,0,0:0:0:0:
199,231,8361,1,0,0:0:0:0:
119,203,8723,6,0,P|23:131|31:99,1,140,0|0,0:0|0:0,0:0:0:0:
70,61,9807,2,0,B|109:99|174:37|214:77,1,140,0|0,0:0|0:0,0:0:0:0:
285,46,10891,1,0,0:0:0:0:
357,88,11253,1,0,0:0:0:0:
427,133,11614,5,0,0:0:0:0:
460,210,11976,2,0,L|366:210,1,70
410,291,12699,2,0,L|321:291,1,70,0|0,0:0|0:0,0:0:0:0:
256,289,13421,1,0,0:0:0:0:
187,239,13783,2,0,L|115:239,1,70,0|0,0:0|0:0,0:0:0:0:
158,165,14506,6,0,L|315:166,1,140
256,240,15590,2,0,L|288:240|344:240,1,70,0|0,0:0|2:0,0:0:0:0:
368,312,16313,2,0,L|424:312|464:312,2,70,0|0|0,0:0|0:0|0:0,0:0:0:0:
399,233,17397,2,0,L|399:65,1,140,0|0,0:0|2:0,0:0:0:0:
320,56,18482,22,0,L|256:24,1,70,0|0,0:0|0:0,0:0:0:0:
256,112,19205,1,0,0:0:0:0:
253,195,19566,2,0,L|174:159,1,70,0|0,0:0|0:0,0:0:0:0:
120,120,20289,1,0,0:0:0:0:
144,40,20650,2,0,L|184:40,2,35,0|0|0,0:0|0:0|0:0,0:0:0:0:
224,72,21373,22,0,B|320:96|320:96,1,70,0|0,0:0|0:0,0:0:0:0:
368,64,22096,1,0,0:0:0:0:
432,120,22458,1,0,0:0:0:0:
368,176,22819,1,0,0:0:0:0:
344,256,23180,2,0,B|288:256|168:328|256:416|352:328|224:256|152:256,1,280
256,112,25349,1,0,0:0:0:0:
128,216,26072,6,0,B|144:304|248:320,1,140,0|0,0:0|0:0,0:0:0:0:
256,240,27156,1,0,0:0:0:0:
294,313,27518,2,0,B|368:304|384:216,1,140,0|0,0:0|0:0,0:0:0:0:
448,168,28602,2,0,P|456:120|424:80,1,70,0|0,0:0|0:0,0:0:0:0:
408,32,29325,1,0,0:0:0:0:
328,32,29686,1,0,0:0:0:0:
240,32,30048,22,0,L|144:32,1,70,0|0,0:0|2:0,0:0:0:0:
80,40,30771,2,0,L|80:280,1,210,0|0,0:0|2:0,0:0:0:0:
144,304,32217,1,0,0:0:0:0:
224,320,32578,1,0,0:0:0:0:
304,336,32939,22,0,P|352:336|424:248,1,140
448,200,34024,1,0,0:0:0:0:
366,182,34385,2,0,B|275:126|448:433|248:143|258:250,1,210
216,320,35831,1,0,0:0:0:0:
176,248,36193,2,0,L|16:248,1,140
36,163,37277,1,0,0:0:0:0:
36,79,37638,6,0,L|196:79,1,140,0|0,0:0|2:0,0:0:0:0:
248,32,38723,1,0,0:0:0:0:
312,80,39084,1,0,0:0:0:0:
376,128,39446,1,0,0:0:0:0:
456,128,39807,2,0,L|456:288,1,140,0|0,0:0|0:0,0:0:0:0:
384,312,40891,1,0,0:0:0:0:
384,240,41253,2,0,L|216:240,1,140,0|0,0:0|0:0,0:0:0:0:
216,320,42337,2,0,L|120:320,2,70,0|0|0,0:0|2:0|0:0,0:0:0:0:
147,271,43421,6,0,L|147:111,1,140,0|0,0:0|0:0,0:0:0:0:
208,72,44506,1,0,0:0:0:0:
256,192,44867,12,4,47759,0:0:0:0:
256,192,48482,22,0,L|256:248,2,35,0|0|0,2:0|2:0|2:0,0:0:0:0:
208,120,49205,6,0,P|168:80|80:120,1,140,4|0,0:0|0:0,0:0:0:0:
56,176,50289,2,0,L|56:264,1,70
136,248,51012,1,0,0:0:0:0:
176,320,51373,2,0,P|216:344|264:328,1,70
320,312,52096,6,0,P|368:256|360:168,1,140,4|0,0:0|0:0,0:0:0:0:
368,112,53180,2,0,L|320:48,1,70
248,80,53903,1,0,2:0:0:0:
216,160,54265,2,0,L|312:160,1,70,0|0,0:0|0:0,0:0:0:0:
336,232,54988,6,0,L|272:336|272:336,1,105
180,246,56072,2,0,L|132:134,1,105
256,105,57156,2,0,L|256:65,2,35,0|0|0,0:0|0:0|0:0,0:0:0:0:
256,189,57879,6,0,L|256:285,1,70,0|0,0:0|0:0,0:0:0:0:
212,331,58602,2,0,P|244:355|300:331,1,105
376,232,59686,1,0,0:0:0:0:
408,152,60048,2,0,L|464:176,2,35,0|0|0,0:0|2:0|0:0,0:0:0:0:
408,64,60771,2,0,B|368:80|312:48|264:64,1,140
192,40,61855,1,0,0:0:0:0:
112,64,62217,2,0,P|88:96|88:128,1,70
95,208,62939,1,0,0:0:0:0:
156,264,63301,1,0,0:0:0:0:
236,287,63662,2,0,B|259:275|339:299|307:319|248:332|300:267|323:254,1,140
392,208,64747,2,0,P|448:176|452:144,1,70,0|0,0:0|0:0,0:0:0:0:
412,98,65470,1,0,0:0:0:0:
328,88,65831,2,0,L|231:87,1,70
173,87,66554,6,0,L|172:181,1,70
174,241,67277,1,0,0:0:0:0:
256,258,67638,2,0,L|256:169,1,70
256,103,68361,2,0,L|256:23,2,70,0|0|0,0:0|2:0|0:0,0:0:0:0:
328,145,69446,5,0,0:0:0:0:
358,66,69807,1,0,0:0:0:0:
439,46,70168,1,0,0:0:0:0:
441,130,70530,2,0,L|441:186|440:228,1,70
256,192,71253,12,0,72337,0:0:0:0:
128,192,72699,5,0,0:0:0:0:
208,192,73060,1,0,0:0:0:0:
288,192,73421,2,0,L|384:192,1,70,0|0,0:0|2:0,0:0:0:0:
440,192,74144,1,0,0:0:0:0:
440,280,74506,1,0,0:0:0:0:
360,280,74867,1,0,0:0:0:0:
288,328,75229,6,0,P|232:312|208:280,1,70,0|0,0:0|2:0,0:0:0:0:
160,248,75952,1,0,0:0:0:0:
104,184,76313,2,0,B|72:144|120:104|160:120|120:136|72:96|104:56,1,140
184,64,77397,2,0,L|264:64,1,70
336,64,78120,6,0,L|392:64,2,35,0|0|0,0:0|2:0|0:0,0:0:0:0:
384,136,78843,2,0,L|248:224,1,140,0|0,0:0|2:0,0:0:0:0:
256,128,79927,1,0,0:0:0:0:
168,128,80289,1,0,0:0:0:0:
168,208,80650,1,0,0:0:0:0:
168,296,81012,6,0,L|168:336,2,35,0|0|0,0:0|2:0|0:0,0:0:0:0:
88,288,81735,1,0,0:0:0:0:
48,216,82096,1,0,0:0:0:0:
8,144,82458,2,0,L|72:88,1,70
144,88,83180,1,0,0:0:0:0:
228,87,83542,1,0,0:0:0:0:
312,88,83903,6,0,L|312:176,1,70,4|0,0:0|0:0,0:0:0:0:
384,200,84626,2,0,L|384:288,1,70,0|0,0:0|2:0,0:0:0:0:
312,312,85349,1,0,0:0:0:0:
224,312,85711,1,0,0:0:0:0:
144,304,86072,2,0,L|144:352,2,35,0|0|0,0:0|2:0|0:0,0:0:0:0:
120,224,86795,5,4,0:0:0:0:
126,140,87156,1,0,0:0:0:0:
176,72,87518,1,0,0:0:0:0:
256,40,87879,2,0,L|256:88,1,35
312,192,88602,1,0,0:0:0:0:
256,256,88964,1,0,0:0:0:0:
200,192,89325,1,0,0:0:0:0:
144,128,89686,6,0,L|83:75,1,70,4|0,0:0|0:0,0:0:0:0:
168,48,90409,2,0,L|248:-8,1,70,0|0,0:0|2:0,0:0:0:0:
240,88,91132,2,0,L|304:136,1,70
312,216,91855,2,0,L|360:248,2,35,0|0|0,0:0|2:0|0:0,0:0:0:0:
224,216,92578,5,4,0:0:0:0:
152,168,92939,1,0,0:0:0:0:
88,112,93301,1,0,0:0:0:0:
136,48,93662,2,0,L|200:48,1,35,0|0,0:0|2:0,0:0:0:0:
256,144,94385,1,0,0:0:0:0:
296,216,94747,1,0,0:0:0:0:
216,216,95108,1,0,0:0:0:0:
160,160,95470,6,0,L|48:216,1,105,0|0,2:0|2:0,2:0:0:0:
64,336,96554,1,0,2:0:0:0:
184,216,97277,1,0,2:0:0:0:
240,160,97638,1,0,2:0:0:0:
304,104,98000,1,0,2:0:0:0:
376,56,98361,6,0,L|376:184,1,105,0|0,2:0|2:0,2:0:0:0:
376,288,99446,1,0,2:0:0:0:
208,288,100168,2,0,L|208:200,1,70,0|0,2:0|2:0,2:0:0:0:
120,216,100891,1,0,2:0:0:0:
256,192,101253,12,0,104506,2:0:0:0:
